Harry Nilsson - The Real... Harry Nilsson, The Ultimate Collection (2014) 3 CDs

Posted By: Designol
Harry Nilsson - The Real... Harry Nilsson, The Ultimate Collection (2014) 3 CDs

Harry Nilsson - The Real… Harry Nilsson, The Ultimate Collection (2014) 3 CDs
EAC | FLAC | Tracks (Cue&Log) ~ 940 Mb | Mp3 (CBR320) ~ 400 Mb | Scans included | 02:47:42
Pop/Rock, Baroque Pop, Soft Rock, Singer/Songwriter | Label: RCA/Sony | # 88843036892

A trawl through the wonderful career of the hugely underrated Harry Nilsson takes a chronological look at his back catalogue. Pretty much every classic you would ever need is here - Everybody's Talkin', Me and My Arrow, Without Her, Without You, One… the list goes on. Naturally there is a concentration on Harry's most successful work Nilsson Schmilsson with all but one track of the entire album included. There are some delightful hidden classics too with hard to find tracks included, but perhaps too little concentration on his later career. Nevertheless, this is a superb retrospective.

Review by D J F, Amazon.co.uk

Although he synthesized disparate elements of both rock and pop traditions, singer/songwriter Harry Nilsson was at heart a maverick whose allegiance belonged to neither. His initial series of albums in the late '60s made him a personal favorite of the Beatles, who found a natural affinity with his knack for catchy melodies, witty lyrics, and extraordinary vocal range. Thought of as a songwriter first and a performer second, he became a pop star himself in the late '60s and early '70s with "Everybody's Talking" and "Without You." He lost some of his original audience, however, with subsequent detours into pre-rock styles of pop, and did little recording over the last 15 years of his life.

Nilsson had been struggling to make inroads into the music business for over five years before his critically acclaimed 1967 album, Pandemonium Shadow Show. He made demos, sang commercial jingles, and shopped songs, all the while keeping his job at a Los Angeles-area bank. In the mid-'60s, he wrote a few songs with Phil Spector that were recorded by the Ronettes and the Modern Folk Quartet; occasionally he released records of his own. The Monkees recorded his "Cuddly Toy," and the Yardbirds did "Ten Little Indians" on a single in their waning days. But Nilsson didn't quit his bank job until after the release of Pandemonium Shadow Show, which gave him creative rein in the studio for the first time, and showcased his three-and-a-half-octave voice to full advantage.

The album caught the attention of the Beatles (helped, no doubt, by its ingenious medley of classic Beatle tunes, "You Can't Do That"). John Lennon and Paul McCartney named him as their favorite American singer at a press conference, an extraordinary accolade for an unknown. (Nilsson was sometimes even rumored to be joining the group.) Three Dog Night took his "One" into the Top Ten in 1969, and Nilsson's second LP, Aerial Ballet, continued the ambitious pop/rock direction of his debut, marrying his slightly eccentric, bouncy (if sometimes precious) tunes to baroque orchestral production. When one of its songs, "Everybody's Talkin'," was used as the theme for the Midnight Cowboy film, Nilsson had his first Top Ten hit. The irony was that, although Nilsson was primarily identified as a singer/songwriter, the song was actually a cover of a composition by folk-rocker Fred Neil.

But Nilsson would never be content to be pigeonholed into definite categories, as demonstrated by his two 1970 albums. One was devoted entirely to covers of songs by Randy Newman (then just emerging as a performer); another was his soundtrack to an animated children's special, The Point (including the hit "Me and My Arrow"). And it was another cover (of a Badfinger album track) that gave him his biggest single, the number one smash "Without You." Yet Nilsson didn't cash in on his stardom in a conventional manner; he never performed in concert (there were occasional television appearances), preferring to craft his artistry in the studio.

"Without You" appeared on 1971's Nilsson Schmilsson, which included a couple of other hits, the faux-tropical "Coconut" and the surprisingly gritty "Jump Into the Fire," which rates as his hardest-rocking cut. During the first half of the 1970s, he continued to broaden his range from the well-crafted, peppy, sensitive tunes that had dotted his early releases, cutting some tougher, more sour work. He lost some of his constituency, however, with 1973's A Little Touch of Schmilsson in the Night, a collection of pre-rock pop standards with an orchestra conducted by arranger Gordon Jenkins (most noted for his work with Frank Sinatra). His affection for the music wasn't entirely surprising, as there had always been a strong Tin Pan Alley flavor to much of his writing, but it wasn't exactly in step with the times.

Much of Nilsson's notoriety stems from a period in the mid-'70s when he was a drinking buddy of John Lennon in Los Angeles (where Lennon was living during a separation from Yoko Ono). The drunken pair were thrown out of L.A.'s Troubadour club in a well-publicized incident, following which Lennon offered to produce Nilsson's next album. The timing was not opportune; Nilsson lost his voice during the sessions, rupturing one of his vocal cords, keeping it a secret out of fear that Lennon would abandon the project. Released as Pussy Cats, it was his last album to make the Top 100. During the same period, he also embarked on a project with another L.A.-based ex-Beatle, Ringo Starr, acting and writing music for the little-seen Son of Dracula film.

The upper register of Nilsson's voice, which was ultimately his greatest asset, had been permanently (though not irredeemably) damaged. After a few rather unsuccessful late-'70s album, Nilsson withdrew from the studio into family life and other business ventures, spending much of his energies campaigning for gun control after Lennon was shot in 1980. In failing health in the 1990s, diagnosed with diabetes and suffering a massive heart attack, he died in early 1994, just after finishing the vocal tracks for a new album.

Review by Biography by Richie Unterberger

Harry Nilsson - The Real... Harry Nilsson, The Ultimate Collection (2014) 3 CDs



Tracklist:

CD1:

01. 1941 (2:41)
02. Cuddly Toy (2:51)
03. You Can't Do That (2:19)
04. Without Her (2:19)
05. Sleep Late, My Lady Friend (2:42)
06. River Deep, Mountain High (4:22)
07. Everybody's Talkin' (2:44)
08. One (2:53)
09. Don't Leave Me (2:20)
10. Daddy's Song (2:41)
11. Good Old Desk (2:23)
12. Together (2:11)
13. I Will Take You There (2:42)
14. Mother Nature's Song (2:42)
15. City Life (2:30)
16. Rainmaker (2:47)
17. The Puppy Song (2:41)
18. I Guess The Lord Must Be In New York City (2:43)


CD2:

01. Vine Street (2:53)
02. Love Story (You And Me) (3:42)
03. Me And My Arrow (2:08)
04. Think About Your Troubles (2:50)
05. Down (3:25)
06. Without You (3:22)
07. Jump Into The Fire (7:01)
08. Let The Good Times Roll (2:44)
09. Driving Along (2:05)
10. Coconut (3:51)
11. Gotta Get Up (2:25)
12. I'll Never Leave You (4:16)
13. How Can I Be Sure Of You (3:05)
14. The Moonbeam Song (3:23)
15. Spaceman (3:35)
16. Turn On Your Radio (2:41)
17. You're Breakin' My Heart (3:09)
18. Daybreak (3:07)


CD3:

01. Nevertheless (I'm In Love With You) (2:41)
02. This Is All I Ask (3:38)
03. Over The Rainbow (3:32)
04. It Had To Be You (2:32)
05. As Time Goes By (3:25)
06. You Made Me Love You (2:35)
07. Save The Last Dance For Me (4:31)
08. Many Rivers To Cross (5:00)
09. What's Your Sign? (2:53)
10. Easier For Me (2:31)
11. Something True (2:58)
12. A Thousand Miles Away (2:52)
13. Sail Away (3:46)
14. Just One Look / Baby I'm Yours (3:21)
15. Blanket For A Sail (2:35)
16. Perfect Day (3:48)
17. All I Think About Is You (4:07)
18. Lean On Me (2:52)


Exact Audio Copy V1.3 from 2. September 2016

EAC extraction logfile from 27. June 2017, 21:51

Harry Nilsson / The Real… Harry Nilsson (CD1)

Used drive : TSSTcorpCDDVDW SE-208AB Adapter: 2 ID: 0

Read mode : Secure
Utilize accurate stream : Yes
Defeat audio cache : Yes
Make use of C2 pointers : No

Read offset correction : 6
Overread into Lead-In and Lead-Out : No
Fill up missing offset samples with silence : Yes
Delete leading and trailing silent blocks : No
Null samples used in CRC calculations : Yes
Used interface : Installed external ASPI interface
Gap handling : Appended to previous track

Used output format : User Defined Encoder
Selected bitrate : 768 kBit/s
Quality : High
Add ID3 tag : No
Command line compressor : C:\Program Files (x86)\Exact Audio Copy\Flac\flac.exe
Additional command line options : -8 -V -T "ARTIST=%artist%" -T "TITLE=%title%" -T "ALBUM=%albumtitle%" -T "DATE=%year%" -T "TRACKNUMBER=%tracknr%" -T "GENRE=%genre%" -T "COMMENT=%comment%" -T "BAND=%albuminterpret%" -T "ALBUMARTIST=%albuminterpret%" -T "COMPOSER=%composer%" %haslyrics%–tag-from-file=LYRICS="%lyricsfile%"%haslyrics% -T "DISCNUMBER=%cdnumber%" -T "TOTALDISCS=%totalcds%" -T "TOTALTRACKS=%numtracks%" %hascover%–picture="%coverfile%"%hascover% %source% -o %dest%


TOC of the extracted CD

Track | Start | Length | Start sector | End sector
––––––––––––––––––––––––––––-
1 | 0:00.00 | 2:40.41 | 0 | 12040
2 | 2:40.41 | 2:50.62 | 12041 | 24852
3 | 5:31.28 | 2:19.26 | 24853 | 35303
4 | 7:50.54 | 2:19.14 | 35304 | 45742
5 | 10:09.68 | 2:42.22 | 45743 | 57914
6 | 12:52.15 | 4:21.67 | 57915 | 77556
7 | 17:14.07 | 2:43.59 | 77557 | 89840
8 | 19:57.66 | 2:52.68 | 89841 | 102808
9 | 22:50.59 | 2:19.66 | 102809 | 113299
10 | 25:10.50 | 2:41.27 | 113300 | 125401
11 | 27:52.02 | 2:22.59 | 125402 | 136110
12 | 30:14.61 | 2:10.51 | 136111 | 145911
13 | 32:25.37 | 2:42.09 | 145912 | 158070
14 | 35:07.46 | 2:41.72 | 158071 | 170217
15 | 37:49.43 | 2:30.25 | 170218 | 181492
16 | 40:19.68 | 2:46.48 | 181493 | 193990
17 | 43:06.41 | 2:41.36 | 193991 | 206101
18 | 45:48.02 | 2:42.66 | 206102 | 218317


Track 1

Filename C:\Program Files (x86)\Exact Audio Copy\Flac\01. 1941.wav

Pre-gap length 0:00:02.00

Peak level 82.6 %
Extraction speed 0.9 X
Track quality 100.0 %
Test CRC 8B711771
Copy CRC 8B711771
Accurately ripped (confidence 5) [F9C9E457] (AR v2)
Copy OK

Track 2

Filename C:\Program Files (x86)\Exact Audio Copy\Flac\02. Cuddly Toy.wav

Pre-gap length 0:00:01.06

Peak level 90.8 %
Extraction speed 1.1 X
Track quality 100.0 %
Test CRC CD0F7AD0
Copy CRC CD0F7AD0
Accurately ripped (confidence 5) [BCB975B7] (AR v2)
Copy OK

Track 3

Filename C:\Program Files (x86)\Exact Audio Copy\Flac\03. You Can't Do That.wav

Pre-gap length 0:00:01.05

Peak level 90.8 %
Extraction speed 1.1 X
Track quality 100.0 %
Test CRC B3DA068A
Copy CRC B3DA068A
Accurately ripped (confidence 5) [5626C3AD] (AR v2)
Copy OK

Track 4

Filename C:\Program Files (x86)\Exact Audio Copy\Flac\04. Without Her.wav

Pre-gap length 0:00:00.52

Peak level 57.5 %
Extraction speed 1.2 X
Track quality 100.0 %
Test CRC 856C1D81
Copy CRC 856C1D81
Accurately ripped (confidence 5) [9C8B64FA] (AR v2)
Copy OK

Track 5

Filename C:\Program Files (x86)\Exact Audio Copy\Flac\05. Sleep Late, My Lady Friend.wav

Pre-gap length 0:00:01.27

Peak level 81.5 %
Extraction speed 1.2 X
Track quality 100.0 %
Test CRC F32AE3CD
Copy CRC F32AE3CD
Accurately ripped (confidence 5) [1E6AAC57] (AR v2)
Copy OK

Track 6

Filename C:\Program Files (x86)\Exact Audio Copy\Flac\06. River Deep, Mountain High.wav

Pre-gap length 0:00:00.33

Peak level 86.8 %
Extraction speed 1.4 X
Track quality 100.0 %
Test CRC 710C7E82
Copy CRC 710C7E82
Accurately ripped (confidence 5) [6290C58B] (AR v2)
Copy OK

Track 7

Filename C:\Program Files (x86)\Exact Audio Copy\Flac\07. Everybody's Talkin'.wav

Pre-gap length 0:00:00.53

Peak level 100.0 %
Extraction speed 1.4 X
Track quality 100.0 %
Test CRC 328168C3
Copy CRC 328168C3
Accurately ripped (confidence 5) [20F5AEBA] (AR v2)
Copy OK

Track 8

Filename C:\Program Files (x86)\Exact Audio Copy\Flac\08. One.wav

Pre-gap length 0:00:01.08

Peak level 78.1 %
Extraction speed 1.5 X
Track quality 100.0 %
Test CRC DB6B052D
Copy CRC DB6B052D
Accurately ripped (confidence 5) [8377922C] (AR v2)
Copy OK

Track 9

Filename C:\Program Files (x86)\Exact Audio Copy\Flac\09. Don't Leave Me.wav

Pre-gap length 0:00:00.69

Peak level 100.0 %
Extraction speed 1.4 X
Track quality 100.0 %
Test CRC B69E8512
Copy CRC B69E8512
Accurately ripped (confidence 5) [A660B5D1] (AR v2)
Copy OK

Track 10

Filename C:\Program Files (x86)\Exact Audio Copy\Flac\10. Daddy's Song.wav

Pre-gap length 0:00:00.56

Peak level 87.3 %
Extraction speed 1.3 X
Track quality 99.9 %
Test CRC CF117269
Copy CRC CF117269
Accurately ripped (confidence 5) [E20A238B] (AR v2)
Copy OK

Track 11

Filename C:\Program Files (x86)\Exact Audio Copy\Flac\11. Good Old Desk.wav

Pre-gap length 0:00:01.07

Peak level 87.4 %
Extraction speed 1.5 X
Track quality 100.0 %
Test CRC 5B0E3A7C
Copy CRC 5B0E3A7C
Accurately ripped (confidence 5) [2C763BD8] (AR v2)
Copy OK

Track 12

Filename C:\Program Files (x86)\Exact Audio Copy\Flac\12. Together.wav

Pre-gap length 0:00:01.42

Peak level 98.9 %
Extraction speed 1.6 X
Track quality 100.0 %
Test CRC F194BF83
Copy CRC F194BF83
Accurately ripped (confidence 5) [981CF4C3] (AR v2)
Copy OK

Track 13

Filename C:\Program Files (x86)\Exact Audio Copy\Flac\13. I Will Take You There.wav

Pre-gap length 0:00:01.05

Peak level 64.5 %
Extraction speed 1.7 X
Track quality 100.0 %
Test CRC B87412EE
Copy CRC B87412EE
Accurately ripped (confidence 5) [A1C47143] (AR v2)
Copy OK

Track 14

Filename C:\Program Files (x86)\Exact Audio Copy\Flac\14. Mother Nature's Song.wav

Pre-gap length 0:00:01.21

Peak level 52.8 %
Extraction speed 1.7 X
Track quality 100.0 %
Test CRC B445B090
Copy CRC B445B090
Accurately ripped (confidence 5) [28C07699] (AR v2)
Copy OK

Track 15

Filename C:\Program Files (x86)\Exact Audio Copy\Flac\15. City Life.wav

Pre-gap length 0:00:00.36

Peak level 66.3 %
Extraction speed 1.7 X
Track quality 100.0 %
Test CRC 9CE541FF
Copy CRC 9CE541FF
Accurately ripped (confidence 5) [EBEA3779] (AR v2)
Copy OK

Track 16

Filename C:\Program Files (x86)\Exact Audio Copy\Flac\16. Rainmaker.wav

Pre-gap length 0:00:01.31

Peak level 90.3 %
Extraction speed 1.5 X
Track quality 99.9 %
Test CRC 00C12FD8
Copy CRC 00C12FD8
Accurately ripped (confidence 5) [21A3C311] (AR v2)
Copy OK

Track 17

Filename C:\Program Files (x86)\Exact Audio Copy\Flac\17. The Puppy Song.wav

Pre-gap length 0:00:00.71

Peak level 85.0 %
Extraction speed 1.9 X
Track quality 100.0 %
Test CRC 7305CCCB
Copy CRC 7305CCCB
Accurately ripped (confidence 5) [5E6E2F5D] (AR v2)
Copy OK

Track 18

Filename C:\Program Files (x86)\Exact Audio Copy\Flac\18. I Guess The Lord Must Be In New York City.wav

Pre-gap length 0:00:00.68

Peak level 99.3 %
Extraction speed 1.9 X
Track quality 100.0 %
Test CRC F499806F
Copy CRC F499806F
Accurately ripped (confidence 5) [AD36A949] (AR v2)
Copy OK


All tracks accurately ripped

No errors occurred

End of status report

–– CUETools DB Plugin V2.1.6

[CTDB TOCID: WOiAEeg65Ojhe361YZhc_anxsJY-] found
Submit result: WOiAEeg65Ojhe361YZhc_anxsJY- has been confirmed
Track | CTDB Status
1 | (8/8) Accurately ripped
2 | (8/8) Accurately ripped
3 | (8/8) Accurately ripped
4 | (8/8) Accurately ripped
5 | (8/8) Accurately ripped
6 | (8/8) Accurately ripped
7 | (8/8) Accurately ripped
8 | (8/8) Accurately ripped
9 | (8/8) Accurately ripped
10 | (8/8) Accurately ripped
11 | (8/8) Accurately ripped
12 | (8/8) Accurately ripped
13 | (8/8) Accurately ripped
14 | (8/8) Accurately ripped
15 | (8/8) Accurately ripped
16 | (8/8) Accurately ripped
17 | (8/8) Accurately ripped
18 | (8/8) Accurately ripped


==== Log checksum 9EBCD2E90B605A5D4B5421518FBA33DEE20C3308F5C613A807572B9BCF48587E ====

foobar2000 1.2 / Dynamic Range Meter 1.1.1
log date: 2017-07-02 00:45:11

––––––––––––––––––––––––––––––––––––––––
Analyzed: Harry Nilsson / The Real… Harry Nilsson (CD1)
––––––––––––––––––––––––––––––––––––––––

DR Peak RMS Duration Track
––––––––––––––––––––––––––––––––––––––––
DR10 -1.66 dB -14.87 dB 2:41 01-1941
DR10 -0.83 dB -14.44 dB 2:51 02-Cuddly Toy
DR10 -0.83 dB -14.81 dB 2:19 03-You Can't Do That
DR8 -4.80 dB -15.35 dB 2:19 04-Without Her
DR9 -1.78 dB -15.92 dB 2:42 05-Sleep Late, My Lady Friend
DR8 -1.23 dB -12.97 dB 4:22 06-River Deep, Mountain High
DR11 0.00 dB -14.86 dB 2:44 07-Everybody's Talkin'
DR11 -2.14 dB -16.88 dB 2:53 08-One
DR12 0.00 dB -14.93 dB 2:20 09-Don't Leave Me
DR12 -1.18 dB -15.78 dB 2:41 10-Daddy's Song
DR13 -1.17 dB -17.52 dB 2:23 11-Good Old Desk
DR13 -0.09 dB -17.13 dB 2:11 12-Together
DR10 -3.80 dB -16.54 dB 2:42 13-I Will Take You There
DR9 -5.54 dB -18.21 dB 2:42 14-Mother Nature's Song
DR11 -3.57 dB -18.26 dB 2:30 15-City Life
DR12 -0.88 dB -15.15 dB 2:47 16-Rainmaker
DR13 -1.41 dB -17.93 dB 2:41 17-The Puppy Song
DR11 -0.05 dB -13.50 dB 2:43 18-I Guess The Lord Must Be In New York City
––––––––––––––––––––––––––––––––––––––––

Number of tracks: 18
Official DR value: DR11

Samplerate: 44100 Hz
Channels: 2
Bits per sample: 16
Bitrate: 842 kbps
Codec: FLAC
================================================================================


Exact Audio Copy V1.3 from 2. September 2016

EAC extraction logfile from 27. June 2017, 23:15

Harry Nilsson / The Real… Harry Nilsson (CD2)

Used drive : TSSTcorpCDDVDW SE-208AB Adapter: 2 ID: 0

Read mode : Secure
Utilize accurate stream : Yes
Defeat audio cache : Yes
Make use of C2 pointers : No

Read offset correction : 6
Overread into Lead-In and Lead-Out : No
Fill up missing offset samples with silence : Yes
Delete leading and trailing silent blocks : No
Null samples used in CRC calculations : Yes
Used interface : Installed external ASPI interface
Gap handling : Appended to previous track

Used output format : User Defined Encoder
Selected bitrate : 768 kBit/s
Quality : High
Add ID3 tag : No
Command line compressor : C:\Program Files (x86)\Exact Audio Copy\Flac\flac.exe
Additional command line options : -8 -V -T "ARTIST=%artist%" -T "TITLE=%title%" -T "ALBUM=%albumtitle%" -T "DATE=%year%" -T "TRACKNUMBER=%tracknr%" -T "GENRE=%genre%" -T "COMMENT=%comment%" -T "BAND=%albuminterpret%" -T "ALBUMARTIST=%albuminterpret%" -T "COMPOSER=%composer%" %haslyrics%–tag-from-file=LYRICS="%lyricsfile%"%haslyrics% -T "DISCNUMBER=%cdnumber%" -T "TOTALDISCS=%totalcds%" -T "TOTALTRACKS=%numtracks%" %hascover%–picture="%coverfile%"%hascover% %source% -o %dest%


TOC of the extracted CD

Track | Start | Length | Start sector | End sector
––––––––––––––––––––––––––––-
1 | 0:00.00 | 2:53.21 | 0 | 12995
2 | 2:53.21 | 3:42.11 | 12996 | 29656
3 | 6:35.32 | 2:08.15 | 29657 | 39271
4 | 8:43.47 | 2:49.67 | 39272 | 52013
5 | 11:33.39 | 3:25.27 | 52014 | 67415
6 | 14:58.66 | 3:22.07 | 67416 | 82572
7 | 18:20.73 | 7:01.01 | 82573 | 114148
8 | 25:21.74 | 2:44.05 | 114149 | 126453
9 | 28:06.04 | 2:05.09 | 126454 | 135837
10 | 30:11.13 | 3:51.22 | 135838 | 153184
11 | 34:02.35 | 2:25.11 | 153185 | 164070
12 | 36:27.46 | 4:16.33 | 164071 | 183303
13 | 40:44.04 | 3:05.04 | 183304 | 197182
14 | 43:49.08 | 3:22.63 | 197183 | 212395
15 | 47:11.71 | 3:35.30 | 212396 | 228550
16 | 50:47.26 | 2:40.64 | 228551 | 240614
17 | 53:28.15 | 3:08.42 | 240615 | 254756
18 | 56:36.57 | 3:07.27 | 254757 | 268808


Track 1

Filename C:\Program Files (x86)\Exact Audio Copy\Flac\01. Vine Street.wav

Pre-gap length 0:00:02.00

Peak level 99.3 %
Extraction speed 0.9 X
Track quality 99.9 %
Test CRC 5BC3F8AF
Copy CRC 5BC3F8AF
Accurately ripped (confidence 4) [55167154] (AR v2)
Copy OK

Track 2

Filename C:\Program Files (x86)\Exact Audio Copy\Flac\02. Love Story (You And Me).wav

Pre-gap length 0:00:00.13

Peak level 68.2 %
Extraction speed 1.2 X
Track quality 100.0 %
Test CRC 20D6C119
Copy CRC 20D6C119
Accurately ripped (confidence 4) [80C38E9B] (AR v2)
Copy OK

Track 3

Filename C:\Program Files (x86)\Exact Audio Copy\Flac\03. Me And My Arrow.wav

Peak level 85.4 %
Extraction speed 1.1 X
Track quality 100.0 %
Test CRC 25BAF549
Copy CRC 25BAF549
Accurately ripped (confidence 4) [6135C34A] (AR v2)
Copy OK

Track 4

Filename C:\Program Files (x86)\Exact Audio Copy\Flac\04. Think About Your Troubles.wav

Pre-gap length 0:00:01.58

Peak level 99.8 %
Extraction speed 1.3 X
Track quality 100.0 %
Test CRC EB2FBEB7
Copy CRC EB2FBEB7
Accurately ripped (confidence 4) [E57723C3] (AR v2)
Copy OK

Track 5

Filename C:\Program Files (x86)\Exact Audio Copy\Flac\05. Down.wav

Pre-gap length 0:00:00.60

Peak level 89.9 %
Extraction speed 1.4 X
Track quality 100.0 %
Test CRC 4A6D5F7D
Copy CRC 4A6D5F7D
Accurately ripped (confidence 4) [B7B39BFB] (AR v2)
Copy OK

Track 6

Filename C:\Program Files (x86)\Exact Audio Copy\Flac\06. Without You.wav

Pre-gap length 0:00:00.35

Peak level 99.8 %
Extraction speed 1.5 X
Track quality 100.0 %
Test CRC 2852C829
Copy CRC 2852C829
Accurately ripped (confidence 4) [BA527F35] (AR v2)
Copy OK

Track 7

Filename C:\Program Files (x86)\Exact Audio Copy\Flac\07. Jump Into The Fire.wav

Pre-gap length 0:00:00.07

Peak level 100.0 %
Extraction speed 1.7 X
Track quality 100.0 %
Test CRC CEBF8C68
Copy CRC CEBF8C68
Accurately ripped (confidence 4) [501EAFA2] (AR v2)
Copy OK

Track 8

Filename C:\Program Files (x86)\Exact Audio Copy\Flac\08. Let The Good Times Roll.wav

Pre-gap length 0:00:00.28

Peak level 100.0 %
Extraction speed 1.6 X
Track quality 100.0 %
Test CRC 340143AC
Copy CRC 340143AC
Accurately ripped (confidence 4) [209339B6] (AR v2)
Copy OK

Track 9

Filename C:\Program Files (x86)\Exact Audio Copy\Flac\09. Driving Along.wav

Pre-gap length 0:00:00.63

Peak level 99.8 %
Extraction speed 1.6 X
Track quality 100.0 %
Test CRC E42D3789
Copy CRC E42D3789
Accurately ripped (confidence 4) [9E33D9AD] (AR v2)
Copy OK

Track 10

Filename C:\Program Files (x86)\Exact Audio Copy\Flac\10. Coconut.wav

Pre-gap length 0:00:01.05

Peak level 99.9 %
Extraction speed 1.8 X
Track quality 100.0 %
Test CRC 5B164E25
Copy CRC 5B164E25
Accurately ripped (confidence 4) [89AE3C20] (AR v2)
Copy OK

Track 11

Filename C:\Program Files (x86)\Exact Audio Copy\Flac\11. Gotta Get Up.wav

Pre-gap length 0:00:00.12

Peak level 91.5 %
Extraction speed 1.8 X
Track quality 100.0 %
Test CRC 15208F2D
Copy CRC 15208F2D
Accurately ripped (confidence 4) [0D53E19C] (AR v2)
Copy OK

Track 12

Filename C:\Program Files (x86)\Exact Audio Copy\Flac\12. I'll Never Leave You.wav

Pre-gap length 0:00:01.12

Peak level 89.1 %
Extraction speed 2.0 X
Track quality 100.0 %
Test CRC B060C1BE
Copy CRC B060C1BE
Accurately ripped (confidence 4) [255D9E15] (AR v2)
Copy OK

Track 13

Filename C:\Program Files (x86)\Exact Audio Copy\Flac\13. How Can I Be Sure Of You.wav

Pre-gap length 0:00:00.15

Peak level 92.1 %
Extraction speed 2.0 X
Track quality 100.0 %
Test CRC 34852562
Copy CRC 34852562
Accurately ripped (confidence 4) [3C873D60] (AR v2)
Copy OK

Track 14

Filename C:\Program Files (x86)\Exact Audio Copy\Flac\14. The Moonbeam Song.wav

Pre-gap length 0:00:00.10

Peak level 85.0 %
Extraction speed 1.8 X
Track quality 99.9 %
Test CRC 906B0771
Copy CRC 906B0771
Accurately ripped (confidence 4) [187F32CD] (AR v2)
Copy OK

Track 15

Filename C:\Program Files (x86)\Exact Audio Copy\Flac\15. Spaceman.wav

Peak level 97.8 %
Extraction speed 2.1 X
Track quality 100.0 %
Test CRC A56BBC32
Copy CRC A56BBC32
Accurately ripped (confidence 4) [5EC28273] (AR v2)
Copy OK

Track 16

Filename C:\Program Files (x86)\Exact Audio Copy\Flac\16. Turn On Your Radio.wav

Pre-gap length 0:00:01.05

Peak level 73.6 %
Extraction speed 2.0 X
Track quality 100.0 %
Test CRC CF433544
Copy CRC CF433544
Accurately ripped (confidence 4) [02659F23] (AR v2)
Copy OK

Track 17

Filename C:\Program Files (x86)\Exact Audio Copy\Flac\17. You're Breakin' My Heart.wav

Pre-gap length 0:00:00.59

Peak level 100.0 %
Extraction speed 1.8 X
Track quality 99.9 %
Test CRC 06D54A21
Copy CRC 06D54A21
Accurately ripped (confidence 4) [50E049AE] (AR v2)
Copy OK

Track 18

Filename C:\Program Files (x86)\Exact Audio Copy\Flac\18. Daybreak.wav

Pre-gap length 0:00:00.23

Peak level 81.7 %
Extraction speed 2.2 X
Track quality 100.0 %
Test CRC 87E3930D
Copy CRC 87E3930D
Accurately ripped (confidence 4) [DAD8E390] (AR v2)
Copy OK


All tracks accurately ripped

No errors occurred

End of status report

–– CUETools DB Plugin V2.1.6

[CTDB TOCID: wOxLGYK8.FKwNk_GVzIl7qtbttQ-] found
Submit result: wOxLGYK8.FKwNk_GVzIl7qtbttQ- has been confirmed
Track | CTDB Status
1 | (8/8) Accurately ripped
2 | (8/8) Accurately ripped
3 | (8/8) Accurately ripped
4 | (8/8) Accurately ripped
5 | (8/8) Accurately ripped
6 | (8/8) Accurately ripped
7 | (8/8) Accurately ripped
8 | (8/8) Accurately ripped
9 | (8/8) Accurately ripped
10 | (8/8) Accurately ripped
11 | (8/8) Accurately ripped
12 | (8/8) Accurately ripped
13 | (8/8) Accurately ripped
14 | (8/8) Accurately ripped
15 | (8/8) Accurately ripped
16 | (8/8) Accurately ripped
17 | (8/8) Accurately ripped
18 | (8/8) Accurately ripped


==== Log checksum 19F5281C56CBAF90D6CEF039F323500881AD28F66B80AA1AC68C52EA47EDD3C5 ====

foobar2000 1.2 / Dynamic Range Meter 1.1.1
log date: 2017-07-02 00:45:33

––––––––––––––––––––––––––––––––––––––––
Analyzed: Harry Nilsson / The Real… Harry Nilsson (CD2)
––––––––––––––––––––––––––––––––––––––––

DR Peak RMS Duration Track
––––––––––––––––––––––––––––––––––––––––
DR11 -0.05 dB -16.84 dB 2:53 01-Vine Street
DR10 -3.32 dB -19.04 dB 3:42 02-Love Story (You And Me)
DR11 -1.37 dB -15.19 dB 2:08 03-Me And My Arrow
DR11 -0.01 dB -14.56 dB 2:50 04-Think About Your Troubles
DR10 -0.92 dB -14.04 dB 3:25 05-Down
DR12 -0.01 dB -16.07 dB 3:22 06-Without You
DR11 0.00 dB -12.38 dB 7:01 07-Jump Into The Fire
DR13 0.00 dB -15.19 dB 2:44 08-Let The Good Times Roll
DR12 -0.01 dB -13.62 dB 2:05 09-Driving Along
DR13 -0.01 dB -15.84 dB 3:51 10-Coconut
DR12 -0.77 dB -14.76 dB 2:25 11-Gotta Get Up
DR12 -1.00 dB -17.85 dB 4:16 12-I'll Never Leave You
DR12 -0.71 dB -17.62 dB 3:05 13-How Can I Be Sure Of You
DR12 -1.40 dB -17.61 dB 3:23 14-The Moonbeam Song
DR11 -0.19 dB -13.72 dB 3:35 15-Spaceman
DR11 -2.66 dB -18.48 dB 2:41 16-Turn On Your Radio
DR12 0.00 dB -13.76 dB 3:09 17-You're Breakin' My Heart
DR11 -1.75 dB -15.41 dB 3:07 18-Daybreak
––––––––––––––––––––––––––––––––––––––––

Number of tracks: 18
Official DR value: DR12

Samplerate: 44100 Hz
Channels: 2
Bits per sample: 16
Bitrate: 890 kbps
Codec: FLAC
================================================================================


Exact Audio Copy V1.3 from 2. September 2016

EAC extraction logfile from 28. June 2017, 7:27

Harry Nilsson / The Real… Harry Nilsson (CD3)

Used drive : TSSTcorpCDDVDW SE-208AB Adapter: 2 ID: 0

Read mode : Secure
Utilize accurate stream : Yes
Defeat audio cache : Yes
Make use of C2 pointers : No

Read offset correction : 6
Overread into Lead-In and Lead-Out : No
Fill up missing offset samples with silence : Yes
Delete leading and trailing silent blocks : No
Null samples used in CRC calculations : Yes
Used interface : Installed external ASPI interface
Gap handling : Appended to previous track

Used output format : User Defined Encoder
Selected bitrate : 768 kBit/s
Quality : High
Add ID3 tag : No
Command line compressor : C:\Program Files (x86)\Exact Audio Copy\Flac\flac.exe
Additional command line options : -8 -V -T "ARTIST=%artist%" -T "TITLE=%title%" -T "ALBUM=%albumtitle%" -T "DATE=%year%" -T "TRACKNUMBER=%tracknr%" -T "GENRE=%genre%" -T "COMMENT=%comment%" -T "BAND=%albuminterpret%" -T "ALBUMARTIST=%albuminterpret%" -T "COMPOSER=%composer%" %haslyrics%–tag-from-file=LYRICS="%lyricsfile%"%haslyrics% -T "DISCNUMBER=%cdnumber%" -T "TOTALDISCS=%totalcds%" -T "TOTALTRACKS=%numtracks%" %hascover%–picture="%coverfile%"%hascover% %source% -o %dest%


TOC of the extracted CD

Track | Start | Length | Start sector | End sector
––––––––––––––––––––––––––––-
1 | 0:00.00 | 2:40.47 | 0 | 12046
2 | 2:40.47 | 3:38.18 | 12047 | 28414
3 | 6:18.65 | 3:31.55 | 28415 | 44294
4 | 9:50.45 | 2:32.33 | 44295 | 55727
5 | 12:23.03 | 3:24.72 | 55728 | 71099
6 | 15:48.00 | 2:34.40 | 71100 | 82689
7 | 18:22.40 | 4:30.64 | 82690 | 103003
8 | 22:53.29 | 5:00.19 | 103004 | 125522
9 | 27:53.48 | 2:53.27 | 125523 | 138524
10 | 30:47.00 | 2:31.25 | 138525 | 149874
11 | 33:18.25 | 2:57.46 | 149875 | 163195
12 | 36:15.71 | 2:51.55 | 163196 | 176075
13 | 39:07.51 | 3:45.44 | 176076 | 192994
14 | 42:53.20 | 3:21.20 | 192995 | 208089
15 | 46:14.40 | 2:35.04 | 208090 | 219718
16 | 48:49.44 | 3:47.69 | 219719 | 236812
17 | 52:37.38 | 4:07.07 | 236813 | 255344
18 | 56:44.45 | 2:52.13 | 255345 | 268257


Track 1

Filename C:\Program Files (x86)\Exact Audio Copy\Flac\01. Nevertheless (I'm In Love With You).wav

Pre-gap length 0:00:02.00

Peak level 95.4 %
Extraction speed 2.3 X
Track quality 100.0 %
Test CRC 475B7254
Copy CRC 475B7254
Accurately ripped (confidence 5) [688DC553] (AR v2)
Copy OK

Track 2

Filename C:\Program Files (x86)\Exact Audio Copy\Flac\02. This Is All I Ask.wav

Peak level 79.9 %
Extraction speed 2.7 X
Track quality 100.0 %
Test CRC 7A6658DB
Copy CRC 7A6658DB
Accurately ripped (confidence 5) [54A16B3D] (AR v2)
Copy OK

Track 3

Filename C:\Program Files (x86)\Exact Audio Copy\Flac\03. Over The Rainbow.wav

Pre-gap length 0:00:01.21

Peak level 96.3 %
Extraction speed 2.9 X
Track quality 100.0 %
Test CRC F660DA37
Copy CRC F660DA37
Accurately ripped (confidence 5) [A1F3749D] (AR v2)
Copy OK

Track 4

Filename C:\Program Files (x86)\Exact Audio Copy\Flac\04. It Had To Be You.wav

Pre-gap length 0:00:02.25

Peak level 99.8 %
Extraction speed 3.0 X
Track quality 100.0 %
Test CRC B5A75768
Copy CRC B5A75768
Accurately ripped (confidence 5) [048FE65A] (AR v2)
Copy OK

Track 5

Filename C:\Program Files (x86)\Exact Audio Copy\Flac\05. As Time Goes By.wav

Pre-gap length 0:00:01.04

Peak level 99.8 %
Extraction speed 3.3 X
Track quality 100.0 %
Test CRC D8D5D3A8
Copy CRC D8D5D3A8
Accurately ripped (confidence 5) [4BFC11F4] (AR v2)
Copy OK

Track 6

Filename C:\Program Files (x86)\Exact Audio Copy\Flac\06. You Made Me Love You.wav

Pre-gap length 0:00:00.39

Peak level 99.8 %
Extraction speed 3.2 X
Track quality 100.0 %
Test CRC 046B5BF3
Copy CRC 046B5BF3
Accurately ripped (confidence 5) [A5624C31] (AR v2)
Copy OK

Track 7

Filename C:\Program Files (x86)\Exact Audio Copy\Flac\07. Save The Last Dance For Me.wav

Pre-gap length 0:00:00.66

Peak level 82.2 %
Extraction speed 3.7 X
Track quality 100.0 %
Test CRC 4F161AFF
Copy CRC 4F161AFF
Accurately ripped (confidence 5) [BE4F0928] (AR v2)
Copy OK

Track 8

Filename C:\Program Files (x86)\Exact Audio Copy\Flac\08. Many Rivers To Cross.wav

Pre-gap length 0:00:01.12

Peak level 76.6 %
Extraction speed 4.0 X
Track quality 100.0 %
Test CRC C2EE4E44
Copy CRC C2EE4E44
Accurately ripped (confidence 5) [CF9FA677] (AR v2)
Copy OK

Track 9

Filename C:\Program Files (x86)\Exact Audio Copy\Flac\09. What's Your Sign.wav

Pre-gap length 0:00:01.33

Peak level 93.3 %
Extraction speed 3.9 X
Track quality 100.0 %
Test CRC B1CAD28D
Copy CRC B1CAD28D
Accurately ripped (confidence 5) [6B8BF63F] (AR v2)
Copy OK

Track 10

Filename C:\Program Files (x86)\Exact Audio Copy\Flac\10. Easier For Me.wav

Pre-gap length 0:00:01.51

Peak level 44.0 %
Extraction speed 3.8 X
Track quality 100.0 %
Test CRC 45AE212E
Copy CRC 45AE212E
Accurately ripped (confidence 5) [038783B7] (AR v2)
Copy OK

Track 11

Filename C:\Program Files (x86)\Exact Audio Copy\Flac\11. Something True.wav

Pre-gap length 0:00:01.51

Peak level 77.4 %
Extraction speed 3.1 X
Track quality 99.9 %
Test CRC 72BC280C
Copy CRC 72BC280C
Accurately ripped (confidence 5) [BAE2F8BC] (AR v2)
Copy OK

Track 12

Filename C:\Program Files (x86)\Exact Audio Copy\Flac\12. A Thousand Miles Away.wav

Pre-gap length 0:00:00.18

Peak level 79.7 %
Extraction speed 4.2 X
Track quality 100.0 %
Test CRC 24A34C1E
Copy CRC 24A34C1E
Accurately ripped (confidence 5) [CC863C62] (AR v2)
Copy OK

Track 13

Filename C:\Program Files (x86)\Exact Audio Copy\Flac\13. Sail Away.wav

Pre-gap length 0:00:01.07

Peak level 100.0 %
Extraction speed 4.5 X
Track quality 100.0 %
Test CRC 4EE8FB04
Copy CRC 4EE8FB04
Accurately ripped (confidence 5) [6E00857C] (AR v2)
Copy OK

Track 14

Filename C:\Program Files (x86)\Exact Audio Copy\Flac\14. Just One Look , Baby I'm Yours.wav

Pre-gap length 0:00:01.09

Peak level 99.9 %
Extraction speed 4.5 X
Track quality 100.0 %
Test CRC 7CC0F9CF
Copy CRC 7CC0F9CF
Accurately ripped (confidence 5) [3B6A7979] (AR v2)
Copy OK

Track 15

Filename C:\Program Files (x86)\Exact Audio Copy\Flac\15. Blanket For A Sail.wav

Pre-gap length 0:00:00.54

Peak level 98.7 %
Extraction speed 3.2 X
Track quality 99.9 %
Test CRC CA1B22C8
Copy CRC CA1B22C8
Accurately ripped (confidence 5) [16A504E1] (AR v2)
Copy OK

Track 16

Filename C:\Program Files (x86)\Exact Audio Copy\Flac\16. Perfect Day.wav

Pre-gap length 0:00:01.51

Peak level 90.6 %
Extraction speed 4.8 X
Track quality 100.0 %
Test CRC F1D2D6D1
Copy CRC F1D2D6D1
Accurately ripped (confidence 5) [FD9D3D96] (AR v2)
Copy OK

Track 17

Filename C:\Program Files (x86)\Exact Audio Copy\Flac\17. All I Think About Is You.wav

Pre-gap length 0:00:00.24

Peak level 82.7 %
Extraction speed 4.5 X
Track quality 100.0 %
Test CRC 060C0FEE
Copy CRC 060C0FEE
Accurately ripped (confidence 5) [95D8EAF0] (AR v2)
Copy OK

Track 18

Filename C:\Program Files (x86)\Exact Audio Copy\Flac\18. Lean On Me.wav

Pre-gap length 0:00:01.30

Peak level 80.4 %
Extraction speed 4.5 X
Track quality 100.0 %
Test CRC 09DA4E17
Copy CRC 09DA4E17
Accurately ripped (confidence 5) [96BD1B35] (AR v2)
Copy OK


All tracks accurately ripped

No errors occurred

End of status report

–– CUETools DB Plugin V2.1.6

[CTDB TOCID: 9.MPqxoIcC_NfjvMUMg5oJC2zbM-] found
Submit result: 9.MPqxoIcC_NfjvMUMg5oJC2zbM- has been confirmed
Track | CTDB Status
1 | (8/8) Accurately ripped
2 | (8/8) Accurately ripped
3 | (8/8) Accurately ripped
4 | (8/8) Accurately ripped
5 | (8/8) Accurately ripped
6 | (8/8) Accurately ripped
7 | (8/8) Accurately ripped
8 | (8/8) Accurately ripped
9 | (8/8) Accurately ripped
10 | (8/8) Accurately ripped
11 | (8/8) Accurately ripped
12 | (8/8) Accurately ripped
13 | (8/8) Accurately ripped
14 | (8/8) Accurately ripped
15 | (8/8) Accurately ripped
16 | (8/8) Accurately ripped
17 | (8/8) Accurately ripped
18 | (8/8) Accurately ripped


==== Log checksum A5DD29D1DBC251F4CB3664D57D93301CF01F9679B074A64EBA037A0A2A2D3CB7 ====

foobar2000 1.2 / Dynamic Range Meter 1.1.1
log date: 2017-07-02 00:46:11

––––––––––––––––––––––––––––––––––––––––
Analyzed: Harry Nilsson / The Real… Harry Nilsson (CD3)
––––––––––––––––––––––––––––––––––––––––

DR Peak RMS Duration Track
––––––––––––––––––––––––––––––––––––––––
DR11 -0.40 dB -15.42 dB 2:41 01-Nevertheless (I'm In Love With You)
DR10 -1.95 dB -16.14 dB 3:38 02-This Is All I Ask
DR13 -0.32 dB -18.03 dB 3:32 03-Over The Rainbow
DR12 -0.01 dB -15.26 dB 2:32 04-It Had To Be You
DR13 -0.01 dB -16.95 dB 3:25 05-As Time Goes By
DR12 -0.01 dB -16.03 dB 2:35 06-You Made Me Love You
DR11 -1.70 dB -14.92 dB 4:31 07-Save The Last Dance For Me
DR10 -2.30 dB -14.41 dB 5:00 08-Many Rivers To Cross
DR11 -0.60 dB -14.17 dB 2:53 09-What's Your Sign?
DR10 -7.12 dB -20.60 dB 2:31 10-Easier For Me
DR13 -2.22 dB -17.49 dB 2:58 11-Something True
DR12 -1.96 dB -17.14 dB 2:52 12-A Thousand Miles Away
DR12 0.00 dB -15.65 dB 3:46 13-Sail Away
DR12 0.00 dB -16.15 dB 3:21 14-Just One Look / Baby I'm Yours
DR12 -0.11 dB -15.06 dB 2:35 15-Blanket For A Sail
DR12 -0.85 dB -16.94 dB 3:48 16-Perfect Day
DR11 -1.65 dB -15.78 dB 4:07 17-All I Think About Is You
DR12 -1.89 dB -17.33 dB 2:52 18-Lean On Me
––––––––––––––––––––––––––––––––––––––––

Number of tracks: 18
Official DR value: DR12

Samplerate: 44100 Hz
Channels: 2
Bits per sample: 16
Bitrate: 864 kbps
Codec: FLAC
================================================================================

Harry Nilsson - The Real... Harry Nilsson, The Ultimate Collection (2014) 3 CDs