Subcategories
Tags
Language
Tags

IRON & WINE - Albums & Singles Collection 2002-2015 (11CD) [Re-Up]

Posted By: Designol
IRON & WINE - Albums & Singles Collection 2002-2015 (11CD) [Re-Up]

IRON And WINE - Albums & Singles Collection 2002-2015 (11CD)
EAC | FLAC | Tracks (Cue&Log) ~ 2.31 Gb | Mp3 (CBR320) ~ 1.13 Gb | Complete Scans
Singer/Songwriter, Indie Rock, Indie Folk, Folk-Rock, Lo-Fi | Time: 07:01:22

A collection of 11 CD by American singer-songwriter Samuel Beam, better known by his stage and recording name Iron & Wine. Collection includes 5 studio albums, 1 compilation, 3 EP and 1 single.

Iron & Wine is the name that singer/songwriter Sam Beam uses to send his intimate and heartfelt indie folk out into the world. His deeply burnished vocals, keen melodic sensibility, and introspective, free-flowing lyrical viewpoint combine to give him a singular artistic vision. The first Iron & Wine album (2002's lo-fi classic The Creek Drank the Cradle) made Beam one of the preeminent artists of the first wave of indie folk. Despite the album's success, he was loath to repeat himself, and Iron & Wine constantly shifted its musical identity over the years, making records that were diverse and political (2007's Shepherd's Dog), studio-slick and played by a big band (2011's Kiss Each Other Clean), or relaxed and pastoral (2017's Beast Epic). No matter the approach, Beam's vocals and songs have remained strong, and the records he's made have both challenged and comforted listeners.

Beam chose the moniker Iron & Wine after coming across a dietary supplement named "Beef Iron & Wine" while working on a film. Raised in South Carolina, Beam received his Bachelor's degree in art from Virginia Commonwealth University in Richmond and later his Master of Fine Arts degree from Florida State University film school. All along he had been writing songs, but once a friend lent him a 4-track he began recording them in his bedroom. He sent demos to friends, a song ended up on a compilation, and his music caught the ear of Jonathan Poneman, co-owner of Sub Pop Records. He requested that additional material be sent to the label for submission, and Beam responded by sending two CDs in the mail – both of them full-length albums. Poneman considered releasing them both, but instead slimmed the set down to 12 songs and released it in September 2002 as The Creek Drank the Cradle. The similarly themed The Sea & the Rhythm EP followed in 2003.

It was Beam's 2004 full-length, Our Endless Numbered Days, that signaled his arrival on the indie pop scene. Recorded in Chicago with producer Brian Deck, the album was resolutely hi-fi, but the addition of a full band only illuminated Beam's deft lyricism and intimate vocal delivery, resulting in one of the most critically acclaimed albums of the year. Late 2004 found the newly marketable Iron & Wine popping up on television commercials and movie soundtracks (In Good Company, Garden State), culminating in a busy 2005 that saw Beam release two EPs, the lush Woman King and In the Reins, a collaboration with Arizona spaghetti Western aficionados Calexico. The politically charged Shepherd's Dog, Beam and company's most diverse – and most listenable – record to date, was released in 2007. A two-disc collection of B-sides, rarities, soundtrack inclusions, and discarded tracks from the Iron & Wine archives called Around the Well arrived in early 2009. Kiss Each Other Clean, Iron & Wine's first collection of new music in nearly three years and one that found Beam further expanding the group's sound, was released in January 2011 by their new label, Warner Bros. After a move to 4AD and Nonesuch, Iron & Wine released the more relaxed and intimate Ghost on Ghost in early 2013. The Brian Deck-produced album featured jazz drummer Brian Blade and bassist Tony Garnier of Bob Dylan's band, among others.

Over the next few years, Beam stayed busy working with other artists. In 2015 he and Band of Horses frontman Ben Bridwell released an album of covers called Sing Into My Mouth, and in 2016 Beam and singer/songwriter Jesca Hoop collaborated on Love Letter for Fire. Later that year, Beam went back to the studio with a band that included longtime Iron & Wine collaborators keyboardist Rob Burger, percussionist Joe Adamik, and string player Jim Becker, and began work on the next Iron & Wine album. It was produced by Beam in stripped-down fashion using mostly live takes and minimal overdubs. Fittingly, the return to the way he used to make records was matched by a return to the band's old label, Sub Pop. They issued Beast Epic in August of 2017. During the tour that followed, the same band took a couple days at a Chicago studio to record a handful of songs written for Beast Epic that didn't make the final cut. They also cut a version of longtime fan favorite "Waves of Galveston" for the EP, which was titled Weed Garden and issued by Sub Pop in August of 2018.

Biography by James Christopher Monger, Allmusic.com

IRON & WINE - Albums & Singles Collection 2002-2015 (11CD) [Re-Up]

IRON & WINE - Albums & Singles Collection 2002-2015 (11CD) [Re-Up]





IRON & WINE - Albums & Singles Collection 2002-2015 (11CD) [Re-Up]

Iron & Wine - The Creek Drank the Cradle (2002)
EAC | FLAC | Tracks (Cue&Log) ~ 166 Mb | Mp3 (CBR320) ~ 119 Mb
Scans Included | Label: Sub Pop | # SPCD 600 | Time: 00:39:30

Iron and Wine's debut record, The Creek Drank the Cradle, is written, produced, and performed by Sam Beam and features only Beam's voice, a gently strummed acoustic guitar, some slide guitar, and the occasional banjo. Iron and Wine creates intimate and emotional songs, recorded bedroom-style but never letting the lo-fi get in the way of the tune. The obvious comparison has to be Lou Barlow/Sebadoh/Sentridoh, as they share the same breathy voice, melancholy outlook on life, and devotion to Nick Drake. The difference is that there are no traces of punk rock or noise for the sake of noise in Iron and Wine's music. Beam isn't interested in rocking out or obscuring the beauty that bursts from within his simple songs; he embraces it and lets his sadness twist in the wind for all to see. Besides, his vocal harmonies are more soft rock than punk rock. "Lion's Mane" opens the record and immediately takes your breath away as Beam's voice is so beautiful and his hooks are razor sharp. Every song that follows is just as memorable, Beam sounding positively angelic as he harmonizes with himself. "The Rooster Moans" is a chilling side trip into Appalachian folk; "Southern Anthem" a falsetto-led indie-gospel track with an absolutely soaring chorus. The simple musical backing never gets boring either, as there are musical hooks to match the vocal hooks – the banjo in "Lion's Mane," the double-tracked repeating slide at the end of "Faded from the Winter," the gently chugging rhythm of "Upward Over the Mountain." As soon as the almost jaunty, Neil Young-esque album closer, "Muddy Hymnal," ends, you'll want to hit repeat and start again. The Creek Drank the Cradle is a stunning debut and one of the best records of 2002.

Review by Tim Sendra, Allmusic.com

Tracklist:

01. Lion's Mane - 2:50
02. Bird Stealing Bread - 4:21
03. Faded from the Winter - 3:18
04. Promising Light - 2:49
05. The Rooster Moans - 3:25
06. Upward Over the Mountain - 5:56
07. Southern Anthem - 3:54
08. An Angry Blade - 3:48
09. Weary Memory - 4:01
10. Promise What You Will - 2:24
11. Muddy Hymnal - 2:44


Exact Audio Copy V0.99 prebeta 5 from 4. May 2009

EAC extraction logfile from 8. December 2010, 16:10

Iron & Wine / The Creek Drank the Cradle

Used drive : PIONEER DVD-RW DVR-118L Adapter: 2 ID: 0

Read mode : Secure
Utilize accurate stream : Yes
Defeat audio cache : Yes
Make use of C2 pointers : No

Read offset correction : 6
Overread into Lead-In and Lead-Out : No
Fill up missing offset samples with silence : Yes
Delete leading and trailing silent blocks : No
Null samples used in CRC calculations : Yes
Used interface : Native Win32 interface for Win NT & 2000
Gap handling : Appended to previous track

Used output format : User Defined Encoder
Selected bitrate : 128 kBit/s
Quality : High
Add ID3 tag : No
Command line compressor : C:\Program Files (x86)\Exact Audio Copy\Flac\flac.exe
Additional command line options : -8 -V -T "ARTIST=%a" -T "TITLE=%t" -T "ALBUM=%g" -T "DATE=%y" -T "TRACKNUMBER=%n" -T "GENRE=%m" -T "COMMENT=EAC FLAC -8" %s


TOC of the extracted CD

Track | Start | Length | Start sector | End sector
––––––––––––––––––––––––––––-
1 | 0:00.00 | 2:49.52 | 0 | 12726
2 | 2:49.52 | 4:21.35 | 12727 | 32336
3 | 7:11.12 | 3:17.55 | 32337 | 47166
4 | 10:28.67 | 2:49.13 | 47167 | 59854
5 | 13:18.05 | 3:24.70 | 59855 | 75224
6 | 16:43.00 | 5:56.12 | 75225 | 101936
7 | 22:39.12 | 3:54.20 | 101937 | 119506
8 | 26:33.32 | 3:48.30 | 119507 | 136636
9 | 30:21.62 | 4:01.28 | 136637 | 154739
10 | 34:23.15 | 2:24.05 | 154740 | 165544
11 | 36:47.20 | 2:43.55 | 165545 | 177824


Track 1

Filename C:\Program Files (x86)\Exact Audio Copy\Flac\Music\01. Iron & Wine - Lion's Mane.wav

Pre-gap length 0:00:02.00

Peak level 94.4 %
Track quality 99.9 %
Test CRC 054B7DE3
Copy CRC 054B7DE3
Accurately ripped (confidence 123) [17F10C63]
Copy OK

Track 2

Filename C:\Program Files (x86)\Exact Audio Copy\Flac\Music\02. Iron & Wine - Bird Stealing Bread.wav

Pre-gap length 0:00:01.93

Peak level 94.4 %
Track quality 100.0 %
Test CRC D5DC32D7
Copy CRC D5DC32D7
Accurately ripped (confidence 124) [7A044426]
Copy OK

Track 3

Filename C:\Program Files (x86)\Exact Audio Copy\Flac\Music\03. Iron & Wine - Faded from the Winter.wav

Pre-gap length 0:00:01.93

Peak level 94.4 %
Track quality 100.0 %
Test CRC DE96D58B
Copy CRC DE96D58B
Accurately ripped (confidence 126) [2A06C7DD]
Copy OK

Track 4

Filename C:\Program Files (x86)\Exact Audio Copy\Flac\Music\04. Iron & Wine - Promising Light.wav

Pre-gap length 0:00:01.49

Peak level 94.4 %
Track quality 100.0 %
Test CRC 38E59C40
Copy CRC 38E59C40
Accurately ripped (confidence 125) [D566D86F]
Copy OK

Track 5

Filename C:\Program Files (x86)\Exact Audio Copy\Flac\Music\05. Iron & Wine - The Rooster Moans.wav

Pre-gap length 0:00:01.37

Peak level 89.1 %
Track quality 100.0 %
Test CRC AA5D0571
Copy CRC AA5D0571
Accurately ripped (confidence 127) [959DEE29]
Copy OK

Track 6

Filename C:\Program Files (x86)\Exact Audio Copy\Flac\Music\06. Iron & Wine - Upward Over the Mountain.wav

Pre-gap length 0:00:02.24

Peak level 94.4 %
Track quality 100.0 %
Test CRC 5E8CD08D
Copy CRC 5E8CD08D
Accurately ripped (confidence 125) [A21C2BE6]
Copy OK

Track 7

Filename C:\Program Files (x86)\Exact Audio Copy\Flac\Music\07. Iron & Wine - Southern Anthem.wav

Pre-gap length 0:00:02.02

Peak level 94.4 %
Track quality 100.0 %
Test CRC D09236AC
Copy CRC D09236AC
Accurately ripped (confidence 124) [733C6337]
Copy OK

Track 8

Filename C:\Program Files (x86)\Exact Audio Copy\Flac\Music\08. Iron & Wine - An Angry Blade.wav

Pre-gap length 0:00:01.13

Peak level 94.4 %
Track quality 100.0 %
Test CRC 5938F279
Copy CRC 5938F279
Accurately ripped (confidence 126) [7166F58E]
Copy OK

Track 9

Filename C:\Program Files (x86)\Exact Audio Copy\Flac\Music\09. Iron & Wine - Weary Memory.wav

Pre-gap length 0:00:01.76

Peak level 94.4 %
Track quality 100.0 %
Test CRC FE7E4CC6
Copy CRC FE7E4CC6
Accurately ripped (confidence 126) [CDC22E51]
Copy OK

Track 10

Filename C:\Program Files (x86)\Exact Audio Copy\Flac\Music\10. Iron & Wine - Promise What You Will.wav

Pre-gap length 0:00:01.80

Peak level 94.4 %
Track quality 100.0 %
Test CRC C2E64BA5
Copy CRC C2E64BA5
Accurately ripped (confidence 124) [8B828FF7]
Copy OK

Track 11

Filename C:\Program Files (x86)\Exact Audio Copy\Flac\Music\11. Iron & Wine - Muddy Hymnal.wav

Pre-gap length 0:00:02.37

Peak level 94.4 %
Track quality 99.9 %
Test CRC 69E44D1F
Copy CRC 69E44D1F
Accurately ripped (confidence 124) [64070633]
Copy OK


All tracks accurately ripped

No errors occurred

End of status report




IRON & WINE - Albums & Singles Collection 2002-2015 (11CD) [Re-Up]

Iron & Wine - Sea & The Rhythm [EP] (2003)
EAC | FLAC | Tracks (Cue&Log) ~ 96 Mb | Mp3 (CBR320) ~ 56 Mb
Scans Included | Label: Sub Pop | # SPCD 619 | Time: 00:21:19

Iron & Wine was one of the surprises of 2002. The Creek Drank the Cradle was a lo-fi melancholic gem of a record that drew apt comparisons to classic bedroom pop artists like Lou Barlow and Sebadoh, the Mountain Goats, and Nick Drake. Sam Beam, the man behind Iron & Wine, possesses a honey-soft voice that caresses his literate lyrics so very gently and a dense guitar style that fills up space without ever playing a wrong note. So often voice-and-guitar records can begin to sound monotonous, and Iron & Wine never even approaches that shortcoming. The Sea & the Rhythm is a five-track EP made up of songs recorded at the same time as Creek. Low-key, melancholy, and unfailingly beautiful, all the songs are good enough to have been on the album. "Beneath the Balcony" and "Jesus the Mexican Boy" have the crispest melodies; "Someday the Waves" is the song that will stick with you the longest. It sounds like a lost Crosby, Stills & Nash track, only without hippie-ish lyrics and with only one guy creating the towering vocal harmonies. The Sea & the Rhythm is a lovely stopgap to help ease the painful wait for the next Iron & Wine album – 21 minutes of sweet, quiet pain.

Review by Tim Sendra, Allmusic.com

Tracklist:

01. Beneath the Balcony - 3:30
02. The Sea and the Rhythm - 5:24
03. The Night Descending - 3:14
04. Jesus the Mexican Boy - 4:57
05. Someday the Waves - 4:14


Exact Audio Copy V0.99 prebeta 5 from 4. May 2009

EAC extraction logfile from 29. January 2011, 16:57

Iron & Wine / The Sea & the Rhythm

Used drive : PIONEER DVD-RW DVR-118L Adapter: 2 ID: 0

Read mode : Secure
Utilize accurate stream : Yes
Defeat audio cache : Yes
Make use of C2 pointers : No

Read offset correction : 6
Overread into Lead-In and Lead-Out : No
Fill up missing offset samples with silence : Yes
Delete leading and trailing silent blocks : No
Null samples used in CRC calculations : Yes
Used interface : Native Win32 interface for Win NT & 2000
Gap handling : Appended to previous track

Used output format : User Defined Encoder
Selected bitrate : 128 kBit/s
Quality : High
Add ID3 tag : No
Command line compressor : C:\Program Files (x86)\Exact Audio Copy\Flac\flac.exe
Additional command line options : -8 -V -T "ARTIST=%a" -T "TITLE=%t" -T "ALBUM=%g" -T "DATE=%y" -T "TRACKNUMBER=%n" -T "GENRE=%m" -T "COMMENT=EAC FLAC -8" %s


TOC of the extracted CD

Track | Start | Length | Start sector | End sector
––––––––––––––––––––––––––––-
1 | 0:00.00 | 3:30.24 | 0 | 15773
2 | 3:30.24 | 5:23.73 | 15774 | 40071
3 | 8:54.22 | 3:13.70 | 40072 | 54616
4 | 12:08.17 | 4:56.57 | 54617 | 76873
5 | 17:04.74 | 4:14.15 | 76874 | 95938


Track 1

Filename D:\Торрент\Iron And Wine\2003 - Sea & The Rhythm [EP]\01. Iron & Wine - Beneath the Balcony.wav

Pre-gap length 0:00:02.00

Peak level 96.2 %
Track quality 100.0 %
Test CRC D243F33F
Copy CRC D243F33F
Accurately ripped (confidence 52) [4572F857]
Copy OK

Track 2

Filename D:\Торрент\Iron And Wine\2003 - Sea & The Rhythm [EP]\02. Iron & Wine - The Sea and the Rhythm.wav

Pre-gap length 0:00:02.38

Peak level 94.2 %
Track quality 100.0 %
Test CRC 47C49050
Copy CRC 47C49050
Accurately ripped (confidence 54) [C13AA9BB]
Copy OK

Track 3

Filename D:\Торрент\Iron And Wine\2003 - Sea & The Rhythm [EP]\03. Iron & Wine - The Night Descending.wav

Pre-gap length 0:00:01.84

Peak level 96.3 %
Track quality 99.9 %
Test CRC 87C4151A
Copy CRC 87C4151A
Accurately ripped (confidence 54) [9AA851DA]
Copy OK

Track 4

Filename D:\Торрент\Iron And Wine\2003 - Sea & The Rhythm [EP]\04. Iron & Wine - Jesus the Mexican Boy.wav

Pre-gap length 0:00:01.97

Peak level 96.2 %
Track quality 100.0 %
Test CRC 3263E575
Copy CRC 3263E575
Accurately ripped (confidence 54) [3ACD582B]
Copy OK

Track 5

Filename D:\Торрент\Iron And Wine\2003 - Sea & The Rhythm [EP]\05. Iron & Wine - Someday the Waves.wav

Pre-gap length 0:00:02.60

Peak level 98.3 %
Track quality 100.0 %
Test CRC C1919DF8
Copy CRC C1919DF8
Accurately ripped (confidence 53) [6DEC0F4F]
Copy OK


All tracks accurately ripped

No errors occurred

End of status report




IRON & WINE - Albums & Singles Collection 2002-2015 (11CD) [Re-Up]

Iron & Wine - Our Endless Numbered Days (2004)
EAC | FLAC | Tracks (Cue&Log) ~ 296 Mb | Mp3 (CBR320) ~ 143 Mb
Scans Included | Label: Sub Pop | # SPCD630 | Time: 00:44:47

On Our Endless Numbered Days, the follow-up to 2002's stunningly good Creek Drank the Cradle, the sound of Iron & Wine has changed but the song remains the same. No longer does Sam Beam record his intimate songs in the intimate surroundings of his home. Instead he has made the jump to the recording studio. As a result the record is much cleaner, less cocoon-like, certainly more the product of someone who has become a professional musician and not someone who just records for fun on a four-track. However, all Beam has sacrificed is sound quality. The sound of the record is still very intimate and simple, with very subtle arrangements that leave his voice and lyrics as the focal point. Luckily all the technology in the world can't affect Beam's voice, which still sounds like it comes right from his lips into your ear as if he were an angel perched on your shoulder. His songs are still as strong and memorable as they were on Creek, no drop off whatsoever in quality. "Naked as We Came" with sparkling melody lovely background harmonies by his sister Sarah; the aching folk ballad "Radio War," which wouldn't sound out of place on Prairie Home Companion, only it would be the best thing you ever heard there; the sad and sweet "Each Coming Night"; the crystalline acoustic guitar ballad "Fever Dream," which has the kind of vocal harmony between Beam and his sister that seems to be the exclusive domain of siblings; and the soft rock CSNY "Sodom, South Georgia" are the equal of anything on Iron & Wine's debut and match up well with anything Palace, Smog, or their ilk have done lately. A definite plus to recording in a studio and enlisting the help of outside musicians is that there is much more variety to the album and there are lots of small production touches that liven things up like the Native American chants at the close of "Cinder and Smoke," the pedal steel guitar on "Sunset Soon Forgotten," and the drums and tambourine on the bluesy "Free Until They Cut Me Down." Our Endless Numbered Days is very subdued, thoughtful, melodic, and downright beautiful album and the new sound is more of a progression than a sudden shift in values, production or otherwise. Anyone who found the first album to be wonderful will no doubt feel the same about this one. Heck, you might even like it more.

Review by Tim Sendra, Allmusic.com

Tracklist:

01. On Your Wings -3:53
02. Naked as We Came - 2:33
03. Cinder and Smoke - 5:44
04. Sunset Soon Forgotten - 3:20
05. Teeth in the Grass - 2:22
06. Love and Some Verses - 3:40
07. Radio War - 1:56
08. Each Coming Night - 3:28
09. Free Until They Cut Me Down - 4:35
10. Fever Dream - 4:16
11. Sodom, South Georgia - 4:59
12. Passing Afternoon - 4:01


Exact Audio Copy V0.99 prebeta 5 from 4. May 2009

EAC extraction logfile from 28. November 2010, 18:10

Iron And Wine / Our Endless Numbered Days

Used drive : PIONEER DVD-RW DVR-118L Adapter: 2 ID: 0

Read mode : Secure
Utilize accurate stream : Yes
Defeat audio cache : Yes
Make use of C2 pointers : No

Read offset correction : 6
Overread into Lead-In and Lead-Out : No
Fill up missing offset samples with silence : Yes
Delete leading and trailing silent blocks : No
Null samples used in CRC calculations : Yes
Used interface : Native Win32 interface for Win NT & 2000
Gap handling : Appended to previous track

Used output format : User Defined Encoder
Selected bitrate : 128 kBit/s
Quality : High
Add ID3 tag : No
Command line compressor : C:\Program Files (x86)\Exact Audio Copy\Flac\flac.exe
Additional command line options : -8 -V -T "ARTIST=%a" -T "TITLE=%t" -T "ALBUM=%g" -T "DATE=%y" -T "TRACKNUMBER=%n" -T "GENRE=%m" -T "COMMENT=EAC FLAC -8" %s


TOC of the extracted CD

Track | Start | Length | Start sector | End sector
––––––––––––––––––––––––––––-
1 | 0:00.00 | 3:53.08 | 0 | 17482
2 | 3:53.08 | 2:32.47 | 17483 | 28929
3 | 6:25.55 | 5:44.24 | 28930 | 54753
4 | 12:10.04 | 3:20.00 | 54754 | 69753
5 | 15:30.04 | 2:21.44 | 69754 | 80372
6 | 17:51.48 | 3:40.23 | 80373 | 96895
7 | 21:31.71 | 1:56.07 | 96896 | 105602
8 | 23:28.03 | 3:27.54 | 105603 | 121181
9 | 26:55.57 | 4:34.62 | 121182 | 141793
10 | 31:30.44 | 4:16.15 | 141794 | 161008
11 | 35:46.59 | 4:59.34 | 161009 | 183467
12 | 40:46.18 | 4:00.58 | 183468 | 201525


Track 1

Filename C:\Program Files (x86)\Exact Audio Copy\Flac\Music\01. Iron And Wine - On Your Wings.wav

Pre-gap length 0:00:02.00

Peak level 96.5 %
Track quality 99.9 %
Test CRC 5FA7ACEE
Copy CRC 5FA7ACEE
Accurately ripped (confidence 180) [DB197D1C]
Copy OK

Track 2

Filename C:\Program Files (x86)\Exact Audio Copy\Flac\Music\02. Iron And Wine - Naked As We Came.wav

Pre-gap length 0:00:01.38

Peak level 96.5 %
Track quality 100.0 %
Test CRC DBB15A56
Copy CRC DBB15A56
Accurately ripped (confidence 181) [47682C5F]
Copy OK

Track 3

Filename C:\Program Files (x86)\Exact Audio Copy\Flac\Music\03. Iron And Wine - Cinder And Smoke.wav

Peak level 96.5 %
Track quality 99.9 %
Test CRC 942B3193
Copy CRC 942B3193
Accurately ripped (confidence 181) [D9DC9526]
Copy OK

Track 4

Filename C:\Program Files (x86)\Exact Audio Copy\Flac\Music\04. Iron And Wine - Sunset Soon Forgotten.wav

Pre-gap length 0:00:01.18

Peak level 96.5 %
Track quality 100.0 %
Test CRC 3845CE55
Copy CRC 3845CE55
Accurately ripped (confidence 179) [C2C05931]
Copy OK

Track 5

Filename C:\Program Files (x86)\Exact Audio Copy\Flac\Music\05. Iron And Wine - Teeth In The Grass.wav

Peak level 96.5 %
Track quality 100.0 %
Test CRC F2C8DD21
Copy CRC F2C8DD21
Accurately ripped (confidence 180) [EFAF8347]
Copy OK

Track 6

Filename C:\Program Files (x86)\Exact Audio Copy\Flac\Music\06. Iron And Wine - Love And Some Verses.wav

Peak level 96.5 %
Track quality 100.0 %
Test CRC E443A778
Copy CRC E443A778
Accurately ripped (confidence 178) [5626BDC2]
Copy OK

Track 7

Filename C:\Program Files (x86)\Exact Audio Copy\Flac\Music\07. Iron And Wine - Radio War.wav

Pre-gap length 0:00:00.24

Peak level 92.4 %
Track quality 100.0 %
Test CRC 8B84874F
Copy CRC 8B84874F
Accurately ripped (confidence 179) [4AA2A1A4]
Copy OK

Track 8

Filename C:\Program Files (x86)\Exact Audio Copy\Flac\Music\08. Iron And Wine - Each Coming Night.wav

Pre-gap length 0:00:00.57

Peak level 96.6 %
Track quality 100.0 %
Test CRC F6B14962
Copy CRC F6B14962
Accurately ripped (confidence 178) [2EAB6C0E]
Copy OK

Track 9

Filename C:\Program Files (x86)\Exact Audio Copy\Flac\Music\09. Iron And Wine - Free Until They Cut Me Down.wav

Peak level 96.5 %
Track quality 100.0 %
Test CRC E906B839
Copy CRC E906B839
Accurately ripped (confidence 177) [81DB2483]
Copy OK

Track 10

Filename C:\Program Files (x86)\Exact Audio Copy\Flac\Music\10. Iron And Wine - Fever Dream.wav

Peak level 95.4 %
Track quality 100.0 %
Test CRC 5A700509
Copy CRC 5A700509
Accurately ripped (confidence 177) [EC94C00A]
Copy OK

Track 11

Filename C:\Program Files (x86)\Exact Audio Copy\Flac\Music\11. Iron And Wine - Sodom, South Georgia.wav

Peak level 91.1 %
Track quality 100.0 %
Test CRC CECD4EAE
Copy CRC CECD4EAE
Accurately ripped (confidence 175) [08788AF3]
Copy OK

Track 12

Filename C:\Program Files (x86)\Exact Audio Copy\Flac\Music\12. Iron And Wine - Passing Afternoon.wav

Peak level 91.1 %
Track quality 99.9 %
Test CRC 8AF8D5ED
Copy CRC 8AF8D5ED
Accurately ripped (confidence 175) [1FEA7D11]
Copy OK


All tracks accurately ripped

No errors occurred

End of status report




IRON & WINE - Albums & Singles Collection 2002-2015 (11CD) [Re-Up]

Iron & Wine - In the Reins (with Calexico) EP (2005)
EAC | FLAC | Tracks (Cue&Log) ~ 170 Mb | Mp3 (CBR320) ~ 72 Mb
Scans Included | Label: Overcoat | # OC28 | Time: 00:27:44

Musical collaborations can be a dicey proposition. The blending of two styles and sounds can lead to the cancellation of the aspects of each that make them interesting and unique in the first place, which in turn leads to an inferior record. Iron & Wine and Calexico decided to tempt fate and hook up in 2004 and In the Reins is the result. The record manages to blend the best aspects of the two groups and comes off a winner in all respects. You get Iron & Wine's melodicism, emotional depth, and literary grace backed by Calexico's desert-bleached C&W orchestral splendor. The record is probably pitched more in the I&W camp as Iron & Wine's Sam Beam wrote all the songs and sings his moody miniature portraits of desperation in a breathy, shivers-down-your-spine croon. Calexico color in his compositions with pedal steels, vibraphone, and meandering trumpets, and lead them out of the insular Florida swamp and into the wide-screen West. None of Beam's songs feel like between-album throwaways and in fact a few rate among his best (the aching and staggeringly beautiful "Dead Man's Will," "He Lays in the Reins."). They almost all sound wonderful; the wider range of musical colors opens up his songs and brings in some moods and sounds you might not expect on an Iron & Wine record. Case in point is "A History of Lovers," which comes equipped with a boogie beat, a glittering Vegas horn section, and actually rocks out very convincingly. Calexico really pulls a rabbit out of the hat there as Beam is about the last person in the music biz you would expect to rock out convincingly. The only place where the pairing falters is on the slick and facile "Red Dust," which starts off as an intimate blues ballad with just Beam and guitars, then shifts to a barroom bluesy stomp featuring some very clichéd harp soloing. Luckily, it is a brief misstep that doesn't wreck an otherwise excellent record. Fans of both bands will want to get In the Reins because it rates favorably with their best work and on a couple of songs ("A History of Lovers," "Dead Man's Will") the sum of their collaboration creates music greater than their parts. A rare and wonderful occurrence that; don't let it slip past you.

Review by Tim Sendra, Allmusic.com

Tracklist:

01. He Lays in the Reins - 3:44
02. Prison on Route 41 - 4:11
03. A History of Lovers - 3:10
04. Red Dust - 3:31
05. Sixteen, Maybe Less - 4:49
06. Burn That Broken Bed - 5:06
07. Dead Man's Will - 3:13


Exact Audio Copy V0.99 prebeta 5 from 4. May 2009

EAC extraction logfile from 29. November 2010, 10:01

Calexico/Iron & Wine / In the Reins

Used drive : PIONEER DVD-RW DVR-118L Adapter: 2 ID: 0

Read mode : Secure
Utilize accurate stream : Yes
Defeat audio cache : Yes
Make use of C2 pointers : No

Read offset correction : 6
Overread into Lead-In and Lead-Out : No
Fill up missing offset samples with silence : Yes
Delete leading and trailing silent blocks : No
Null samples used in CRC calculations : Yes
Used interface : Native Win32 interface for Win NT & 2000
Gap handling : Appended to previous track

Used output format : User Defined Encoder
Selected bitrate : 128 kBit/s
Quality : High
Add ID3 tag : No
Command line compressor : C:\Program Files (x86)\Exact Audio Copy\Flac\flac.exe
Additional command line options : -8 -V -T "ARTIST=%a" -T "TITLE=%t" -T "ALBUM=%g" -T "DATE=%y" -T "TRACKNUMBER=%n" -T "GENRE=%m" -T "COMMENT=EAC FLAC -8" %s


TOC of the extracted CD

Track | Start | Length | Start sector | End sector
––––––––––––––––––––––––––––-
1 | 0:00.00 | 3:43.58 | 0 | 16782
2 | 3:43.58 | 4:10.74 | 16783 | 35606
3 | 7:54.57 | 3:09.51 | 35607 | 49832
4 | 11:04.33 | 3:31.21 | 49833 | 65678
5 | 14:35.54 | 4:49.13 | 65679 | 87366
6 | 19:24.67 | 5:06.20 | 87367 | 110336
7 | 24:31.12 | 3:13.34 | 110337 | 124845


Track 1

Filename C:\Program Files (x86)\Exact Audio Copy\Flac\Music\01. Calexico,Iron & Wine - He Lays in the Reins.wav

Pre-gap length 0:00:02.00

Peak level 98.8 %
Track quality 99.9 %
Test CRC 991B20E2
Copy CRC 991B20E2
Accurately ripped (confidence 124) [2E5959AE]
Copy OK

Track 2

Filename C:\Program Files (x86)\Exact Audio Copy\Flac\Music\02. Calexico,Iron & Wine - Prison on Route 41.wav

Pre-gap length 0:00:02.44

Peak level 95.5 %
Track quality 100.0 %
Test CRC 56522900
Copy CRC 56522900
Accurately ripped (confidence 123) [C02932AC]
Copy OK

Track 3

Filename C:\Program Files (x86)\Exact Audio Copy\Flac\Music\03. Calexico,Iron & Wine - A History of Lovers.wav

Pre-gap length 0:00:01.13

Peak level 98.8 %
Track quality 100.0 %
Test CRC 0A555FB1
Copy CRC 0A555FB1
Accurately ripped (confidence 124) [861E3ED7]
Copy OK

Track 4

Filename C:\Program Files (x86)\Exact Audio Copy\Flac\Music\04. Calexico,Iron & Wine - Red Dust.wav

Pre-gap length 0:00:02.10

Peak level 98.8 %
Track quality 100.0 %
Test CRC 683BC939
Copy CRC 683BC939
Accurately ripped (confidence 121) [6926E7DB]
Copy OK

Track 5

Filename C:\Program Files (x86)\Exact Audio Copy\Flac\Music\05. Calexico,Iron & Wine - Sixteen, Maybe Less.wav

Pre-gap length 0:00:01.77

Peak level 98.8 %
Track quality 100.0 %
Test CRC 15C9DCD2
Copy CRC 15C9DCD2
Accurately ripped (confidence 121) [364C9F9D]
Copy OK

Track 6

Filename C:\Program Files (x86)\Exact Audio Copy\Flac\Music\06. Calexico,Iron & Wine - Burn That Broken Bed.wav

Pre-gap length 0:00:01.93

Peak level 98.8 %
Track quality 100.0 %
Test CRC AE7209BE
Copy CRC AE7209BE
Accurately ripped (confidence 119) [A8AB377A]
Copy OK

Track 7

Filename C:\Program Files (x86)\Exact Audio Copy\Flac\Music\07. Calexico,Iron & Wine - Dead Man's Will.wav

Pre-gap length 0:00:02.44

Peak level 93.3 %
Track quality 100.0 %
Test CRC 65683071
Copy CRC 65683071
Accurately ripped (confidence 122) [88EB2DD7]
Copy OK


All tracks accurately ripped

No errors occurred

End of status report




IRON & WINE - Albums & Singles Collection 2002-2015 (11CD) [Re-Up]

Iron & Wine - Woman King [EP] (2005)
EAC | FLAC | Tracks (Cue&Log) ~ 188 Mb | Mp3 (CBR320) ~ 85 Mb
Scans Included | Label: Sub Pop | # SPCD665 | Time: 00:24:01

Anyone still hoping that Sam Beam and Iron & Wine will ever go back to the lo-fi sound of their first album might as well give up on that pipe dream. On the 2005 EP Woman King, Iron & Wine's sound is more produced and varied than ever. The record's arrangements are overflowing with a wealth of percussion, vocal harmonies, banjos, violins, and pianos. Beam's vocals, while always a thing of beauty, sound more assured and powerful than ever. Iron & Wine sound like a real band here; if you heard them in a big -budget Hollywood film, you wouldn't even flinch. The widening and smoothing of the band's approach does Beam's songs great favors, too. While his songwriting is as emotionally direct and haunting as ever (no amount of studio sheen could change that), this EP never feels insular, as his previous albums sometimes did. It sounds widescreen and universal. Woman King is too short to be considered the high point of Iron & Wine's career – it certainly points in that direction, though.

Review by Tim Sendra, Allmusic.com

Tracklist:

01. Woman King - 4:21
02. Jezebel - 5:07
03. Gray Stables - 3:55
04. Freedom Hangs Like Heaven - 4:01
05. My Lady's House - 3:33
06. Evening on the Ground (Lilith's Song) - 3:04


Exact Audio Copy V0.99 prebeta 5 from 4. May 2009

EAC extraction logfile from 29. January 2011, 17:49

Iron & Wine / Woman King

Used drive : PIONEER DVD-RW DVR-118L Adapter: 2 ID: 0

Read mode : Secure
Utilize accurate stream : Yes
Defeat audio cache : Yes
Make use of C2 pointers : No

Read offset correction : 6
Overread into Lead-In and Lead-Out : No
Fill up missing offset samples with silence : Yes
Delete leading and trailing silent blocks : No
Null samples used in CRC calculations : Yes
Used interface : Native Win32 interface for Win NT & 2000
Gap handling : Appended to previous track

Used output format : User Defined Encoder
Selected bitrate : 128 kBit/s
Quality : High
Add ID3 tag : No
Command line compressor : C:\Program Files (x86)\Exact Audio Copy\Flac\flac.exe
Additional command line options : -8 -V -T "ARTIST=%a" -T "TITLE=%t" -T "ALBUM=%g" -T "DATE=%y" -T "TRACKNUMBER=%n" -T "GENRE=%m" -T "COMMENT=EAC FLAC -8" %s


TOC of the extracted CD

Track | Start | Length | Start sector | End sector
––––––––––––––––––––––––––––-
1 | 0:00.00 | 4:20.72 | 0 | 19571
2 | 4:20.72 | 5:07.01 | 19572 | 42597
3 | 9:27.73 | 3:55.27 | 42598 | 60249
4 | 13:23.25 | 4:00.69 | 60250 | 78318
5 | 17:24.19 | 3:32.63 | 78319 | 94281
6 | 20:57.07 | 3:04.38 | 94282 | 108119


Track 1

Filename D:\Торрент\Iron And Wine\2005 - Woman King [EP]\01. Iron & Wine - Woman King.wav

Pre-gap length 0:00:02.00

Peak level 96.5 %
Track quality 100.0 %
Test CRC 92033B46
Copy CRC 92033B46
Accurately ripped (confidence 87) [4AC78EC1]
Copy OK

Track 2

Filename D:\Торрент\Iron And Wine\2005 - Woman King [EP]\02. Iron & Wine - Jezebel.wav

Peak level 96.5 %
Track quality 100.0 %
Test CRC 93C7E97F
Copy CRC 93C7E97F
Accurately ripped (confidence 90) [CD07BD80]
Copy OK

Track 3

Filename D:\Торрент\Iron And Wine\2005 - Woman King [EP]\03. Iron & Wine - Grey Stables.wav

Peak level 96.5 %
Track quality 100.0 %
Test CRC 7DB88169
Copy CRC 7DB88169
Accurately ripped (confidence 89) [4AFE0236]
Copy OK

Track 4

Filename D:\Торрент\Iron And Wine\2005 - Woman King [EP]\04. Iron & Wine - Freedom Hangs Like Heaven.wav

Pre-gap length 0:00:00.53

Peak level 96.5 %
Track quality 100.0 %
Test CRC 4B2A9535
Copy CRC 4B2A9535
Accurately ripped (confidence 89) [B8E007B3]
Copy OK

Track 5

Filename D:\Торрент\Iron And Wine\2005 - Woman King [EP]\05. Iron & Wine - In My Lady's House.wav

Pre-gap length 0:00:02.05

Peak level 96.6 %
Track quality 99.9 %
Test CRC F59C997D
Copy CRC F59C997D
Accurately ripped (confidence 89) [3FC30F83]
Copy OK

Track 6

Filename D:\Торрент\Iron And Wine\2005 - Woman King [EP]\06. Iron & Wine - Evening On The Ground (Lilith's Song).wav

Peak level 96.6 %
Track quality 100.0 %
Test CRC 72E45307
Copy CRC 72E45307
Accurately ripped (confidence 88) [2F729C45]
Copy OK


All tracks accurately ripped

No errors occurred

End of status report




IRON & WINE - Albums & Singles Collection 2002-2015 (11CD) [Re-Up]

Iron & Wine - Boy With a Coin (2007) Single
EAC | FLAC | Tracks (Cue&Log) ~ 115 Mb | Mp3 (CBR320) ~ 58 Mb
Scans Included | Label: Sub Pop | # SPCD743 | Time: 00:15:23


Tracklist:

01. Carried Home - 5:28
02. Boy with a Coin - 3:49
03. Kingdom of the Animals - 5:07


Exact Audio Copy V0.99 prebeta 5 from 4. May 2009

EAC extraction logfile from 29. January 2011, 15:40

Iron & Wine / Boy with a Coin

Used drive : PIONEER DVD-RW DVR-118L Adapter: 2 ID: 0

Read mode : Secure
Utilize accurate stream : Yes
Defeat audio cache : Yes
Make use of C2 pointers : No

Read offset correction : 6
Overread into Lead-In and Lead-Out : No
Fill up missing offset samples with silence : Yes
Delete leading and trailing silent blocks : No
Null samples used in CRC calculations : Yes
Used interface : Native Win32 interface for Win NT & 2000
Gap handling : Appended to previous track

Used output format : User Defined Encoder
Selected bitrate : 128 kBit/s
Quality : High
Add ID3 tag : No
Command line compressor : C:\Program Files (x86)\Exact Audio Copy\Flac\flac.exe
Additional command line options : -8 -V -T "ARTIST=%a" -T "TITLE=%t" -T "ALBUM=%g" -T "DATE=%y" -T "TRACKNUMBER=%n" -T "GENRE=%m" -T "COMMENT=EAC FLAC -8" %s


TOC of the extracted CD

Track | Start | Length | Start sector | End sector
––––––––––––––––––––––––––––-
1 | 0:00.00 | 6:27.45 | 0 | 29069
2 | 6:27.45 | 3:48.48 | 29070 | 46217
3 | 10:16.18 | 5:07.00 | 46218 | 69242


Track 1

Filename D:\Торрент\Iron And Wine\2007 - Boy With a Coin (single)\01. Iron & Wine - Carried Home.wav

Pre-gap length 0:00:02.00

Peak level 93.6 %
Track quality 100.0 %
Test CRC FF9BBED4
Copy CRC FF9BBED4
Accurately ripped (confidence 13) [4EF5460E]
Copy OK

Track 2

Filename D:\Торрент\Iron And Wine\2007 - Boy With a Coin (single)\02. Iron & Wine - Boy with a Coin.wav

Peak level 94.3 %
Track quality 100.0 %
Test CRC 924794F8
Copy CRC 924794F8
Accurately ripped (confidence 13) [192A45BE]
Copy OK

Track 3

Filename D:\Торрент\Iron And Wine\2007 - Boy With a Coin (single)\03. Iron & Wine - Kingdom of the Animals.wav

Peak level 95.2 %
Track quality 100.0 %
Test CRC 5DFF1597
Copy CRC 5DFF1597
Accurately ripped (confidence 13) [B422E987]
Copy OK


All tracks accurately ripped

No errors occurred

End of status report




IRON & WINE - Albums & Singles Collection 2002-2015 (11CD) [Re-Up]

Iron & Wine - The Shepherd's Dog (2007)
EAC | FLAC | Tracks (Cue&Log) ~ 311 Mb | Mp3 (CBR320) ~ 114 Mb
Scans ~ 179 Mb | Label: Sub Pop | # SPCD710 | Time: 00:49:50

Iron & Wine have shown an impressive work ethic since the release of The Creek Drank the Cradle in 2002. A flood of singles, EPs, and albums, each with high levels of quality, have made Iron & Wine and Sam Beam stars in the indie rock world. Introspective, leaning toward morose, and heavily bearded stars, but glittering just the same. 2007's The Shepherd's Dog goes a long way toward validating all the attention I&W have been getting; it's their best, most diverse, and most listenable record yet, as Beam and co. take another leap away from the lo-fi, one-dude-in-a-bedroom beginnings of the group. Here Beam surrounds himself with a large cast of musicians, and they blanket the songs with a wide array of instrumentation, everything from accordions to Hammond organ, piano to backward guitars, vibraphone to bass harmonica. Nothing too strange in the everything-goes world of indie rock circa 2007, but for Iron & Wine, it's a widescreen revelation. Perhaps working with Calexico on 2005's In the Reins inspired Beam to use all the colors in the paint box. Maybe it's a natural progression. Either way it leads to an inspiringly lush album, full of imaginative and rich arrangements. Not to say Beam has cast aside the vital elements that made the band so interesting to begin with; his whispered vocals still conjure shadowy mystery, the songs are still melancholy as hell at their core, and as always there's a lingering sense of Southern gothic foreboding shrouding the proceedings. The increased production values take these elements and goose them. The recognizably I&W songs like the dark and creepy "Peace Beneath the City" or the gloomy country ballad "Resurrection Fern" sound bigger and have a different kind of impact. Take "Boy with a Coin," which in the past would have been spare, spooky, and a bit insular, but now is huge and spooky thanks to the propulsive handclaps and atmospheric backward guitars that would make Daniel Lanois jealous. Along with these pumped-up variations on the band's classic sound, there are songs you'd never imagine hearing on an Iron & Wine album. The danceable (!) "House by the Sea" has jumpy Afro-pop underpinnings and a bit of wild abandon in Beam's more passionate-than-usual vocals; "Wolves (Song of the Shepherd's Dog)" is a funky mix of David Essex's "Rock On," a backwoods-sounding Meters, and of all things, dub reggae; and most shockingly, "The Devil Never Sleeps" actually rocks with a rollicking barroom piano, a loping tempo, bongos, and lyrics about nothing on the radio, leading to a sound that's ironically perfect for the radio. By the end of the record, you may feel a few pangs for the discarded, sparse sound of early Iron & Wine, but the beauty and majesty of The Shepherd's Dog will pave right over them, and you should be able to enjoy the masterful songcraft, inspired performance, and note-perfect production with no guilt and a fair bit of awe.

Review by Tim Sendra, Allmusic.com

Tracklist:

01. Pagan Angel and a Borrowed Car - 4:33
02. White Tooth Man - 3:57
03. Lovesong of the Buzzard - 4:26
04. Carousel - 4:02
05. House by the Sea - 4:22
06. Innocent Bones - 3:43
07. Wolves (Song of the Shepherd's Dog) - 4:57
08. Resurrection Fern - 4:50
09. Boy with a Coin - 4:06
10. The Devil Never Sleeps - 2:07
11. Peace Beneath the City - 4:45
12. Flightless Bird, American Mouth - 4:03


Exact Audio Copy V0.99 prebeta 5 from 4. May 2009

EAC extraction logfile from 28. November 2010, 19:19

Iron & Wine / The Shepherd's Dog

Used drive : PIONEER DVD-RW DVR-118L Adapter: 2 ID: 0

Read mode : Secure
Utilize accurate stream : Yes
Defeat audio cache : Yes
Make use of C2 pointers : No

Read offset correction : 6
Overread into Lead-In and Lead-Out : No
Fill up missing offset samples with silence : Yes
Delete leading and trailing silent blocks : No
Null samples used in CRC calculations : Yes
Used interface : Native Win32 interface for Win NT & 2000
Gap handling : Appended to previous track

Used output format : User Defined Encoder
Selected bitrate : 128 kBit/s
Quality : High
Add ID3 tag : No
Command line compressor : C:\Program Files (x86)\Exact Audio Copy\Flac\flac.exe
Additional command line options : -8 -V -T "ARTIST=%a" -T "TITLE=%t" -T "ALBUM=%g" -T "DATE=%y" -T "TRACKNUMBER=%n" -T "GENRE=%m" -T "COMMENT=EAC FLAC -8" %s


TOC of the extracted CD

Track | Start | Length | Start sector | End sector
––––––––––––––––––––––––––––-
1 | 0:00.00 | 4:32.53 | 0 | 20452
2 | 4:32.53 | 3:57.04 | 20453 | 38231
3 | 8:29.57 | 4:26.25 | 38232 | 58206
4 | 12:56.07 | 4:02.22 | 58207 | 76378
5 | 16:58.29 | 4:21.69 | 76379 | 96022
6 | 21:20.23 | 3:42.58 | 96023 | 112730
7 | 25:03.06 | 4:57.05 | 112731 | 135010
8 | 30:00.11 | 4:49.62 | 135011 | 156747
9 | 34:49.73 | 4:05.45 | 156748 | 175167
10 | 38:55.43 | 2:06.56 | 175168 | 184673
11 | 41:02.24 | 4:45.03 | 184674 | 206051
12 | 45:47.27 | 4:03.29 | 206052 | 224305


Track 1

Filename C:\Program Files (x86)\Exact Audio Copy\Flac\Music\01. Iron & Wine - Pagan Angel and a Borrowed Car.wav

Pre-gap length 0:00:02.00

Peak level 99.8 %
Track quality 100.0 %
Test CRC 928F4B71
Copy CRC 928F4B71
Accurately ripped (confidence 157) [9D0465AB]
Copy OK

Track 2

Filename C:\Program Files (x86)\Exact Audio Copy\Flac\Music\02. Iron & Wine - White Tooth Man.wav

Peak level 99.8 %
Track quality 100.0 %
Test CRC 4A1CA94F
Copy CRC 4A1CA94F
Accurately ripped (confidence 156) [663DACF8]
Copy OK

Track 3

Filename C:\Program Files (x86)\Exact Audio Copy\Flac\Music\03. Iron & Wine - Lovesong of the Buzzard.wav

Peak level 94.8 %
Track quality 100.0 %
Test CRC 09A83A8C
Copy CRC 09A83A8C
Accurately ripped (confidence 156) [A4C1CE74]
Copy OK

Track 4

Filename C:\Program Files (x86)\Exact Audio Copy\Flac\Music\04. Iron & Wine - Carousel.wav

Peak level 93.3 %
Track quality 100.0 %
Test CRC C2CC50FF
Copy CRC C2CC50FF
Accurately ripped (confidence 156) [6CDC2FCE]
Copy OK

Track 5

Filename C:\Program Files (x86)\Exact Audio Copy\Flac\Music\05. Iron & Wine - House by the Sea.wav

Peak level 97.5 %
Track quality 100.0 %
Test CRC C7FAB21F
Copy CRC C7FAB21F
Accurately ripped (confidence 157) [FD63D9EB]
Copy OK

Track 6

Filename C:\Program Files (x86)\Exact Audio Copy\Flac\Music\06. Iron & Wine - Innocent Bones.wav

Peak level 100.0 %
Track quality 100.0 %
Test CRC 64F1FA9F
Copy CRC 64F1FA9F
Accurately ripped (confidence 158) [A8B7B4FE]
Copy OK

Track 7

Filename C:\Program Files (x86)\Exact Audio Copy\Flac\Music\07. Iron & Wine - Wolves (Song of the Shepherd's Dog).wav

Peak level 93.8 %
Track quality 100.0 %
Test CRC 214792F0
Copy CRC 214792F0
Accurately ripped (confidence 158) [7231C5C2]
Copy OK

Track 8

Filename C:\Program Files (x86)\Exact Audio Copy\Flac\Music\08. Iron & Wine - Resurrection Fern.wav

Peak level 96.9 %
Track quality 100.0 %
Test CRC 3D305369
Copy CRC 3D305369
Accurately ripped (confidence 157) [453D659A]
Copy OK

Track 9

Filename C:\Program Files (x86)\Exact Audio Copy\Flac\Music\09. Iron & Wine - Boy with a Coin.wav

Peak level 94.6 %
Track quality 100.0 %
Test CRC 0FE74F91
Copy CRC 0FE74F91
Accurately ripped (confidence 160) [631BD5D8]
Copy OK

Track 10

Filename C:\Program Files (x86)\Exact Audio Copy\Flac\Music\10. Iron & Wine - The Devil Never Sleeps.wav

Peak level 97.0 %
Track quality 100.0 %
Test CRC 5A6DBF80
Copy CRC 5A6DBF80
Accurately ripped (confidence 158) [4F512B30]
Copy OK

Track 11

Filename C:\Program Files (x86)\Exact Audio Copy\Flac\Music\11. Iron & Wine - Peace Beneath the City.wav

Peak level 94.5 %
Track quality 100.0 %
Test CRC 7C81E08A
Copy CRC 7C81E08A
Accurately ripped (confidence 157) [762FCC13]
Copy OK

Track 12

Filename C:\Program Files (x86)\Exact Audio Copy\Flac\Music\12. Iron & Wine - Flightless Bird, American Mouth.wav

Peak level 96.2 %
Track quality 100.0 %
Test CRC FE610A09
Copy CRC FE610A09
Accurately ripped (confidence 157) [8CEF0946]
Copy OK


All tracks accurately ripped

No errors occurred

End of status report




IRON & WINE - Albums & Singles Collection 2002-2015 (11CD) [Re-Up]

Iron & Wine - Around the Well (2009) 2 CDs
EAC | FLAC | Tracks (Cue&Log) ~ 477 Mb | Mp3 (CBR320) ~ 213 Mb
Scans ~ 111 Mb | Label: Sub Pop | # SPCD808 | Time: 01:33:06

Named after a lyric from "The Trapeze Swinger," Around the Well collects two discs' worth of B-sides, rarities, and discarded tracks from the Iron & Wine catalog. These kinds of compilations can be tricky to assemble, but Around the Well is both comprehensive and conveniently presented, with each disc representing the two amorphous halves of Iron & Wine's career. Disc one is limited to the group's early days, meaning it's filled with soft bedroom whispers, homespun acoustics, and the lo-fi production that fueled Sam Beam's home recording sessions. Material from those same sessions would later form the track list of The Creek Drank the Cradle, but Around the Well pays attention to the songs that were cut from the album, offering several genuine gems amidst a constant stream of pleasant, stay-in-bed songcraft. Meanwhile, the second disc highlights Iron & Wine's shift from intimate solo project to collaborative indie folk band, beginning with the Our Endless Numbered Days sessions and culminating in the pastoral psychedelia of The Shepherd's Dog. Some of these selections are already familiar to Iron & Wine's biggest fans, including Beam's cover of "Such Great Heights" (heard on the Garden State soundtrack, as well as an oddly trippy M&Ms commercial) and the gorgeous concert staple "The Trapeze Swinger." Even so, few fans outside of Beam's social circle have heard standout tunes like "Kingdom of the Animals" and the vaguely Middle Eastern-sounding "Arms of a Thief," and Around the Well serves as a helpful reminder that a discarded Iron & Wine song is still better than most fine-tuned cuts from other bands.

Review by Andrew Leahey, Allmusic.com

Tracklist:

CD1:
01. Dearest Forsaken - 3:50
02. Morning - 2:42
03. Loud as Hope - 2:57
04. Peng! 33 - 3:28
05. Sacred Vision - 3:20
06. Friends They Are Jewels - 4:14
07. Hickory - 4:35
08. Waitin' for a Superman - 4:34
09. Swans and the Swimming - 3:25
10. Call Your Boys - 3:47
11. Such Great Heights - 4:11

CD2:
01. Communion Cups & Someone's Coat - 2:03
02. Belated Promise Ring - 3:46
03. God Made the Automobile - 3:55
04. Homeward, These Shoes - 1:35
05. Love Vigilantes - 3:27
06. Sinning Hands - 5:31
07. No Moon - 4:16
08. Serpent Charmer - 2:40
09. Carried Home - 6:32
10. Kingdom of the Animals - 5:06
11. Arms of a Thief - 3:42
12. The Trapeze Swinger - 9:31


Exact Audio Copy V0.99 prebeta 5 from 4. May 2009

EAC extraction logfile from 8. December 2010, 17:14

Iron & Wine / Around the Well Disc 1

Used drive : PIONEER DVD-RW DVR-118L Adapter: 2 ID: 0

Read mode : Secure
Utilize accurate stream : Yes
Defeat audio cache : Yes
Make use of C2 pointers : No

Read offset correction : 6
Overread into Lead-In and Lead-Out : No
Fill up missing offset samples with silence : Yes
Delete leading and trailing silent blocks : No
Null samples used in CRC calculations : Yes
Used interface : Native Win32 interface for Win NT & 2000
Gap handling : Appended to previous track

Used output format : User Defined Encoder
Selected bitrate : 128 kBit/s
Quality : High
Add ID3 tag : No
Command line compressor : C:\Program Files (x86)\Exact Audio Copy\Flac\flac.exe
Additional command line options : -8 -V -T "ARTIST=%a" -T "TITLE=%t" -T "ALBUM=%g" -T "DATE=%y" -T "TRACKNUMBER=%n" -T "GENRE=%m" -T "COMMENT=EAC FLAC -8" %s


TOC of the extracted CD

Track | Start | Length | Start sector | End sector
––––––––––––––––––––––––––––-
1 | 0:00.00 | 3:49.67 | 0 | 17241
2 | 3:49.67 | 2:41.66 | 17242 | 29382
3 | 6:31.58 | 2:56.68 | 29383 | 42650
4 | 9:28.51 | 3:28.24 | 42651 | 58274
5 | 12:57.00 | 3:19.71 | 58275 | 73270
6 | 16:16.71 | 4:14.35 | 73271 | 92355
7 | 20:31.31 | 4:35.01 | 92356 | 112981
8 | 25:06.32 | 4:34.20 | 112982 | 133551
9 | 29:40.52 | 3:24.62 | 133552 | 148913
10 | 33:05.39 | 3:47.34 | 148914 | 165972
11 | 36:52.73 | 4:11.21 | 165973 | 184818


Track 1

Filename C:\Program Files (x86)\Exact Audio Copy\Flac\Music\01. Iron & Wine - Dearest Forsaken.wav

Pre-gap length 0:00:02.00

Peak level 98.8 %
Track quality 100.0 %
Test CRC 9F2CD1E2
Copy CRC 9F2CD1E2
Accurately ripped (confidence 80) [96E3E0D4]
Copy OK

Track 2

Filename C:\Program Files (x86)\Exact Audio Copy\Flac\Music\02. Iron & Wine - Morning.wav

Peak level 98.8 %
Track quality 100.0 %
Test CRC B32201E9
Copy CRC B32201E9
Accurately ripped (confidence 81) [3B59862A]
Copy OK

Track 3

Filename C:\Program Files (x86)\Exact Audio Copy\Flac\Music\03. Iron & Wine - Loud as Hope.wav

Peak level 98.8 %
Track quality 100.0 %
Test CRC E1BA43E7
Copy CRC E1BA43E7
Accurately ripped (confidence 79) [FC2F832B]
Copy OK

Track 4

Filename C:\Program Files (x86)\Exact Audio Copy\Flac\Music\04. Iron & Wine - Peng!.wav

Peak level 98.8 %
Track quality 100.0 %
Test CRC 81D8D037
Copy CRC 81D8D037
Accurately ripped (confidence 79) [7F5D5060]
Copy OK

Track 5

Filename C:\Program Files (x86)\Exact Audio Copy\Flac\Music\05. Iron & Wine - Sacred Vision.wav

Peak level 98.8 %
Track quality 100.0 %
Test CRC 2333DCF4
Copy CRC 2333DCF4
Accurately ripped (confidence 79) [66A6D73D]
Copy OK

Track 6

Filename C:\Program Files (x86)\Exact Audio Copy\Flac\Music\06. Iron & Wine - Friends, They are Jewels.wav

Peak level 98.8 %
Track quality 100.0 %
Test CRC 0ECA6242
Copy CRC 0ECA6242
Accurately ripped (confidence 80) [F583C1E4]
Copy OK

Track 7

Filename C:\Program Files (x86)\Exact Audio Copy\Flac\Music\07. Iron & Wine - Hickory.wav

Pre-gap length 0:00:00.41

Peak level 98.1 %
Track quality 100.0 %
Test CRC 26CB5A1A
Copy CRC 26CB5A1A
Accurately ripped (confidence 80) [36FF8A5A]
Copy OK

Track 8

Filename C:\Program Files (x86)\Exact Audio Copy\Flac\Music\08. Iron & Wine - Waitin' for a Superman.wav

Peak level 98.8 %
Track quality 99.9 %
Test CRC 257133AC
Copy CRC 257133AC
Accurately ripped (confidence 79) [053AEC0F]
Copy OK

Track 9

Filename C:\Program Files (x86)\Exact Audio Copy\Flac\Music\09. Iron & Wine - Swans and the Swimming.wav

Peak level 98.8 %
Track quality 100.0 %
Test CRC F2C89D03
Copy CRC F2C89D03
Accurately ripped (confidence 78) [8F2FFFA8]
Copy OK

Track 10

Filename C:\Program Files (x86)\Exact Audio Copy\Flac\Music\10. Iron & Wine - Call Your Boys.wav

Peak level 98.8 %
Track quality 99.9 %
Test CRC 8BDE10B1
Copy CRC 8BDE10B1
Accurately ripped (confidence 80) [0A635FAB]
Copy OK

Track 11

Filename C:\Program Files (x86)\Exact Audio Copy\Flac\Music\11. Iron & Wine - Such Great Heights.wav

Peak level 98.8 %
Track quality 100.0 %
Test CRC 039F8EF8
Copy CRC 039F8EF8
Accurately ripped (confidence 80) [3269172D]
Copy OK


All tracks accurately ripped

No errors occurred

End of status report

Exact Audio Copy V0.99 prebeta 5 from 4. May 2009

EAC extraction logfile from 8. December 2010, 18:43

Iron & Wine / Around the Well Disc 2

Used drive : PIONEER DVD-RW DVR-118L Adapter: 2 ID: 0

Read mode : Secure
Utilize accurate stream : Yes
Defeat audio cache : Yes
Make use of C2 pointers : No

Read offset correction : 6
Overread into Lead-In and Lead-Out : No
Fill up missing offset samples with silence : Yes
Delete leading and trailing silent blocks : No
Null samples used in CRC calculations : Yes
Used interface : Native Win32 interface for Win NT & 2000
Gap handling : Appended to previous track

Used output format : User Defined Encoder
Selected bitrate : 128 kBit/s
Quality : High
Add ID3 tag : No
Command line compressor : C:\Program Files (x86)\Exact Audio Copy\Flac\flac.exe
Additional command line options : -8 -V -T "ARTIST=%a" -T "TITLE=%t" -T "ALBUM=%g" -T "DATE=%y" -T "TRACKNUMBER=%n" -T "GENRE=%m" -T "COMMENT=EAC FLAC -8" %s


TOC of the extracted CD

Track | Start | Length | Start sector | End sector
––––––––––––––––––––––––––––-
1 | 0:00.00 | 2:02.70 | 0 | 9219
2 | 2:02.70 | 3:45.63 | 9220 | 26157
3 | 5:48.58 | 3:54.50 | 26158 | 43757
4 | 9:43.33 | 1:34.60 | 43758 | 50867
5 | 11:18.18 | 3:26.55 | 50868 | 66372
6 | 14:44.73 | 5:30.73 | 66373 | 91195
7 | 20:15.71 | 4:15.54 | 91196 | 110374
8 | 24:31.50 | 2:39.56 | 110375 | 122355
9 | 27:11.31 | 6:31.52 | 122356 | 151732
10 | 33:43.08 | 5:05.65 | 151733 | 174672
11 | 38:48.73 | 3:41.59 | 174673 | 191306
12 | 42:30.57 | 9:31.06 | 191307 | 234137


Track 1

Filename C:\Program Files (x86)\Exact Audio Copy\Flac\Music\01. Iron & Wine - Communion Cups & Someone's Coat.wav

Pre-gap length 0:00:02.00

Peak level 89.1 %
Track quality 100.0 %
Test CRC 90C1AD09
Copy CRC 90C1AD09
Accurately ripped (confidence 78) [66346A93]
Copy OK

Track 2

Filename C:\Program Files (x86)\Exact Audio Copy\Flac\Music\02. Iron & Wine - Belated Promise Ring.wav

Peak level 89.1 %
Track quality 100.0 %
Test CRC 9319EFE2
Copy CRC 9319EFE2
Accurately ripped (confidence 79) [633C5F27]
Copy OK

Track 3

Filename C:\Program Files (x86)\Exact Audio Copy\Flac\Music\03. Iron & Wine - God Made the Automobile.wav

Peak level 89.1 %
Track quality 100.0 %
Test CRC 50B5F4CF
Copy CRC 50B5F4CF
Accurately ripped (confidence 78) [8793ACFE]
Copy OK

Track 4

Filename C:\Program Files (x86)\Exact Audio Copy\Flac\Music\04. Iron & Wine - Homeward, These Shoes.wav

Peak level 89.1 %
Track quality 100.0 %
Test CRC 72612CDF
Copy CRC 72612CDF
Accurately ripped (confidence 78) [C03EEE50]
Copy OK

Track 5

Filename C:\Program Files (x86)\Exact Audio Copy\Flac\Music\05. Iron & Wine - Love Vigilantes.wav

Peak level 89.1 %
Track quality 100.0 %
Test CRC 1EA1293A
Copy CRC 1EA1293A
Accurately ripped (confidence 78) [DF854BCB]
Copy OK

Track 6

Filename C:\Program Files (x86)\Exact Audio Copy\Flac\Music\06. Iron & Wine - Sinning Hands.wav

Pre-gap length 0:00:01.48

Peak level 89.1 %
Track quality 100.0 %
Test CRC C8661D50
Copy CRC C8661D50
Accurately ripped (confidence 77) [5221A43E]
Copy OK

Track 7

Filename C:\Program Files (x86)\Exact Audio Copy\Flac\Music\07. Iron & Wine - No Moon.wav

Pre-gap length 0:00:00.70

Peak level 89.1 %
Track quality 100.0 %
Test CRC 126B5D1D
Copy CRC 126B5D1D
Accurately ripped (confidence 79) [7EEC0E1F]
Copy OK

Track 8

Filename C:\Program Files (x86)\Exact Audio Copy\Flac\Music\08. Iron & Wine - Serpent Charmer.wav

Pre-gap length 0:00:00.46

Peak level 94.9 %
Track quality 99.9 %
Test CRC B786F3E8
Copy CRC B786F3E8
Accurately ripped (confidence 77) [9D73C838]
Copy OK

Track 9

Filename C:\Program Files (x86)\Exact Audio Copy\Flac\Music\09. Iron & Wine - Carried Home.wav

Peak level 92.3 %
Track quality 100.0 %
Test CRC 673CE8DC
Copy CRC 673CE8DC
Accurately ripped (confidence 77) [FF261F10]
Copy OK

Track 10

Filename C:\Program Files (x86)\Exact Audio Copy\Flac\Music\10. Iron & Wine - Kingdom of the Animals.wav

Peak level 96.7 %
Track quality 100.0 %
Test CRC 1F8DADA5
Copy CRC 1F8DADA5
Accurately ripped (confidence 77) [85B9107E]
Copy OK

Track 11

Filename C:\Program Files (x86)\Exact Audio Copy\Flac\Music\11. Iron & Wine - Arms of a Thief.wav

Peak level 98.8 %
Track quality 100.0 %
Test CRC D0B51996
Copy CRC D0B51996
Accurately ripped (confidence 78) [9D2EBD4E]
Copy OK

Track 12

Filename C:\Program Files (x86)\Exact Audio Copy\Flac\Music\12. Iron & Wine - The Trapeze Swinger.wav

Pre-gap length 0:00:00.56

Peak level 89.1 %
Track quality 100.0 %
Test CRC 081D982D
Copy CRC 081D982D
Accurately ripped (confidence 77) [6F0B2DBC]
Copy OK


All tracks accurately ripped

No errors occurred

End of status report




IRON & WINE - Albums & Singles Collection 2002-2015 (11CD) [Re-Up]

Iron & Wine - Kiss Each Other Clean (2011)
EAC | FLAC | Tracks (Cue&Log) ~ 317 Mb | Mp3 (CBR320) ~ 148 Mb
Scans included | Label: Sub Pop | # 526280-2 | Time: 00:44:04

The ongoing journey of Sam Beam from bedroom mystic to ringleader of a slick stadium indie rock band is completed on 2011’s Kiss Each Other Clean. While the previous Iron & Wine album, The Shepherd's Dog, was also very produced and pro-sounding, this album is huge. Beam, a cast of many, and producer Brian Deck have embellished the songs with a ton of studio tricks, a wide variety of instruments from flute to squelchy old synths, and a tightly arranged, loosely flowing feel that anyone who was initially enraptured by Beam’s early recordings might be hard-pressed to recognize. (Though Beam’s voice is still as haunting and intimate as ever for the most part. As is his beard.) Once you accept that I&W are now as established as a “real” band on par with Wilco or the Flaming Lips, some questions arise. Are they still any good? Can Beam still capture a heart with a tender melody and an aching vocal despite all the tricks and sax solos? Does the musicianship on display overpower the songs? Will Beam survive in the big leagues? Most of these questions were answered in the affirmative on the last album; they are reaffirmed here. Beam still writes and sings in a voice that could penetrate even the most syrupy backing – nothing will likely ever change that. His lyrics have the same broken and bruised poetry they’ve always had, only now they are surrounded by haunting and inventive arrangements that are even more intricate and interesting than on The Shepherd's Dog. This time, Beam and company bring in soft rock smoothness, dub reggae textures, and instruments that haven’t really been featured on previous records. The vintage synths in particular deserve mention; whether they are bubbling like mad on “Monkeys Uptown” or getting Stevie Wonder-funky on “Big Burned Hand,” they give the otherwise very organic-sounding arrangements a welcome cheesy kick. Other aspects that deserve praise are Sarah Simpson’s sweetly sung backing vocals and Deck’s production. He layers instruments and mixes sound like he’s baking a giant cake, giving the songs depth and a widescreen scope in the process. Beam couldn’t have picked a better person for the job of blowing his music up to the large-scale work of beauty it has become. If you’ve been on board since the beginning, you have to marvel at the perfectly timed and logical way the music has progressed. No one could ever accuse Beam of selling out his art, only growing up and building it up. Kiss Each Other Clean is the result of years of growth and change, and though that sounds incredibly boring, it’s also a record full of roiling emotion, tender wit, and deeply felt melodic beauty. In other words, a standard issue Iron & Wine record.

Review by Tim Sendra, Allmusic.com

Tracklist:

01. Walking Far from Home - 4:46
02. Me and Lazarus - 3:03
03. Tree by the River - 3:56
04. Monkeys Uptown - 3:48
05. Half Moon - 3:16
06. Rabbit Will Run - 5:32
07. Brother in Love - 3:50
08. Big Burned Hand - 4:14
09. Glad Man Singing - 4:40
10. Your Fake Name Is Good Enough for Me - 7:01


Exact Audio Copy V0.99 prebeta 5 from 4. May 2009

EAC extraction logfile from 29. January 2011, 15:11

Iron And Wine / Kiss Each Other Clean

Used drive : PIONEER DVD-RW DVR-118L Adapter: 2 ID: 0

Read mode : Secure
Utilize accurate stream : Yes
Defeat audio cache : Yes
Make use of C2 pointers : No

Read offset correction : 6
Overread into Lead-In and Lead-Out : No
Fill up missing offset samples with silence : Yes
Delete leading and trailing silent blocks : No
Null samples used in CRC calculations : Yes
Used interface : Native Win32 interface for Win NT & 2000
Gap handling : Appended to previous track

Used output format : User Defined Encoder
Selected bitrate : 128 kBit/s
Quality : High
Add ID3 tag : No
Command line compressor : C:\Program Files (x86)\Exact Audio Copy\Flac\flac.exe
Additional command line options : -8 -V -T "ARTIST=%a" -T "TITLE=%t" -T "ALBUM=%g" -T "DATE=%y" -T "TRACKNUMBER=%n" -T "GENRE=%m" -T "COMMENT=EAC FLAC -8" %s


TOC of the extracted CD

Track | Start | Length | Start sector | End sector
––––––––––––––––––––––––––––-
1 | 0:00.00 | 4:46.23 | 0 | 21472
2 | 4:46.23 | 3:02.66 | 21473 | 35188
3 | 7:49.14 | 3:56.36 | 35189 | 52924
4 | 11:45.50 | 3:47.58 | 52925 | 70007
5 | 15:33.33 | 3:15.48 | 70008 | 84680
6 | 18:49.06 | 5:31.54 | 84681 | 109559
7 | 24:20.60 | 3:50.04 | 109560 | 126813
8 | 28:10.64 | 4:13.53 | 126814 | 145841
9 | 32:24.42 | 4:39.52 | 145842 | 166818
10 | 37:04.19 | 7:00.50 | 166819 | 198368


Track 1

Filename D:\Торрент\Iron And Wine\2011 - Kiss Each Other Clean\01. Iron And Wine - Walking Far From Home - Iron And Wine.wav

Pre-gap length 0:00:02.00

Peak level 97.2 %
Track quality 100.0 %
Test CRC 9B5212E2
Copy CRC 9B5212E2
Track not present in AccurateRip database
Copy OK

Track 2

Filename D:\Торрент\Iron And Wine\2011 - Kiss Each Other Clean\02. Iron And Wine - Me And Lazarus - Iron And Wine.wav

Peak level 98.0 %
Track quality 100.0 %
Test CRC 9F42010F
Copy CRC 9F42010F
Track not present in AccurateRip database
Copy OK

Track 3

Filename D:\Торрент\Iron And Wine\2011 - Kiss Each Other Clean\03. Iron And Wine - Tree By The River - Iron And Wine.wav

Peak level 99.1 %
Track quality 100.0 %
Test CRC B705A778
Copy CRC B705A778
Track not present in AccurateRip database
Copy OK

Track 4

Filename D:\Торрент\Iron And Wine\2011 - Kiss Each Other Clean\04. Iron And Wine - Monkeys Uptown - Iron And Wine.wav

Peak level 95.3 %
Track quality 99.9 %
Test CRC D88F05CB
Copy CRC D88F05CB
Track not present in AccurateRip database
Copy OK

Track 5

Filename D:\Торрент\Iron And Wine\2011 - Kiss Each Other Clean\05. Iron And Wine - Half Moon - Iron And Wine.wav

Peak level 96.7 %
Track quality 100.0 %
Test CRC 9D439580
Copy CRC 9D439580
Track not present in AccurateRip database
Copy OK

Track 6

Filename D:\Торрент\Iron And Wine\2011 - Kiss Each Other Clean\06. Iron And Wine - Rabbit Will Run - Iron And Wine.wav

Peak level 99.8 %
Track quality 99.9 %
Test CRC 9F48334A
Copy CRC 9F48334A
Track not present in AccurateRip database
Copy OK

Track 7

Filename D:\Торрент\Iron And Wine\2011 - Kiss Each Other Clean\07. Iron And Wine - Godless Brother In Love - Iron And Wine.wav

Pre-gap length 0:00:01.60

Peak level 95.3 %
Track quality 100.0 %
Test CRC A36AA58E
Copy CRC A36AA58E
Track not present in AccurateRip database
Copy OK

Track 8

Filename D:\Торрент\Iron And Wine\2011 - Kiss Each Other Clean\08. Iron And Wine - Big Burned Hand - Iron And Wine.wav

Peak level 96.2 %
Track quality 99.9 %
Test CRC 487DF50C
Copy CRC 487DF50C
Track not present in AccurateRip database
Copy OK

Track 9

Filename D:\Торрент\Iron And Wine\2011 - Kiss Each Other Clean\09. Iron And Wine - Glad Man Singing - Iron And Wine.wav

Pre-gap length 0:00:01.56

Peak level 97.3 %
Track quality 100.0 %
Test CRC 3C0E860B
Copy CRC 3C0E860B
Track not present in AccurateRip database
Copy OK

Track 10

Filename D:\Торрент\Iron And Wine\2011 - Kiss Each Other Clean\10. Iron And Wine - Your Fake Name Is Good Enough For Me - Iron And Wine.wav

Peak level 99.8 %
Track quality 100.0 %
Test CRC 08A61529
Copy CRC 08A61529
Track not present in AccurateRip database
Copy OK


None of the tracks are present in the AccurateRip database

No errors occurred

End of status report




IRON & WINE - Albums & Singles Collection 2002-2015 (11CD) [Re-Up]

Iron And Wine - Archive Series Volume No. 1 (2015)
EAC | FLAC | Tracks (Cue&Log) ~ 225 Mb | Mp3 (CBR320) ~ 141 Mb | Scans ~ 216 Mb
Label: Black Cricket | # BC001 | Time: 01:01:34

As Iron & Wine, songwriter Samuel Beam became an icon of rustic indie folk, his soft-spoken songs full of still, wistful country imagery and lovelorn emotions always tuneful enough to sit well beside the various mild-mannered indie rock bands that became his contemporaries as he spanned over a decade of recording and touring. The roots of Iron & Wine began when Beam was attending film school in the late '90s, quietly recording acoustic demos of his beautifully mumbly songs on a borrowed four-track. These demos circulated and eventually the best of the tracks were assembled as Iron & Wine's 2002 Sub Pop Records debut, The Creek Drank the Cradle. The project's overnight success would lead to an accelerated development for Beam, his muse quickly shifting to more professionally recorded albums and changes in style over the years toward electric folk-rock and even forays into traditional African and Mexican arrangements as backdrops for his songs. There remained a special magic to those early recordings, however, the ones that sounded almost secretive or absolutely convinced they'd never be heard by anyone aside from the person creating them. Archive Series, Vol. 1 reaches back to the lo-fi recordings from the late '90s and early aughts that resulted in that gorgeously hushed debut, sharing 16 previously unreleased tracks from the same era. While sometimes a little light on relatable stories or characters, Beam's songs always succeed in perfectly capturing a vibe, and the outtakes and sketches of Archive Series, Vol. 1 fall in line with the vaguely pastoral feel of the earliest albums. "Everyone's Summer of '95" is a standout, Beam's multi-tracked vocal harmonies and gently fingerpicked acoustic guitar conjuring up sentiments of faceless nostalgia and thoughts of lost friendships. Elements of nature, pained love, and longing touch almost every song from a distance, from the loping banjo flourishes of "Slow Black River" to the campfire folk progression of "Quarters in a Pocket." Some of the references to antiquated themes of country life may come off a little precious to the uninitiated, but anyone who was spoken to by the low-lit intimacy of The Creek Drank the Cradle should seek out Archive Series, Vol. 1 as a perfect companion piece to that album and as deeper look into what must have been an incredibly inspired and productive time for the young songwriter.

Review by Fred Thomas, Allmusic.com

Tracklist:

01. Slow Black River (02:27)
02. The Wind Is Low (03:32)
03. Eden (02:43)
04. Two Hungry Blackbirds (05:08)
05. Freckled Girl (02:44)
06. Judgement (05:40)
07. Sing Song Bird (01:44)
08. Beyond the Fence (06:40)
09. Quarters in a Pocket (03:51)
10. Loretta (02:54)
11. Everyone's Summer of '95 (03:10)
12. Minor Piano Keys (05:17)
13. Your Sly Smile (03:21)
14. Halfway to Richmond (05:20)
15. Wade Across the Water (02:04)
16. Postcard (04:50)


Exact Audio Copy V1.0 beta 3 from 29. August 2011

EAC extraction logfile from 1. May 2015, 18:50

Iron & Wine / Archive Series Volume No. 1

Used drive : PIONEER DVD-RW DVR-118L Adapter: 2 ID: 0

Read mode : Secure
Utilize accurate stream : Yes
Defeat audio cache : Yes
Make use of C2 pointers : No

Read offset correction : 6
Overread into Lead-In and Lead-Out : No
Fill up missing offset samples with silence : Yes
Delete leading and trailing silent blocks : No
Null samples used in CRC calculations : Yes
Used interface : Native Win32 interface for Win NT & 2000
Gap handling : Appended to previous track

Used output format : User Defined Encoder
Selected bitrate : 1024 kBit/s
Quality : High
Add ID3 tag : No
Command line compressor : C:\Program Files (x86)\Exact Audio Copy\Flac\flac.exe
Additional command line options : -8 -V -T "ARTIST=%artist%" -T "TITLE=%title%" -T "ALBUM=%albumtitle%" -T "DATE=%year%" -T "TRACKNUMBER=%tracknr%" -T "GENRE=%genre%" -T "PERFORMER=%albuminterpret%" -T "COMPOSER=%composer%" %haslyrics%–tag-from-file=LYRICS="%lyricsfile%"%haslyrics% -T "ALBUMARTIST=%albumartist%" -T "DISCNUMBER=%cdnumber%" -T "TOTALDISCS=%totalcds%" -T "TOTALTRACKS=%numtracks%" -T "COMMENT=%comment%" %source% -o %dest%


TOC of the extracted CD

Track | Start | Length | Start sector | End sector
––––––––––––––––––––––––––––-
1 | 0:00.00 | 2:27.56 | 0 | 11080
2 | 2:27.56 | 3:32.62 | 11081 | 27042
3 | 6:00.43 | 2:43.07 | 27043 | 39274
4 | 8:43.50 | 5:08.67 | 39275 | 62441
5 | 13:52.42 | 2:44.74 | 62442 | 74815
6 | 16:37.41 | 5:40.11 | 74816 | 100326
7 | 22:17.52 | 1:44.46 | 100327 | 108172
8 | 24:02.23 | 6:40.02 | 108173 | 138174
9 | 30:42.25 | 3:51.67 | 138175 | 155566
10 | 34:34.17 | 2:54.38 | 155567 | 168654
11 | 37:28.55 | 3:10.19 | 168655 | 182923
12 | 40:38.74 | 5:17.64 | 182924 | 206762
13 | 45:56.63 | 3:21.41 | 206763 | 221878
14 | 49:18.29 | 5:20.05 | 221879 | 245883
15 | 54:38.34 | 2:04.55 | 245884 | 255238
16 | 56:43.14 | 4:50.69 | 255239 | 277057


Track 1

Filename D:\CDRip\01 - Slow Black River.wav

Pre-gap length 0:00:02.00

Peak level 44.2 %
Extraction speed 0.8 X
Track quality 99.9 %
Test CRC C25056F7
Copy CRC C25056F7
Accurately ripped (confidence 4) [436864C8] (AR v2)
Copy OK

Track 2

Filename D:\CDRip\02 - The Wind Is Low.wav

Peak level 44.2 %
Extraction speed 0.9 X
Track quality 99.9 %
Test CRC 6DC0BFB9
Copy CRC 6DC0BFB9
Accurately ripped (confidence 4) [70F87221] (AR v2)
Copy OK

Track 3

Filename D:\CDRip\03 - Eden.wav

Peak level 42.3 %
Extraction speed 1.1 X
Track quality 100.0 %
Test CRC D088073A
Copy CRC D088073A
Accurately ripped (confidence 4) [DC2DF9C2] (AR v2)
Copy OK

Track 4

Filename D:\CDRip\04 - Two Hungry Blackbirds.wav

Peak level 41.7 %
Extraction speed 1.3 X
Track quality 100.0 %
Test CRC 249512D2
Copy CRC 249512D2
Accurately ripped (confidence 4) [84CECFEA] (AR v2)
Copy OK

Track 5

Filename D:\CDRip\05 - Freckled Girl.wav

Peak level 42.9 %
Extraction speed 1.1 X
Track quality 99.9 %
Test CRC DD060BD2
Copy CRC DD060BD2
Accurately ripped (confidence 4) [72803934] (AR v2)
Copy OK

Track 6

Filename D:\CDRip\06 - Judgement.wav

Peak level 44.8 %
Extraction speed 1.5 X
Track quality 100.0 %
Test CRC 8A02BE25
Copy CRC 8A02BE25
Accurately ripped (confidence 4) [9F388B7C] (AR v2)
Copy OK

Track 7

Filename D:\CDRip\07 - Sing Song Bird.wav

Peak level 42.6 %
Extraction speed 1.3 X
Track quality 100.0 %
Test CRC ACBA4A57
Copy CRC ACBA4A57
Accurately ripped (confidence 4) [C30B2CD7] (AR v2)
Copy OK

Track 8

Filename D:\CDRip\08 - Beyond the Fence.wav

Peak level 42.2 %
Extraction speed 1.6 X
Track quality 99.9 %
Test CRC BAB35346
Copy CRC BAB35346
Accurately ripped (confidence 4) [39973314] (AR v2)
Copy OK

Track 9

Filename D:\CDRip\09 - Quarters in a Pocket.wav

Peak level 45.3 %
Extraction speed 1.7 X
Track quality 100.0 %
Test CRC AA783FB1
Copy CRC AA783FB1
Accurately ripped (confidence 4) [C537FE7B] (AR v2)
Copy OK

Track 10

Filename D:\CDRip\10 - Loretta.wav

Peak level 45.3 %
Extraction speed 1.7 X
Track quality 100.0 %
Test CRC 1947FC97
Copy CRC 1947FC97
Accurately ripped (confidence 4) [4FB787FC] (AR v2)
Copy OK

Track 11

Filename D:\CDRip\11 - Everyone's Summer of '95.wav

Peak level 40.1 %
Extraction speed 1.5 X
Track quality 99.9 %
Test CRC E8E15A33
Copy CRC E8E15A33
Accurately ripped (confidence 4) [5BF5C54C] (AR v2)
Copy OK

Track 12

Filename D:\CDRip\12 - Minor Piano Keys.wav

Peak level 45.3 %
Extraction speed 2.0 X
Track quality 100.0 %
Test CRC E5756BC4
Copy CRC E5756BC4
Accurately ripped (confidence 4) [174B16F7] (AR v2)
Copy OK

Track 13

Filename D:\CDRip\13 - Your Sly Smile.wav

Peak level 32.3 %
Extraction speed 1.9 X
Track quality 100.0 %
Test CRC 73F07924
Copy CRC 73F07924
Accurately ripped (confidence 4) [049D2F89] (AR v2)
Copy OK

Track 14

Filename D:\CDRip\14 - Halfway to Richmond.wav

Peak level 41.0 %
Extraction speed 2.1 X
Track quality 100.0 %
Test CRC AFB03037
Copy CRC AFB03037
Accurately ripped (confidence 4) [0C37532C] (AR v2)
Copy OK

Track 15

Filename D:\CDRip\15 - Wade Across the Water.wav

Peak level 37.6 %
Extraction speed 1.9 X
Track quality 100.0 %
Test CRC 4953E958
Copy CRC 4953E958
Accurately ripped (confidence 4) [55AC4709] (AR v2)
Copy OK

Track 16

Filename D:\CDRip\16 - Postcard.wav

Peak level 43.1 %
Extraction speed 2.2 X
Track quality 100.0 %
Test CRC E77F2805
Copy CRC E77F2805
Accurately ripped (confidence 4) [67FF3163] (AR v2)
Copy OK


All tracks accurately ripped

No errors occurred

End of status report

–– CUETools DB Plugin V2.1.3

[CTDB TOCID: islt3UkqWO2bqf.eI_p8DgcYHrg-] found, Submit result: islt3UkqWO2bqf.eI_p8DgcYHrg- has been confirmed
[bb24a585] (8/8) Accurately ripped


==== Log checksum AEC62A5FC7AF3605E10C93B8BFA6D9589EDED55D250598888D395D979FBA5F88 ====

foobar2000 1.3.8 / Dynamic Range Meter 1.1.1
log date: 2015-05-06 15:30:56

––––––––––––––––––––––––––––––––––––––––
Analyzed: Iron & Wine / Archive Series Volume No. 1
––––––––––––––––––––––––––––––––––––––––

DR Peak RMS Duration Track
––––––––––––––––––––––––––––––––––––––––
DR12 -7.08 dB -21.13 dB 2:28 01-Slow Black River
DR11 -7.09 dB -20.76 dB 3:33 02-The Wind Is Low
DR12 -7.46 dB -21.91 dB 2:43 03-Eden
DR11 -7.58 dB -20.80 dB 5:09 04-Two Hungry Blackbirds
DR13 -7.35 dB -23.77 dB 2:45 05-Freckled Girl
DR12 -6.97 dB -20.85 dB 5:40 06-Judgement
DR12 -7.39 dB -21.41 dB 1:45 07-Sing Song Bird
DR14 -7.49 dB -25.06 dB 6:40 08-Beyond the Fence
DR11 -6.87 dB -19.79 dB 3:52 09-Quarters in a Pocket
DR12 -6.88 dB -20.97 dB 2:55 10-Loretta
DR15 -7.92 dB -25.34 dB 3:10 11-Everyone's Summer of '95
DR14 -6.86 dB -23.11 dB 5:18 12-Minor Piano Keys
DR11 -9.81 dB -23.37 dB 3:22 13-Your Sly Smile
DR12 -7.74 dB -22.27 dB 5:20 14-Halfway to Richmond
DR14 -8.49 dB -24.09 dB 2:05 15-Wade Across the Water
DR14 -7.30 dB -23.43 dB 4:51 16-Postcard
––––––––––––––––––––––––––––––––––––––––

Number of tracks: 16
Official DR value: DR12

Samplerate: 44100 Hz
Channels: 2
Bits per sample: 16
Bitrate: 431 kbps
Codec: FLAC
================================================================================




All thanks to original releaser - Знак Качества

More interesting music in My Blog