Tags
Language
Tags
June 2024
Su Mo Tu We Th Fr Sa
26 27 28 29 30 31 1
2 3 4 5 6 7 8
9 10 11 12 13 14 15
16 17 18 19 20 21 22
23 24 25 26 27 28 29
30 1 2 3 4 5 6

Jamiroquai - Albums Collection 1993-2010 (8CD)

Posted By: Designol
Jamiroquai - Albums Collection 1993-2010 (8CD)

Jamiroquai - Albums Collection 1993-2010 (8CD)
EAC | FLAC | Tracks (Cue&Log) ~ 3.06 Gb | Mp3 (CBR320) ~ 1.12 Gb | Scans included
Funk, Urban, Jazz-Funk, Acid Jazz, Disco, Dance-Pop, Alternative Dance-Rock | 07:52:41

British pop group that amalgamated soul, jazz, and funk with a Stevie Wonder sound-alike named Jason Kay as its frontman. A Collection includes: Emergency on Planet Earth (1993); The Return Of The Space Cowboy (1995); Travelling Without Moving (1997); Synkronized (1999); A Funk Odyssey (2001); Dynamite (2005); High Times: Singles 1992-2006 (2006); Rock Dust Light Star (2010).

Active beginning in the early '90s, Jamiroquai has amassed a steady stream of hits in its native U.K. and experienced chart success in just about every other area of the world, with an irresistible blend of house rhythms and '70s-era soul/funk (the latter, especially, leading early on to claims of Stevie Wonder imitations). The band has gone though several lineup changes during their career, but through it all their leader has remained singer/songwriter Jason Kay (aka J.K.). Born on December 30, 1969, in Stretford, Manchester, Kay's mother, Karen, was a jazz singer who regularly performed at nightclubs, and in the '70s had her own TV show. After leaving home at the age of 15, Kay found himself homeless and in trouble with the law (by committing petty crimes to get by). After a near-death experience (where he was attacked and stabbed) and being arrested for a crime he did not commit, Kay decided to return home, where he chose to pursue a legitimate career over crime: music. Kay didn't have a band to back up his compositions, but he quickly came up with his future project's name, Jamiroquai, a name that combined the name of a Native American tribe (the Iroquois) along with the music-based word, jam.

Kay's home demos caught the attention of the record label Acid Jazz, which issued Jamiroquai's debut single "When You Gonna Learn?" in late 1992. With Kay enlisting the help of others (Jamiroquai's best-known lineup included drummer Derrick McKenzie, keyboard player Toby Smith, bassist Stuart Zender, and vibraphonist Wallis Buchanan), the single was a success and was soon followed by a long-term and lucrative recording contract with Sony. Jamiroquai's full-length debut, Emergency on Planet Earth, followed in 1993 and became a major hit in their native England (peaking at number one on the charts), spawning such Top Ten hit singles as "Too Young to Die" and "Blow Your Mind." The band's second release, The Return of the Space Cowboy in 1995, managed to steer Jamiroquai clear of the sophomore jinx that affects so many up-and-coming bands by out-selling its predecessor in Europe and was a sizeable hit in Japan, as well.

With most of the world dancing to Jamiroquai's beat, America was next in line for the band's third effort, 1996's Traveling Without Moving. The album spawned the worldwide hit "Virtual Insanity," for which an award-winning video was filmed and helped the album achieve platinum status in the States by the year's end (as well as a highlighted performance at the 1997 MTV Video Music Awards). Despite achieving breakthrough success, bassist Zender opted to leave the group during sessions for its follow-up, which resulted in Kay scraping almost an entire album's worth of new tracks in order to start from scratch with a new bassist (the slot would eventually go to newcomer Nick Fyffe). During the downtime, Jamiroquai contributed a brand-new track, "Deeper Underground," to the soundtrack for the 1998 movie Godzilla.

But the long wait between albums seemed to kill Jamiroquai's momentum in the U.S., where a fourth release overall, 1999's Synkronized, was largely ignored (yet back home and across the globe, it was another major commercial success). Subsequently, it appeared as though the majority of Jamiroquai's U.S. media attention focused on non-music related events, such as the band turning down a million-dollar offer to play at a concert on New Year's Eve 1999, and when Kay was accused of assaulting a tabloid photographer (with the charges later being dropped). It didn't take Jamiroquai as long the next time around to issue another album, with A Funk Odyssey hitting the racks two years later in 2001. Kay also helmed a volume in the mix-album series Late Night Tales. From there, Jamiroquai spent the next two years gathering material for a sixth studio album. Dynamite, which was finally released in 2005, was written and recorded in Spain, Italy, Costa Rica, Scotland, New York, Los Angeles and Jamiroquai's own Buckinghamshire studio. The group's seventh studio album, 2010's Rock Dust Light Star, dutifully blended the disco and electronic leanings of 2005’s Dynamite with the organic, roots-based soul of the band's 1993 debut.

Biography by Greg Prato, Allmusic.com

Jamiroquai - Albums Collection 1993-2010 (8CD)

Jamiroquai - Albums Collection 1993-2010 (8CD)





Jamiroquai - Albums Collection 1993-2010 (8CD)

Jamiroquai - Emergency on Planet Earth (1993)
EAC | FLAC | Tracks (Cue&Log) ~ 335 Mb | Mp3 (CBR320) ~ 127 Mb | Scans ~ 40 Mb
Label: Sony Soho Square | # 474069 2 | Time: 00:55:26

Jamiroquai made a large initial splash in 1993 with Emergency on Planet Earth, a psychedelic melange of tight funky rhythms, acid rock intimations, and '70s soul melodies. Frontman Jay Kay introduces himself with an environmentally oriented manifesto inside the sleeve, and his lyrics smack of idealist save the planet revolution. But this revolution would be held on the dancefloor if the band's impressive rhythm section had anything to say about it. Horns, string arrangements, and a didgeridoo provide full texture on most of the album's tunes, and the socially aware party vibe raged into the U.K.'s number one album slot. For a debut, Emergency shows quite a range of diversity, from the up-tempo jazzy instrumental "Music of the Mind" to the stop-start funk of "Whatever It Is, I Just Can't Stop."

Review by Troy Carpenter, Allmusic.com

Tracklist:

01. When You Gonna Learn (Digeridoo) (03:50)
02. Too Young To Die (06:05)
03. Hooked Up (04:35)
04. If I Like It, I Do It (04:53)
05. Music Of The Wind (06:22)
06. Emergency On Planet Earth (04:05)
07. Whatever It Is, I Just Can't Stop (04:07)
08. Blow Your Mind (08:32)
09. Revolution 1993 (10:16)
10. Didgin' Out (02:37)


Exact Audio Copy V0.99 prebeta 4 from 23. January 2008

EAC extraction logfile from 12. April 2008, 14:33

Jamiroquai / Emergency On Planet Earth

Used drive : HL-DT-STDVDRAM GSA-4167B Adapter: 0 ID: 1

Read mode : Secure
Utilize accurate stream : Yes
Defeat audio cache : Yes
Make use of C2 pointers : No

Read offset correction : 667
Overread into Lead-In and Lead-Out : No
Fill up missing offset samples with silence : Yes
Delete leading and trailing silent blocks : No
Null samples used in CRC calculations : Yes
Used interface : Native Win32 interface for Win NT & 2000
Gap handling : Appended to previous track

Used output format : User Defined Encoder
Selected bitrate : 128 kBit/s
Quality : High
Add ID3 tag : No
Command line compressor : C:\Program Files\FLAC\flac.exe
Additional command line options : -V -8 -T "artist=%a" -T "title=%t" -T "album=%g" -T "date=%y" -T "tracknumber=%n" -T "genre=%m" %s


TOC of the extracted CD

Track | Start | Length | Start sector | End sector
––––––––––––––––––––––––––––-
1 | 0:00.00 | 3:50.40 | 0 | 17289
2 | 3:50.40 | 6:05.55 | 17290 | 44719
3 | 9:56.20 | 4:35.60 | 44720 | 65404
4 | 14:32.05 | 4:53.00 | 65405 | 87379
5 | 19:25.05 | 6:22.70 | 87380 | 116099
6 | 25:48.00 | 4:05.12 | 116100 | 134486
7 | 29:53.12 | 4:07.10 | 134487 | 153021
8 | 34:00.22 | 8:32.18 | 153022 | 191439
9 | 42:32.40 | 10:16.55 | 191440 | 237694
10 | 52:49.20 | 2:37.00 | 237695 | 249469


Track 1

Filename C:\Documents and Settings\Saku\Desktop\Jamiroquai - Emergency On Planet Earth (1993) [FLAC]\01 - When You Gonna Learn (Digeridoo).wav

Pre-gap length 0:00:02.00

Peak level 97.2 %
Track quality 100.0 %
Test CRC A9BA8CAA
Copy CRC A9BA8CAA
Accurately ripped (confidence 39) [DAEAFAE0]
Copy OK

Track 2

Filename C:\Documents and Settings\Saku\Desktop\Jamiroquai - Emergency On Planet Earth (1993) [FLAC]\02 - Too Young To Die.wav

Pre-gap length 0:00:01.68

Peak level 92.3 %
Track quality 100.0 %
Test CRC F0649A17
Copy CRC F0649A17
Accurately ripped (confidence 38) [50FBF71E]
Copy OK

Track 3

Filename C:\Documents and Settings\Saku\Desktop\Jamiroquai - Emergency On Planet Earth (1993) [FLAC]\03 - Hooked Up.wav

Pre-gap length 0:00:01.63

Peak level 97.2 %
Track quality 100.0 %
Test CRC C82145E3
Copy CRC C82145E3
Accurately ripped (confidence 38) [B56C4412]
Copy OK

Track 4

Filename C:\Documents and Settings\Saku\Desktop\Jamiroquai - Emergency On Planet Earth (1993) [FLAC]\04 - If I Like It, I Do It.wav

Peak level 97.2 %
Track quality 100.0 %
Test CRC AC40B506
Copy CRC AC40B506
Accurately ripped (confidence 37) [EB54960C]
Copy OK

Track 5

Filename C:\Documents and Settings\Saku\Desktop\Jamiroquai - Emergency On Planet Earth (1993) [FLAC]\05 - Music Of The Wind.wav

Pre-gap length 0:00:00.26

Peak level 97.2 %
Track quality 100.0 %
Test CRC 66B37927
Copy CRC 66B37927
Accurately ripped (confidence 37) [3FDCAC20]
Copy OK

Track 6

Filename C:\Documents and Settings\Saku\Desktop\Jamiroquai - Emergency On Planet Earth (1993) [FLAC]\06 - Emergency On Planet Earth.wav

Pre-gap length 0:00:00.23

Peak level 97.2 %
Track quality 100.0 %
Test CRC 110D62C3
Copy CRC 110D62C3
Accurately ripped (confidence 37) [55E4A4AE]
Copy OK

Track 7

Filename C:\Documents and Settings\Saku\Desktop\Jamiroquai - Emergency On Planet Earth (1993) [FLAC]\07 - Whatever It Is, I Just Can't Stop.wav

Pre-gap length 0:00:00.50

Peak level 97.2 %
Track quality 100.0 %
Test CRC CA32ED28
Copy CRC CA32ED28
Accurately ripped (confidence 37) [305E7DD4]
Copy OK

Track 8

Filename C:\Documents and Settings\Saku\Desktop\Jamiroquai - Emergency On Planet Earth (1993) [FLAC]\08 - Blow Your Mind.wav

Peak level 97.2 %
Track quality 100.0 %
Test CRC DDE994D6
Copy CRC DDE994D6
Accurately ripped (confidence 38) [64AA1660]
Copy OK

Track 9

Filename C:\Documents and Settings\Saku\Desktop\Jamiroquai - Emergency On Planet Earth (1993) [FLAC]\09 - Revolution 1993.wav

Peak level 97.2 %
Track quality 100.0 %
Test CRC D182930A
Copy CRC D182930A
Accurately ripped (confidence 37) [9080B989]
Copy OK

Track 10

Filename C:\Documents and Settings\Saku\Desktop\Jamiroquai - Emergency On Planet Earth (1993) [FLAC]\10 - Didgin' Out.wav

Peak level 92.9 %
Track quality 100.0 %
Test CRC 399497E9
Copy CRC 399497E9
Accurately ripped (confidence 36) [4125960D]
Copy OK


All tracks accurately ripped

No errors occurred

End of status report

foobar2000 1.2 / Dynamic Range Meter 1.1.1
log date: 2015-02-18 21:31:09

––––––––––––––––––––––––––––––––––––––––
Analyzed: Jamiroquai / Emergency On Planet Earth
––––––––––––––––––––––––––––––––––––––––

DR Peak RMS Duration Track
––––––––––––––––––––––––––––––––––––––––
DR14 -0.24 dB -15.49 dB 3:51 01-When You Gonna Learn (Digeridoo)
DR12 -0.70 dB -15.29 dB 6:06 02-Too Young To Die
DR14 -0.24 dB -16.28 dB 4:36 03-Hooked Up
DR13 -0.24 dB -14.99 dB 4:53 04-If I Like It, I Do It
DR13 -0.24 dB -15.89 dB 6:23 05-Music Of The Wind
DR15 -0.24 dB -17.19 dB 4:05 06-Emergency On Planet Earth
DR15 -0.24 dB -16.77 dB 4:07 07-Whatever It Is, I Just Can't Stop
DR16 -0.24 dB -17.51 dB 8:32 08-Blow Your Mind
DR13 -0.24 dB -14.73 dB 10:17 09-Revolution 1993
DR14 -0.64 dB -17.25 dB 2:37 10-Didgin' Out
––––––––––––––––––––––––––––––––––––––––

Number of tracks: 10
Official DR value: DR14

Samplerate: 44100 Hz
Channels: 2
Bits per sample: 16
Bitrate: 711 kbps
Codec: FLAC
================================================================================

Original releaser – Nakkis



Jamiroquai - Albums Collection 1993-2010 (8CD)

Jamiroquai - The Return Of The Space Cowboy (1995)
EAC | FLAC | Tracks (Cue&Log) ~ 370 Mb | Mp3 (CBR320) ~ 152 Mb | Scans included
Label: Sony Soho Square | # 477813-2 | Time: 01:06:06

Jamiroquai's sophomore record had all the slinky grooves and great musicianship of the debut, but it also offered a better set of songs and more ambitious musical themes. As with Emergency on Planet Earth, Jason Kay's dead-on impression of Stevie Wonder and Sly Stone drives the group's blend of acid jazz and funky R&B. "Space Cowboy" and "Light Years" were hits all over the world, and made the band stars in Europe and Japan, while substantial clubplay earned them a degree of recognition for American audiences. But Jamiroquai refused to be known as simply a party band; the group takes on social issues such as homelessness and Native Americans' rights.

Review by John Bush, Allmusic.com

Tracklist:

01. Just Another Story (08:49)
02. Stillness In Time (04:17)
03. Half The Man (04:49)
04. Light Years (05:54)
05. Manifest Destiny (06:22)
06. The Kids (05:09)
07. Mr Moon (05:29)
08. Scam (07:02)
09. Journey To Arnhemland (05:22)
10. Morning Glory (06:24)
11. Space Cowboy (06:25)


Exact Audio Copy V0.99 prebeta 4 from 23. January 2008

EAC extraction logfile from 22. February 2010, 20:21

Jamiroquai / The Return Of The Space Cowboy

Used drive : DVDRW USB 16X Adapter: 3 ID: 1

Read mode : Secure
Utilize accurate stream : Yes
Defeat audio cache : Yes
Make use of C2 pointers : No

Read offset correction : 12
Overread into Lead-In and Lead-Out : No
Fill up missing offset samples with silence : Yes
Delete leading and trailing silent blocks : No
Null samples used in CRC calculations : Yes
Used interface : Native Win32 interface for Win NT & 2000
Gap handling : Appended to previous track

Used output format : User Defined Encoder
Selected bitrate : 128 kBit/s
Quality : High
Add ID3 tag : No
Command line compressor : C:\Program Files\FLAC\flac.exe
Additional command line options : -8 -V -T "ARTIST=%a" -T "TITLE=%t" -T "ALBUM=%g" -T "DATE=%y" -T "TRACKNUMBER=%n" -T "GENRE=%m" -T "COMMENT=EAC FLAC -8" %s


TOC of the extracted CD

Track | Start | Length | Start sector | End sector
––––––––––––––––––––––––––––-
1 | 0:00.00 | 8:49.45 | 0 | 39719
2 | 8:49.45 | 4:17.00 | 39720 | 58994
3 | 13:06.45 | 4:49.57 | 58995 | 80726
4 | 17:56.27 | 5:54.35 | 80727 | 107311
5 | 23:50.62 | 6:22.08 | 107312 | 135969
6 | 30:12.70 | 5:09.67 | 135970 | 159211
7 | 35:22.62 | 5:29.33 | 159212 | 183919
8 | 40:52.20 | 7:02.17 | 183920 | 215586
9 | 47:54.37 | 5:22.28 | 215587 | 239764
10 | 53:16.65 | 6:24.02 | 239765 | 268566
11 | 59:40.67 | 6:25.45 | 268567 | 297486


Track 1

Filename J:\My Rips\Jamiroquai - The Return Of The Space Cowboy (1994) [FLAC]\01 - Just Another Story.wav

Pre-gap length 0:00:02.00

Peak level 99.9 %
Track quality 100.0 %
Test CRC 87BFF993
Copy CRC 87BFF993
Accurately ripped (confidence 156) [FAEEC1C8]
Copy OK

Track 2

Filename J:\My Rips\Jamiroquai - The Return Of The Space Cowboy (1994) [FLAC]\02 - Stillness In Time.wav

Pre-gap length 0:00:00.04

Peak level 98.2 %
Track quality 99.9 %
Test CRC DD0A4CD7
Copy CRC DD0A4CD7
Accurately ripped (confidence 157) [18823BA8]
Copy OK

Track 3

Filename J:\My Rips\Jamiroquai - The Return Of The Space Cowboy (1994) [FLAC]\03 - Half The Man.wav

Pre-gap length 0:00:01.53

Peak level 94.7 %
Track quality 100.0 %
Test CRC 4C6A4C45
Copy CRC 4C6A4C45
Accurately ripped (confidence 158) [3910E9EE]
Copy OK

Track 4

Filename J:\My Rips\Jamiroquai - The Return Of The Space Cowboy (1994) [FLAC]\04 - Light Years.wav

Pre-gap length 0:00:02.36

Peak level 98.9 %
Track quality 99.9 %
Test CRC 6485545C
Copy CRC 6485545C
Accurately ripped (confidence 156) [39E77ED2]
Copy OK

Track 5

Filename J:\My Rips\Jamiroquai - The Return Of The Space Cowboy (1994) [FLAC]\05 - Manifest Destiny.wav

Pre-gap length 0:00:01.16

Peak level 100.0 %
Track quality 99.9 %
Test CRC EE4456E5
Copy CRC EE4456E5
Accurately ripped (confidence 157) [2E01F658]
Copy OK

Track 6

Filename J:\My Rips\Jamiroquai - The Return Of The Space Cowboy (1994) [FLAC]\06 - The Kids.wav

Pre-gap length 0:00:00.80

Peak level 98.3 %
Track quality 99.9 %
Test CRC 09CC6BDE
Copy CRC 09CC6BDE
Accurately ripped (confidence 158) [7409849C]
Copy OK

Track 7

Filename J:\My Rips\Jamiroquai - The Return Of The Space Cowboy (1994) [FLAC]\07 - Mr Moon.wav

Pre-gap length 0:00:01.53

Peak level 100.0 %
Track quality 99.9 %
Test CRC 9B2061DF
Copy CRC 9B2061DF
Accurately ripped (confidence 158) [5E875E20]
Copy OK

Track 8

Filename J:\My Rips\Jamiroquai - The Return Of The Space Cowboy (1994) [FLAC]\08 - Scam.wav

Pre-gap length 0:00:00.97

Peak level 98.6 %
Track quality 100.0 %
Test CRC B12A9B09
Copy CRC B12A9B09
Accurately ripped (confidence 154) [7C12B69C]
Copy OK

Track 9

Filename J:\My Rips\Jamiroquai - The Return Of The Space Cowboy (1994) [FLAC]\09 - Journey To Arnhemland.wav

Pre-gap length 0:00:01.56

Peak level 100.0 %
Track quality 100.0 %
Test CRC AE93556B
Copy CRC AE93556B
Accurately ripped (confidence 153) [4EFF5A76]
Copy OK

Track 10

Filename J:\My Rips\Jamiroquai - The Return Of The Space Cowboy (1994) [FLAC]\10 - Morning Glory.wav

Pre-gap length 0:00:01.64

Peak level 95.0 %
Track quality 99.9 %
Test CRC 511451DE
Copy CRC 511451DE
Accurately ripped (confidence 155) [EE2DBAE6]
Copy OK

Track 11

Filename J:\My Rips\Jamiroquai - The Return Of The Space Cowboy (1994) [FLAC]\11 - Space Cowboy.wav

Pre-gap length 0:00:02.06

Peak level 95.3 %
Track quality 99.9 %
Test CRC 668C0E3B
Copy CRC 668C0E3B
Accurately ripped (confidence 148) [691DA963]
Copy OK


All tracks accurately ripped

No errors occurred

End of status report

foobar2000 1.2 / Dynamic Range Meter 1.1.1
log date: 2015-02-18 21:31:28

––––––––––––––––––––––––––––––––––––––––
Analyzed: Jamiroquai / The Return Of The Space Cowboy
––––––––––––––––––––––––––––––––––––––––

DR Peak RMS Duration Track
––––––––––––––––––––––––––––––––––––––––
DR11 -0.01 dB -12.93 dB 8:50 01-Just Another Story
DR11 -0.15 dB -12.28 dB 4:17 02-Stillness In Time
DR11 -0.47 dB -14.79 dB 4:50 03-Half The Man
DR10 -0.10 dB -12.92 dB 5:54 04-Light Years
DR12 0.00 dB -13.81 dB 6:22 05-Manifest Destiny
DR11 -0.14 dB -12.06 dB 5:10 06-The Kids
DR12 0.00 dB -13.57 dB 5:29 07-Mr Moon
DR12 -0.12 dB -14.01 dB 7:02 08-Scam
DR14 0.00 dB -16.32 dB 5:22 09-Journey To Arnhemland
DR15 -0.44 dB -17.66 dB 6:24 10-Morning Glory
DR12 -0.41 dB -14.85 dB 6:26 11-Space Cowboy
––––––––––––––––––––––––––––––––––––––––

Number of tracks: 11
Official DR value: DR12

Samplerate: 44100 Hz
Channels: 2
Bits per sample: 16
Bitrate: 836 kbps
Codec: FLAC
================================================================================

Original releaser – Cor



Jamiroquai - Albums Collection 1993-2010 (8CD)

Jamiroquai - Travelling Without Moving (1997)
EAC | FLAC | Tracks (Cue&Log) ~ 396 Mb | Mp3 (CBR320) ~ 155 Mb | Scans ~ 44 Mb
Label: Columbia | # CK 91109 | Time: 01:07:43

Travelling Without Moving deepens the acid jazz and '70s soul fusions of Return of the Space Cowboy, yet it doesn't have the uniform consistency of its predecessor. Nevertheless, Jamiroquai's fusions sound more fully realized with each outing, which makes its patchy songwriting forgivable.

Review by Stephen Thomas Erlewine, Allmusic.com

Tracklist:

01. Virtual Insanity (05:41)
02. Cosmic Girl (04:03)
03. Use The Force (04:00)
04. Everyday (04:28)
05. Alright (04:25)
06. High Times (05:58)
07. Drifting Along (04:06)
08. Didjerama (03:50)
09. Didjital Vibrations (05:49)
10. Travelling Without Moving (03:40)
11. You Are My Love (03:55)
12. Spend A Lifetime (04:14)
13. Do You Know Where You're Coming From? (05:02)
14. Funktion (08:27)


Exact Audio Copy V0.99 prebeta 4 from 23. January 2008

EAC extraction logfile from 21. July 2008, 11:40

Jamiroquai / Travelling Without Moving

Used drive : TSSTcorpCDDVDW TS-H653N Adapter: 2 ID: 1

Read mode : Secure
Utilize accurate stream : Yes
Defeat audio cache : Yes
Make use of C2 pointers : No

Read offset correction : 6
Overread into Lead-In and Lead-Out : No
Fill up missing offset samples with silence : Yes
Delete leading and trailing silent blocks : No
Null samples used in CRC calculations : Yes
Used interface : Native Win32 interface for Win NT & 2000
Gap handling : Appended to previous track

Used output format : User Defined Encoder
Selected bitrate : 768 kBit/s
Quality : High
Add ID3 tag : No
Command line compressor : C:\Program Files\FLAC\flac.exe
Additional command line options : -V -8 -T "artist=%a" -T "title=%t" -T "album=%g" -T "date=%y" -T "tracknumber=%n" %s


TOC of the extracted CD

Track | Start | Length | Start sector | End sector
––––––––––––––––––––––––––––-
1 | 0:00.00 | 5:41.12 | 0 | 25586
2 | 5:41.12 | 4:03.70 | 25587 | 43881
3 | 9:45.07 | 4:00.45 | 43882 | 61926
4 | 13:45.52 | 4:28.43 | 61927 | 82069
5 | 18:14.20 | 4:25.25 | 82070 | 101969
6 | 22:39.45 | 5:58.55 | 101970 | 128874
7 | 28:38.25 | 4:06.32 | 128875 | 147356
8 | 32:44.57 | 3:50.23 | 147357 | 164629
9 | 36:35.05 | 5:49.20 | 164630 | 190824
10 | 42:24.25 | 3:40.07 | 190825 | 207331
11 | 46:04.32 | 3:55.55 | 207332 | 225011
12 | 50:00.12 | 4:14.28 | 225012 | 244089
13 | 54:14.40 | 5:02.00 | 244090 | 266739
14 | 59:16.40 | 8:27.05 | 266740 | 304769


Track 1

Filename C:\Hi there RIAA, What's up IFPI\Jamiroquai - Travelling Without Moving\01 - Virtual Insanity.wav

Pre-gap length 0:00:02.00

Peak level 99.7 %
Track quality 100.0 %
Test CRC 902F3D59
Copy CRC 902F3D59
Accurately ripped (confidence 22) [FF8CF6C1]
Copy OK

Track 2

Filename C:\Hi there RIAA, What's up IFPI\Jamiroquai - Travelling Without Moving\02 - Cosmic Girl.wav

Peak level 97.0 %
Track quality 100.0 %
Test CRC 86B7BB8F
Copy CRC 86B7BB8F
Accurately ripped (confidence 22) [72A20AEE]
Copy OK

Track 3

Filename C:\Hi there RIAA, What's up IFPI\Jamiroquai - Travelling Without Moving\03 - Use The Force.wav

Pre-gap length 0:00:00.13

Peak level 99.5 %
Track quality 100.0 %
Test CRC 377F5FF4
Copy CRC 377F5FF4
Accurately ripped (confidence 22) [A699AB76]
Copy OK

Track 4

Filename C:\Hi there RIAA, What's up IFPI\Jamiroquai - Travelling Without Moving\04 - Everyday.wav

Pre-gap length 0:00:01.40

Peak level 95.1 %
Track quality 100.0 %
Test CRC 65F34752
Copy CRC 65F34752
Accurately ripped (confidence 21) [82EF436D]
Copy OK

Track 5

Filename C:\Hi there RIAA, What's up IFPI\Jamiroquai - Travelling Without Moving\05 - Alright.wav

Pre-gap length 0:00:00.93

Peak level 99.8 %
Track quality 99.9 %
Test CRC 2560C9D3
Copy CRC 2560C9D3
Accurately ripped (confidence 20) [48BB4EB5]
Copy OK

Track 6

Filename C:\Hi there RIAA, What's up IFPI\Jamiroquai - Travelling Without Moving\06 - High Times.wav

Pre-gap length 0:00:02.00

Peak level 97.0 %
Track quality 100.0 %
Test CRC 27A7FE22
Copy CRC 27A7FE22
Accurately ripped (confidence 20) [EC97C966]
Copy OK

Track 7

Filename C:\Hi there RIAA, What's up IFPI\Jamiroquai - Travelling Without Moving\07 - Drifting Along.wav

Pre-gap length 0:00:01.33

Peak level 95.1 %
Track quality 100.0 %
Test CRC 39D82911
Copy CRC 39D82911
Accurately ripped (confidence 21) [9BB06E1B]
Copy OK

Track 8

Filename C:\Hi there RIAA, What's up IFPI\Jamiroquai - Travelling Without Moving\08 - Didjerama.wav

Pre-gap length 0:00:02.49

Peak level 99.4 %
Track quality 100.0 %
Test CRC EFAC81E0
Copy CRC EFAC81E0
Accurately ripped (confidence 20) [B2DA4252]
Copy OK

Track 9

Filename C:\Hi there RIAA, What's up IFPI\Jamiroquai - Travelling Without Moving\09 - Didjital Vibrations.wav

Peak level 90.2 %
Track quality 100.0 %
Test CRC 53B90D8F
Copy CRC 53B90D8F
Accurately ripped (confidence 20) [02A27566]
Copy OK

Track 10

Filename C:\Hi there RIAA, What's up IFPI\Jamiroquai - Travelling Without Moving\10 - Travelling Without Moving.wav

Pre-gap length 0:00:01.73

Peak level 99.7 %
Track quality 100.0 %
Test CRC C11C525D
Copy CRC C11C525D
Accurately ripped (confidence 21) [C2995AD2]
Copy OK

Track 11

Filename C:\Hi there RIAA, What's up IFPI\Jamiroquai - Travelling Without Moving\11 - You Are My Love.wav

Pre-gap length 0:00:02.02

Peak level 99.3 %
Track quality 100.0 %
Test CRC 3B31AB18
Copy CRC 3B31AB18
Accurately ripped (confidence 21) [4ABE67B4]
Copy OK

Track 12

Filename C:\Hi there RIAA, What's up IFPI\Jamiroquai - Travelling Without Moving\12 - Spend A Lifetime.wav

Pre-gap length 0:00:02.13

Peak level 92.8 %
Track quality 99.9 %
Test CRC A9E798E0
Copy CRC A9E798E0
Accurately ripped (confidence 19) [D3E513E9]
Copy OK

Track 13

Filename C:\Hi there RIAA, What's up IFPI\Jamiroquai - Travelling Without Moving\13 - Do You Know Where You're Coming From .wav

Pre-gap length 0:00:04.17

Peak level 67.7 %
Track quality 100.0 %
Test CRC 605B8D9D
Copy CRC 605B8D9D
Accurately ripped (confidence 18) [2E0C68B6]
Copy OK

Track 14

Filename C:\Hi there RIAA, What's up IFPI\Jamiroquai - Travelling Without Moving\14 - Funktion.wav

Pre-gap length 0:00:01.80

Peak level 99.3 %
Track quality 99.9 %
Test CRC 8113294F
Copy CRC 8113294F
Accurately ripped (confidence 17) [3FB59EFD]
Copy OK


All tracks accurately ripped

No errors occurred

End of status report

foobar2000 1.2 / Dynamic Range Meter 1.1.1
log date: 2015-02-18 21:31:48

––––––––––––––––––––––––––––––––––––––––
Analyzed: Jamiroquai / Travelling Without Moving
––––––––––––––––––––––––––––––––––––––––

DR Peak RMS Duration Track
––––––––––––––––––––––––––––––––––––––––
DR9 -0.02 dB -11.45 dB 5:41 01-Virtual Insanity
DR9 -0.26 dB -10.58 dB 4:04 02-Cosmic Girl
DR8 -0.04 dB -9.75 dB 4:01 03-Use The Force
DR11 -0.43 dB -13.51 dB 4:29 04-Everyday
DR10 -0.01 dB -11.24 dB 4:25 05-Alright
DR9 -0.26 dB -10.44 dB 5:59 06-High Times
DR10 -0.43 dB -11.90 dB 4:06 07-Drifting Along
DR8 -0.05 dB -9.37 dB 3:50 08-Didjerama
DR11 -0.89 dB -14.19 dB 5:49 09-Didjital Vibrations
DR8 -0.02 dB -10.47 dB 3:40 10-Travelling Without Moving
DR9 -0.06 dB -10.72 dB 3:56 11-You Are My Love
DR11 -0.64 dB -14.78 dB 4:14 12-Spend A Lifetime
DR8 -3.39 dB -13.31 dB 5:02 13-Do You Know Where You're Coming From?
DR11 -0.06 dB -12.42 dB 8:27 14-Funktion
––––––––––––––––––––––––––––––––––––––––

Number of tracks: 14
Official DR value: DR9

Samplerate: 44100 Hz
Channels: 2
Bits per sample: 16
Bitrate: 808 kbps
Codec: FLAC
================================================================================

Original releaser – theRadDept



Jamiroquai - Albums Collection 1993-2010 (8CD)

Jamiroquai - Synkronized (1999)
EAC | FLAC | Tracks (Cue&Log) ~ 390 Mb | Mp3 (CBR320) ~ 135 Mb | Scans included
Label: Sony Soho Square | # S2 494517 2 | Time: 00:53:05

Three years after their breakout Travelling Without Moving, Jamiroquai returned with another album that charts Jay Kay's continuing fascination with club-bound music of the 1970s – from disco to jazz-funk to rare groove to later Motown – but also shows signs of maturity. Produced by Kay with Al Stone, who also collaborated on Travelling Without Moving, the album includes several tracks (like the single "Canned Heat") that work infectious acid jazz grooves, and Kay's hipster vocals give out feel-good vibes through a set of ambiguously good-time lyrics. Though other tracks show a bit of an electronica update to the affairs, each still spotlights how strong and tight the band is. It may not be a leap ahead in sound, but Synkronized is another solid Jamiroquai record.

Review by John Bush, Allmusic.com

Tracklist:

01. Canned Heat (Album Version) (05:31)
02. Planet Home (04:44)
03. Black Capricorn Day (05:41)
04. Soul Education (04:15)
05. Falling (03:45)
06. Destitute Illusions (05:40)
07. Supersonic (05:15)
08. Butterfly (04:28)
09. Where Do We Go From Here (05:13)
10. King For A Day (03:44)
11. Deeper Underground (04:44)


Exact Audio Copy V0.99 prebeta 4 from 23. January 2008

EAC extraction logfile from 18. July 2009, 0:09

Jamiroquai / Synkronized

Used drive : DVDRW IDE 16X Adapter: 0 ID: 0

Read mode : Secure
Utilize accurate stream : Yes
Defeat audio cache : Yes
Make use of C2 pointers : No

Read offset correction : 12
Overread into Lead-In and Lead-Out : No
Fill up missing offset samples with silence : Yes
Delete leading and trailing silent blocks : No
Null samples used in CRC calculations : Yes
Used interface : Native Win32 interface for Win NT & 2000
Gap handling : Appended to previous track

Used output format : User Defined Encoder
Selected bitrate : 128 kBit/s
Quality : High
Add ID3 tag : No
Command line compressor : C:\PROGRAM FILES\FLAC\flac.exe
Additional command line options : -V -8 -T "artist=%a" -T "title=%t" -T "album=%g" -T "date=%y" -T "tracknumber=%n" -T "genre=%m" %s


TOC of the extracted CD

Track | Start | Length | Start sector | End sector
––––––––––––––––––––––––––––-
1 | 0:00.00 | 5:31.57 | 0 | 24881
2 | 5:31.57 | 4:44.28 | 24882 | 46209
3 | 10:16.10 | 5:41.42 | 46210 | 71826
4 | 15:57.52 | 4:15.30 | 71827 | 90981
5 | 20:13.07 | 3:45.13 | 90982 | 107869
6 | 23:58.20 | 5:40.12 | 107870 | 133381
7 | 29:38.32 | 5:15.60 | 133382 | 157066
8 | 34:54.17 | 4:28.60 | 157067 | 177226
9 | 39:23.02 | 5:13.43 | 177227 | 200744
10 | 44:36.45 | 3:44.30 | 200745 | 217574
11 | 48:21.00 | 4:44.37 | 217575 | 238911


Track 1

Filename C:\Shared\Music\Rips and Transcodes\Jamiroquai - Synkronized [1999-FLAC-Lossless-Log-Cue]\01 - Canned Heat (Album Version).wav

Pre-gap length 0:00:02.00

Peak level 100.0 %
Track quality 100.0 %
Test CRC 4B70642B
Copy CRC 4B70642B
Accurately ripped (confidence 5) [E75E5844]
Copy OK

Track 2

Filename C:\Shared\Music\Rips and Transcodes\Jamiroquai - Synkronized [1999-FLAC-Lossless-Log-Cue]\02 - Planet Home.wav

Peak level 100.0 %
Track quality 100.0 %
Test CRC 3F71DC8C
Copy CRC 3F71DC8C
Accurately ripped (confidence 5) [55926553]
Copy OK

Track 3

Filename C:\Shared\Music\Rips and Transcodes\Jamiroquai - Synkronized [1999-FLAC-Lossless-Log-Cue]\03 - Black Capricorn Day.wav

Peak level 100.0 %
Track quality 100.0 %
Test CRC C25D1CC0
Copy CRC C25D1CC0
Accurately ripped (confidence 5) [DFC64D72]
Copy OK

Track 4

Filename C:\Shared\Music\Rips and Transcodes\Jamiroquai - Synkronized [1999-FLAC-Lossless-Log-Cue]\04 - Soul Education.wav

Peak level 100.0 %
Track quality 100.0 %
Test CRC EF98C68A
Copy CRC EF98C68A
Accurately ripped (confidence 5) [C75E91CA]
Copy OK

Track 5

Filename C:\Shared\Music\Rips and Transcodes\Jamiroquai - Synkronized [1999-FLAC-Lossless-Log-Cue]\05 - Falling.wav

Peak level 100.0 %
Track quality 100.0 %
Test CRC DA4BC6E6
Copy CRC DA4BC6E6
Accurately ripped (confidence 5) [1A642019]
Copy OK

Track 6

Filename C:\Shared\Music\Rips and Transcodes\Jamiroquai - Synkronized [1999-FLAC-Lossless-Log-Cue]\06 - Destitute Illusions.wav

Peak level 100.0 %
Track quality 100.0 %
Test CRC AB52FA90
Copy CRC AB52FA90
Accurately ripped (confidence 5) [6BA8CBF2]
Copy OK

Track 7

Filename C:\Shared\Music\Rips and Transcodes\Jamiroquai - Synkronized [1999-FLAC-Lossless-Log-Cue]\07 - Supersonic.wav

Peak level 100.0 %
Track quality 99.9 %
Test CRC 7D9B7707
Copy CRC 7D9B7707
Accurately ripped (confidence 5) [037C1709]
Copy OK

Track 8

Filename C:\Shared\Music\Rips and Transcodes\Jamiroquai - Synkronized [1999-FLAC-Lossless-Log-Cue]\08 - Butterfly.wav

Peak level 100.0 %
Track quality 100.0 %
Test CRC B833D87C
Copy CRC B833D87C
Accurately ripped (confidence 5) [E6911B77]
Copy OK

Track 9

Filename C:\Shared\Music\Rips and Transcodes\Jamiroquai - Synkronized [1999-FLAC-Lossless-Log-Cue]\09 - Where Do We Go From Here.wav

Peak level 100.0 %
Track quality 100.0 %
Test CRC D929C327
Copy CRC D929C327
Accurately ripped (confidence 5) [EB72E5A9]
Copy OK

Track 10

Filename C:\Shared\Music\Rips and Transcodes\Jamiroquai - Synkronized [1999-FLAC-Lossless-Log-Cue]\10 - King For A Day.wav

Pre-gap length 0:00:02.17

Peak level 100.0 %
Track quality 100.0 %
Test CRC 84C31B9B
Copy CRC 84C31B9B
Accurately ripped (confidence 5) [EBC48A0C]
Copy OK

Track 11

Filename C:\Shared\Music\Rips and Transcodes\Jamiroquai - Synkronized [1999-FLAC-Lossless-Log-Cue]\11 - Deeper Underground.wav

Pre-gap length 0:00:05.37

Peak level 100.0 %
Track quality 100.0 %
Test CRC 0EC3A43F
Copy CRC 0EC3A43F
Accurately ripped (confidence 5) [D7503FBB]
Copy OK


All tracks accurately ripped

No errors occurred

End of status report

foobar2000 1.2 / Dynamic Range Meter 1.1.1
log date: 2015-02-18 21:32:03

––––––––––––––––––––––––––––––––––––––––
Analyzed: Jamiroquai / Synkronized
––––––––––––––––––––––––––––––––––––––––

DR Peak RMS Duration Track
––––––––––––––––––––––––––––––––––––––––
DR7 0.00 dB -8.46 dB 5:32 01-Canned Heat (Album Version)
DR8 0.00 dB -8.82 dB 4:44 02-Planet Home
DR6 0.00 dB -8.47 dB 5:42 03-Black Capricorn Day
DR8 0.00 dB -9.21 dB 4:15 04-Soul Education
DR8 0.00 dB -10.11 dB 3:45 05-Falling
DR7 0.00 dB -8.18 dB 5:40 06-Destitute Illusions
DR7 0.00 dB -8.69 dB 5:16 07-Supersonic
DR7 0.00 dB -8.42 dB 4:29 08-Butterfly
DR7 0.00 dB -8.51 dB 5:14 09-Where Do We Go From Here
DR7 0.00 dB -9.48 dB 3:44 10-King For A Day
DR7 0.00 dB -8.97 dB 4:44 11-Deeper Underground
––––––––––––––––––––––––––––––––––––––––

Number of tracks: 11
Official DR value: DR7

Samplerate: 44100 Hz
Channels: 2
Bits per sample: 16
Bitrate: 918 kbps
Codec: FLAC
================================================================================

Original releaser – darkip



Jamiroquai - Albums Collection 1993-2010 (8CD)

Jamiroquai - A Funk Odyssey (2001)
EAC | FLAC | Tracks (Cue&Log) ~ 320 Mb | Mp3 (CBR320) ~ 110 Mb | Scans ~ 117 Mb
Label: Sony Soho Square | # 504069 2 | Time: 00:48:18

After the jarring reception of 1999's Synkronized, Jamiroquai constructed A Funk Odyssey, something more polished and slick inside the band's own brand of funky disco-rock. Jason Kay and keyboardist/songwriter Toby Smith perfected a maturation that was left keyed in Travelling Without Moving but left open-ended on Synkronized for a wide scope of musical delight. A Funk Odyssey taps into various illustrious grooves of the Latin world, classic rock, and mainstream club culture, and Jamiroquai is tight and eager to make everyone shake their groove thing in their own light. The first single, "Little L," beams with Kajagoogoo-like synths while warping into a funk-driven hue of orchestral whirlpools, but Jamiroquai allows the band's extroverted and unattached personality to shine on the worldbeat-tinged "Corner of the Earth." Kay strips aside all disco humor and grandeur for something personally inviting, something that's heartfelt, too. A Funk Odyssey sparks classic enthusiasm, and it feels good. Dance music is not just a design, it's something far more tangible, and Jamiroquai surely captures a fierce desire to make it more emotional on the band's own level.

Review by MacKenzie Wilson, Allmusic.com

Tracklist:

01. Feel So Good (05:20)
02. Little L (04:55)
03. You Give Me Something (03:23)
04. Corner Of The Earth (05:40)
05. Love Foolosophy (03:45)
06. Stop Don't Panic (04:34)
07. Black Crow (04:02)
08. Main Vein (05:05)
09. Twenty Zero One (05:15)
10. Picture Of My Life (06:15)


Exact Audio Copy V0.99 prebeta 5 from 4. May 2009

EAC extraction logfile from 9. April 2010, 7:48

Jamiroquai / A Funk Odyssey

Used drive : PIONEER DVD-RW DVR-111D Adapter: 1 ID: 3

Read mode : Secure
Utilize accurate stream : Yes
Defeat audio cache : Yes
Make use of C2 pointers : No

Read offset correction : 48
Overread into Lead-In and Lead-Out : No
Fill up missing offset samples with silence : Yes
Delete leading and trailing silent blocks : No
Null samples used in CRC calculations : Yes
Used interface : Installed external ASPI interface
Gap handling : Appended to previous track

Used output format : User Defined Encoder
Selected bitrate : 768 kBit/s
Quality : High
Add ID3 tag : No
Command line compressor : C:\Program Files\Exact Audio Copy\FLAC\FLAC.EXE
Additional command line options : -8 -V -T "ARTIST=%a" -T "TITLE=%t" -T "ALBUM=%g" -T "DATE=%y" -T "TRACKNUMBER=%n" -T "GENRE=%m" -T "COMMENT=EAC FLAC -8" %s


TOC of the extracted CD

Track | Start | Length | Start sector | End sector
––––––––––––––––––––––––––––-
1 | 0:00.00 | 5:20.62 | 0 | 24061
2 | 5:20.62 | 4:55.25 | 24062 | 46211
3 | 10:16.12 | 3:23.28 | 46212 | 61464
4 | 13:39.40 | 5:40.00 | 61465 | 86964
5 | 19:19.40 | 3:45.60 | 86965 | 103899
6 | 23:05.25 | 4:34.12 | 103900 | 124461
7 | 27:39.37 | 4:02.18 | 124462 | 142629
8 | 31:41.55 | 5:05.12 | 142630 | 165516
9 | 36:46.67 | 5:15.45 | 165517 | 189186
10 | 42:02.37 | 6:15.70 | 189187 | 217381


Track 1

Filename F:\New Folder\01 - Feel So Good.wav

Pre-gap length 0:00:02.00

Peak level 98.8 %
Track quality 100.0 %
Test CRC 8DA1A640
Copy CRC 8DA1A640
Accurately ripped (confidence 160) [8C6A3954]
Copy OK

Track 2

Filename F:\New Folder\02 - Little L.wav

Peak level 98.8 %
Track quality 100.0 %
Test CRC EC86D4A8
Copy CRC EC86D4A8
Accurately ripped (confidence 167) [92B0B657]
Copy OK

Track 3

Filename F:\New Folder\03 - You Give Me Something.wav

Peak level 98.8 %
Track quality 100.0 %
Test CRC A2D2F51F
Copy CRC A2D2F51F
Accurately ripped (confidence 163) [F57C01C2]
Copy OK

Track 4

Filename F:\New Folder\04 - Corner Of The Earth.wav

Peak level 98.8 %
Track quality 100.0 %
Test CRC BDE4489F
Copy CRC BDE4489F
Accurately ripped (confidence 160) [CE562E81]
Copy OK

Track 5

Filename F:\New Folder\05 - Love Foolosophy.wav

Pre-gap length 0:00:01.20

Peak level 98.7 %
Track quality 99.9 %
Test CRC 76A3B633
Copy CRC 76A3B633
Accurately ripped (confidence 161) [A093420B]
Copy OK

Track 6

Filename F:\New Folder\06 - Stop Don't Panic.wav

Peak level 98.8 %
Track quality 100.0 %
Test CRC 357D59D7
Copy CRC 357D59D7
Accurately ripped (confidence 159) [CD7B8C8E]
Copy OK

Track 7

Filename F:\New Folder\07 - Black Crow.wav

Pre-gap length 0:00:02.20

Peak level 98.8 %
Track quality 100.0 %
Test CRC AAB4B5F7
Copy CRC AAB4B5F7
Accurately ripped (confidence 160) [62284BC2]
Copy OK

Track 8

Filename F:\New Folder\08 - Main Vein.wav

Peak level 98.7 %
Track quality 99.9 %
Test CRC B754351A
Copy CRC B754351A
Accurately ripped (confidence 160) [5FCF6244]
Copy OK

Track 9

Filename F:\New Folder\09 - Twenty Zero One.wav

Pre-gap length 0:00:01.13

Peak level 98.8 %
Track quality 100.0 %
Test CRC C8125965
Copy CRC C8125965
Accurately ripped (confidence 161) [EA887744]
Copy OK

Track 10

Filename F:\New Folder\10 - Picture Of My Life.wav

Peak level 98.8 %
Track quality 99.9 %
Test CRC B510D710
Copy CRC B510D710
Accurately ripped (confidence 158) [FCE870DE]
Copy OK


All tracks accurately ripped

No errors occurred

End of status report

foobar2000 1.2 / Dynamic Range Meter 1.1.1
log date: 2015-02-18 21:32:17

––––––––––––––––––––––––––––––––––––––––
Analyzed: Jamiroquai / A Funk Odyssey
––––––––––––––––––––––––––––––––––––––––

DR Peak RMS Duration Track
––––––––––––––––––––––––––––––––––––––––
DR5 -0.10 dB -6.73 dB 5:21 01-Feel So Good
DR6 -0.10 dB -6.83 dB 4:55 02-Little L
DR7 -0.10 dB -8.56 dB 3:23 03-You Give Me Something
DR5 -0.10 dB -7.34 dB 5:40 04-Corner Of The Earth
DR7 -0.11 dB -8.24 dB 3:46 05-Love Foolosophy
DR6 -0.10 dB -6.98 dB 4:34 06-Stop Don't Panic
DR7 -0.10 dB -10.65 dB 4:02 07-Black Crow
DR9 -0.11 dB -9.88 dB 5:05 08-Main Vein
DR6 -0.10 dB -8.11 dB 5:16 09-Twenty Zero One
DR9 -0.10 dB -11.09 dB 6:16 10-Picture Of My Life
––––––––––––––––––––––––––––––––––––––––

Number of tracks: 10
Official DR value: DR7

Samplerate: 44100 Hz
Channels: 2
Bits per sample: 16
Bitrate: 870 kbps
Codec: FLAC
================================================================================

Original releaser – Light33



Jamiroquai - Albums Collection 1993-2010 (8CD)

Jamiroquai - Dynamite (2005)
EAC | FLAC | Tracks (Cue&Log) ~ 407 Mb | Mp3 (CBR320) ~ 143 Mb | Scans included
Label: Sony BMG | # 5201119 | Time: 00:54:58

Not unlike one of its lead singer Jay Kay's much publicized Lamborghinis, the U.K. funk band Jamiroquai is primarily a vehicle for its frontman's various fetishes. Which is another way of saying that Kay loves disco and fancy retro sneakers and he wears both well. He has done so ever since he hippie-danced his way out of the acid jazz ghetto of the early '90s with Jamiroquai's revelatory debut album, Emergency on Planet Earth. That album featured Kay's bright and soulful vocals against '70s-style funk and drew obvious comparisons to Stevie Wonder, Earth, Wind & Fire, and sundry other icons of vintage R&B. Not too much has changed in the years since and 2005's Dynamite finds Kay and Co. delving once again into various '70s- and '80s-inspired dance sounds. Similar to 2001's dazzlingly slick Funk Odyssey, Dynamite reveals Kay as a dancefloor eclectic, inclined to grab as much from Chic and Parliament as Kajagoogoo, the Police, and Terry Callier. Keeping to this grab bag aesthetic, Kay makes the most of his experimentation with some "vocal bass synthetics" on the hard funk title track. Also engaging is the melancholy soul-folk of "Seven Days in Sunny June" and the similarly quiet storm-ready ballad "Talullah." On the funky side of things, "Starchild" finds Kay proclaiming the coming of a disco superman while "Time Won't Wait" is an infectious Off the Wall-era Michael Jackson boogie fest with Kay urging people to make their dreams come true over a bed of pulsating disco beats. The Jamiroquai faithful would accept nothing less.

Review by Matt Collar, Allmusic.com

Tracklist:

01. Feels Just Like It Should (04:34)
02. Dynamite (04:57)
03. Seven Days In Sunny June (03:57)
04. Electric Mistress (03:54)
05. Starchild (05:13)
06. Love Blind (03:33)
07. Talullah (06:06)
08. (Don't) Give Hate A Chance (05:00)
09. World That He Wants (03:12)
10. Black Devil Car (04:47)
11. Hot Tequila Brown (04:38)
12. Time Won't Wait (05:01)


EAC extraction logfile from 30. May 2008, 1:31 for CD
Jamiroquai / Dynamite

Used drive : HL-DT-STDVDRAM GSA-E10L Adapter: 2 ID: 0
Read mode : Secure with NO C2, accurate stream, disable cache
Read offset correction : 667
Overread into Lead-In and Lead-Out : No

Used output format : C:\Programme\FLAC\flac.exe (User Defined Encoder)
128 kBit/s
Additional command line options : -8 -A tukey(0.25) -A gauss(0.1875) -b 4096 -V –sector-align -T "artist=%a" -T "title=%t" -T "album=%g" -T "date=%y" -T "tracknumber=%n" -T "totaltracks=%x" -T "genre=%m" -T "comment=EAC FLAC 1.2.0 -8"

Other options :
Fill up missing offset samples with silence : Yes
Delete leading and trailing silent blocks : No
Native Win32 interface for Win NT & 2000


Track 1
Filename U:\Audio\FLAC4\Jamiroquai (2005) Dynamite {FLAC}\01 - Feels Just Like It Should.wav

Pre-gap length 0:00:02.00

Peak level 100.0 %
Track quality 99.9 %
Test CRC D4079F0C
Copy CRC D4079F0C
Copy OK

Track 2
Filename U:\Audio\FLAC4\Jamiroquai (2005) Dynamite {FLAC}\02 - Dynamite.wav

Pre-gap length 0:00:02.13

Peak level 99.7 %
Track quality 99.9 %
Test CRC 17505C0E
Copy CRC 17505C0E
Copy OK

Track 3
Filename U:\Audio\FLAC4\Jamiroquai (2005) Dynamite {FLAC}\03 - Seven Days In Sunny June.wav

Pre-gap length 0:00:01.60

Peak level 99.7 %
Track quality 100.0 %
Test CRC CEBC05A3
Copy CRC CEBC05A3
Copy OK

Track 4
Filename U:\Audio\FLAC4\Jamiroquai (2005) Dynamite {FLAC}\04 - Electric Mistress.wav

Peak level 99.8 %
Track quality 100.0 %
Test CRC C0C80054
Copy CRC C0C80054
Copy OK

Track 5
Filename U:\Audio\FLAC4\Jamiroquai (2005) Dynamite {FLAC}\05 - Starchild.wav

Peak level 99.8 %
Track quality 100.0 %
Test CRC 5E58AB07
Copy CRC 5E58AB07
Copy OK

Track 6
Filename U:\Audio\FLAC4\Jamiroquai (2005) Dynamite {FLAC}\06 - Love Blind.wav

Pre-gap length 0:00:01.68

Peak level 99.8 %
Track quality 99.9 %
Test CRC 8D704192
Copy CRC 8D704192
Copy OK

Track 7
Filename U:\Audio\FLAC4\Jamiroquai (2005) Dynamite {FLAC}\07 - Talullah.wav

Peak level 99.8 %
Track quality 99.9 %
Test CRC 718A52C2
Copy CRC 718A52C2
Copy OK

Track 8
Filename U:\Audio\FLAC4\Jamiroquai (2005) Dynamite {FLAC}\08 - (Don't) Give Hate A Chance.wav

Pre-gap length 0:00:04.65

Peak level 99.7 %
Track quality 100.0 %
Test CRC F8CDF99C
Copy CRC F8CDF99C
Copy OK

Track 9
Filename U:\Audio\FLAC4\Jamiroquai (2005) Dynamite {FLAC}\09 - World That He Wants.wav

Peak level 99.8 %
Track quality 100.0 %
Test CRC 1E585A3F
Copy CRC 1E585A3F
Copy OK

Track 10
Filename U:\Audio\FLAC4\Jamiroquai (2005) Dynamite {FLAC}\10 - Black Devil Car.wav

Peak level 99.8 %
Track quality 100.0 %
Test CRC 070830FC
Copy CRC 070830FC
Copy OK

Track 11
Filename U:\Audio\FLAC4\Jamiroquai (2005) Dynamite {FLAC}\11 - Hot Tequila Brown.wav

Pre-gap length 0:00:03.37

Peak level 99.8 %
Track quality 100.0 %
Test CRC 79CB5A02
Copy CRC 79CB5A02
Copy OK

Track 12
Filename U:\Audio\FLAC4\Jamiroquai (2005) Dynamite {FLAC}\12 - Time Won't Wait.wav

Pre-gap length 0:00:00.29

Peak level 99.8 %
Track quality 100.0 %
Test CRC B7172553
Copy CRC B7172553
Copy OK

No errors occured


End of status report

foobar2000 1.2 / Dynamic Range Meter 1.1.1
log date: 2015-02-18 21:32:34

––––––––––––––––––––––––––––––––––––––––
Analyzed: Jamiroquai / Dynamite
––––––––––––––––––––––––––––––––––––––––

DR Peak RMS Duration Track
––––––––––––––––––––––––––––––––––––––––
DR6 0.00 dB -7.60 dB 4:35 01-Feels Just Like It Should
DR6 -0.02 dB -7.14 dB 4:57 02-Dynamite
DR6 -0.02 dB -8.26 dB 3:58 03-Seven Days In Sunny June
DR8 -0.01 dB -9.50 dB 3:55 04-Electric Mistress
DR7 -0.01 dB -8.45 dB 5:13 05-Starchild
DR7 -0.01 dB -8.56 dB 3:34 06-Love Blind
DR8 -0.01 dB -9.50 dB 6:07 07-Talullah
DR6 -0.02 dB -7.66 dB 5:00 08-(Don't) Give Hate A Chance
DR11 -0.01 dB -15.43 dB 3:12 09-World That He Wants
DR5 -0.01 dB -7.27 dB 4:47 10-Black Devil Car
DR6 -0.01 dB -8.06 dB 4:39 11-Hot Tequila Brown
DR8 -0.01 dB -9.62 dB 5:02 12-Time Won't Wait
––––––––––––––––––––––––––––––––––––––––

Number of tracks: 12
Official DR value: DR7

Samplerate: 44100 Hz
Channels: 2
Bits per sample: 16
Bitrate: 1007 kbps
Codec: FLAC
================================================================================

Original releaser – glurk



Jamiroquai - Albums Collection 1993-2010 (8CD)

Jamiroquai - High Times: Singles 1992-2006 (2006)
EAC | FLAC | Tracks (Cue&Log) ~ 561 Mb | Mp3 (CBR320) ~ 201 Mb | Scans included
Label: Sony BMG | # 8869701996 | Time: 01:14:38

Collecting most of Jamiroquai's singles since lead singer Jay Kay first donned a large furry buffalo hat for the band's 1992 debut, Emergency on Planet Earth, High Times: Singles 1992-2006 is a superb listen and a great summation of what has made the retro-futurist funk band so successful. Sure, High Times doesn't include every single they released – the fantastic "Light Years" and "You Give Me Something" aren't included – and admittedly it was largely put together to fulfill and finish off Jamiroquai's contract with Sony. Nonetheless, as an encapsulation of what makes Jamiroquai such a phenomenal pop-funk-dance entity, it's an infectiously listenable affair. Running chronologically through the most recognizable singles Kay and company have released, High Times is easily the best collection of Jamiroquai tunes on one disc and hits all of the most memorable tracks off each of the group's albums. Included are such well-known tracks as "Virtual Insanity" (the band's breakthrough single) and "Cosmic Girl," as well as such similarly catchy and funky cuts as the didgeridoo-driven "When You Gonna Learn," the blissed-out "Space Cowboy," and the latter-day would-be disco classic "Little L." Also included are two new recordings, "Runaway" and "Radio," that solidly stand on their own pop merits.

Review by Matt Collar, Allmusic.com

Tracklist:

01. When You Gonna Learn (03:49)
02. Too Young To Die (03:23)
03. Blow Your Mind (03:56)
04. Emergency On Planet Earth (03:37)
05. Space Cowboy (03:37)
06. Virtual Insanity (03:49)
07. Cosmic Girl (03:47)
08. Alright (03:42)
09. High Times (04:10)
10. Deeper Underground (04:46)
11. Canned Heat (03:48)
12. Little L (03:59)
13. Love Foolosophy (03:47)
14. Corner Of The Earth (03:56)
15. Feels Just Like It Should (04:33)
16. Seven Days In Sunny June (04:02)
17. (Don't) Give Hate A Chance (03:50)
18. Runaway (03:46)
19. Radio (04:12)


Exact Audio Copy V0.99 prebeta 4 from 23. January 2008

EAC extraction logfile from 29. May 2008, 12:13

Jamiroquai / High Times - Singles 1992-2006

Used drive : CD-RW CDR-7S52 Adapter: 0 ID: 0

Read mode : Secure
Utilize accurate stream : Yes
Defeat audio cache : Yes
Make use of C2 pointers : No

Read offset correction : 6
Overread into Lead-In and Lead-Out : No
Fill up missing offset samples with silence : Yes
Delete leading and trailing silent blocks : No
Null samples used in CRC calculations : Yes
Used interface : Native Win32 interface for Win NT & 2000
Gap handling : Appended to previous track

Used output format : User Defined Encoder
Selected bitrate : 768 kBit/s
Quality : High
Add ID3 tag : No
Command line compressor : E:\Program Files\Exact Audio Copy\FLAC\FLAC.EXE
Additional command line options : -8 -V -T "ARTIST=%a" -T "TITLE=%t" -T "ALBUM=%g" -T "DATE=%y" -T "TRACKNUMBER=%n" -T "TOTALTRACKS=%x" -T "GENRE=%m" -T "ALBUMARTIST=%v" -T "ALBUM ARTIST=%v" -T "COMMENT=EAC V0.99 prebeta 4, Secure Mode, Test & Copy, Accurat


TOC of the extracted CD

Track | Start | Length | Start sector | End sector
––––––––––––––––––––––––––––-
1 | 0:00.00 | 3:49.34 | 0 | 17208
2 | 3:49.34 | 3:23.66 | 17209 | 32499
3 | 7:13.25 | 3:56.62 | 32500 | 50261
4 | 11:10.12 | 3:37.20 | 50262 | 66556
5 | 14:47.32 | 3:37.74 | 66557 | 82905
6 | 18:25.31 | 3:49.27 | 82906 | 100107
7 | 22:14.58 | 3:47.65 | 100108 | 117197
8 | 26:02.48 | 3:42.00 | 117198 | 133847
9 | 29:44.48 | 4:10.30 | 133848 | 152627
10 | 33:55.03 | 4:46.56 | 152628 | 174133
11 | 38:41.59 | 3:48.03 | 174134 | 191236
12 | 42:29.62 | 3:59.19 | 191237 | 209180
13 | 46:29.06 | 3:47.53 | 209181 | 226258
14 | 50:16.59 | 3:56.42 | 226259 | 244000
15 | 54:13.26 | 4:33.06 | 244001 | 264481
16 | 58:46.32 | 4:02.15 | 264482 | 282646
17 | 62:48.47 | 3:50.73 | 282647 | 299969
18 | 66:39.45 | 3:46.46 | 299970 | 316965
19 | 70:26.16 | 4:12.40 | 316966 | 335905


Track 1

Filename Y:\Pedro\01 - When You Gonna Learn.wav

Pre-gap length 0:00:02.00

Peak level 99.8 %
Track quality 99.9 %
Test CRC B3363F92
Copy CRC B3363F92
Accurately ripped (confidence 34) [BA251692]
Copy OK

Track 2

Filename Y:\Pedro\02 - Too Young To Die.wav

Pre-gap length 0:00:01.26

Peak level 99.8 %
Track quality 99.9 %
Test CRC CC57A653
Copy CRC CC57A653
Accurately ripped (confidence 32) [CD1720E1]
Copy OK

Track 3

Filename Y:\Pedro\03 - Blow Your Mind.wav

Peak level 99.8 %
Track quality 100.0 %
Test CRC C356828E
Copy CRC C356828E
Accurately ripped (confidence 34) [E5FE6880]
Copy OK

Track 4

Filename Y:\Pedro\04 - Emergency On Planet Earth.wav

Pre-gap length 0:00:01.78

Peak level 99.8 %
Track quality 100.0 %
Test CRC 77A2A716
Copy CRC 77A2A716
Accurately ripped (confidence 34) [03FC8A3A]
Copy OK

Track 5

Filename Y:\Pedro\05 - Space Cowboy.wav

Pre-gap length 0:00:01.81

Peak level 99.8 %
Track quality 100.0 %
Test CRC BFD973C1
Copy CRC BFD973C1
Accurately ripped (confidence 33) [DB682A02]
Copy OK

Track 6

Filename Y:\Pedro\06 - Virtual Insanity.wav

Peak level 99.8 %
Track quality 100.0 %
Test CRC 1613A6AD
Copy CRC 1613A6AD
Accurately ripped (confidence 32) [51FAED21]
Copy OK

Track 7

Filename Y:\Pedro\07 - Cosmic Girl.wav

Peak level 99.8 %
Track quality 100.0 %
Test CRC 18EDD459
Copy CRC 18EDD459
Accurately ripped (confidence 32) [7C3E1FF8]
Copy OK

Track 8

Filename Y:\Pedro\08 - Alright.wav

Peak level 99.8 %
Track quality 100.0 %
Test CRC 39DEEFFF
Copy CRC 39DEEFFF
Accurately ripped (confidence 33) [48FE1D18]
Copy OK

Track 9

Filename Y:\Pedro\09 - High Times.wav

Peak level 99.8 %
Track quality 99.9 %
Test CRC 9395F445
Copy CRC 9395F445
Accurately ripped (confidence 33) [A2DBD6E3]
Copy OK

Track 10

Filename Y:\Pedro\10 - Deeper Underground.wav

Pre-gap length 0:00:01.29

Peak level 99.8 %
Track quality 100.0 %
Test CRC 1C5D3BE2
Copy CRC 1C5D3BE2
Accurately ripped (confidence 33) [5D9971C3]
Copy OK

Track 11

Filename Y:\Pedro\11 - Canned Heat.wav

Pre-gap length 0:00:01.80

Peak level 99.8 %
Track quality 100.0 %
Test CRC 2773B215
Copy CRC 2773B215
Accurately ripped (confidence 32) [5E4F042E]
Copy OK

Track 12

Filename Y:\Pedro\12 - Little L.wav

Pre-gap length 0:00:01.82

Peak level 99.8 %
Track quality 100.0 %
Test CRC 696AD3F4
Copy CRC 696AD3F4
Accurately ripped (confidence 33) [860DC322]
Copy OK

Track 13

Filename Y:\Pedro\13 - Love Foolosophy.wav

Pre-gap length 0:00:01.33

Peak level 99.8 %
Track quality 100.0 %
Test CRC 687F11BA
Copy CRC 687F11BA
Accurately ripped (confidence 32) [82783060]
Copy OK

Track 14

Filename Y:\Pedro\14 - Corner Of The Earth.wav

Pre-gap length 0:00:01.81

Peak level 99.8 %
Track quality 100.0 %
Test CRC 8D267E5D
Copy CRC 8D267E5D
Accurately ripped (confidence 30) [2B1FB10E]
Copy OK

Track 15

Filename Y:\Pedro\15 - Feels Just Like It Should.wav

Pre-gap length 0:00:01.80

Peak level 99.8 %
Track quality 100.0 %
Test CRC 226E9DB1
Copy CRC 226E9DB1
Accurately ripped (confidence 32) [20ADC736]
Copy OK

Track 16

Filename Y:\Pedro\16 - Seven Days In Sunny June.wav

Peak level 99.7 %
Track quality 100.0 %
Test CRC 17306EF7
Copy CRC 17306EF7
Accurately ripped (confidence 34) [8C8C4511]
Copy OK

Track 17

Filename Y:\Pedro\17 - (Don't) Give Hate A Chance.wav

Pre-gap length 0:00:01.82

Peak level 99.6 %
Track quality 100.0 %
Test CRC 45DB79CF
Copy CRC 45DB79CF
Accurately ripped (confidence 33) [00D906AB]
Copy OK

Track 18

Filename Y:\Pedro\18 - Runaway.wav

Pre-gap length 0:00:01.80

Peak level 99.8 %
Track quality 100.0 %
Test CRC D8062908
Copy CRC D8062908
Accurately ripped (confidence 33) [8EF72AE7]
Copy OK

Track 19

Filename Y:\Pedro\19 - Radio.wav

Pre-gap length 0:00:01.29

Peak level 99.8 %
Track quality 100.0 %
Test CRC EFA38803
Copy CRC EFA38803
Accurately ripped (confidence 32) [2B0950B2]
Copy OK


All tracks accurately ripped

No errors occurred

End of status report

foobar2000 1.2 / Dynamic Range Meter 1.1.1
log date: 2015-02-18 21:32:57

––––––––––––––––––––––––––––––––––––––––
Analyzed: Jamiroquai / High Times - Singles 1992-2006
––––––––––––––––––––––––––––––––––––––––

DR Peak RMS Duration Track
––––––––––––––––––––––––––––––––––––––––
DR8 -0.01 dB -9.04 dB 3:49 01-When You Gonna Learn
DR6 -0.01 dB -9.12 dB 3:24 02-Too Young To Die
DR8 -0.01 dB -9.63 dB 3:57 03-Blow Your Mind
DR8 -0.01 dB -9.72 dB 3:37 04-Emergency On Planet Earth
DR7 -0.01 dB -8.53 dB 3:38 05-Space Cowboy
DR7 -0.01 dB -9.25 dB 3:49 06-Virtual Insanity
DR7 -0.01 dB -7.97 dB 3:48 07-Cosmic Girl
DR6 -0.01 dB -7.47 dB 3:42 08-Alright
DR6 -0.01 dB -7.28 dB 4:10 09-High Times
DR8 -0.01 dB -9.37 dB 4:47 10-Deeper Underground
DR6 -0.01 dB -7.72 dB 3:48 11-Canned Heat
DR7 -0.01 dB -8.46 dB 3:59 12-Little L
DR7 -0.01 dB -8.31 dB 3:48 13-Love Foolosophy
DR7 -0.01 dB -9.25 dB 3:57 14-Corner Of The Earth
DR6 -0.01 dB -7.55 dB 4:33 15-Feels Just Like It Should
DR6 -0.02 dB -8.31 dB 4:02 16-Seven Days In Sunny June
DR6 -0.03 dB -7.55 dB 3:51 17-(Don't) Give Hate A Chance
DR6 -0.01 dB -7.00 dB 3:47 18-Runaway
DR7 -0.01 dB -8.47 dB 4:13 19-Radio
––––––––––––––––––––––––––––––––––––––––

Number of tracks: 19
Official DR value: DR7

Samplerate: 44100 Hz
Channels: 2
Bits per sample: 16
Bitrate: 1049 kbps
Codec: FLAC
================================================================================

Original releaser – renaultspy



Jamiroquai - Albums Collection 1993-2010 (8CD)

Jamiroquai - Rock Dust Light Star (2010)
EAC | FLAC | Tracks (Cue&Log) ~ 350 Mb | Mp3 (CBR320) ~ 120 Mb | Scans ~ 117 Mb
Label: Mercury | # 2754288 | Time: 00:52:23

Coming a half-decade after 2005's Dynamite, 2010's Rock Dust Light Star finds Jamiroquai and its frontman, Jay Kay, trying to re-ignite the funk machine by heading back to its rock and organic soul roots. In that sense, Rock Dust retains much of the black-light disco power that made such previous singles as "Little L" from 2001's A Funk Odyssey and "Feels Just Like it Should" from Dynamite such dancefloor burners. However, the album is a bit of a grower, with Kay evincing more of an interest in knotty, long-form funk numbers that take their sweet time to reach their inevitable, euphorically funky pop pinnacle. Nonetheless, Kay, having entered his forties, doesn't seem to be letting up on the disco gas – nor the literal kind as the helicopter and Porsche-sploitation video for the funky slick single "White Knuckle Ride" proves. Still, Kay has revealed more of a passion for laid-back, acoustic guitar-driven tracks, and the mid-album ballad "Blue Skies" is perhaps the best one he's ever written. The more booty-minded faithful get a bevy of tracks including the aforementioned "White Knuckle Ride," as well as the Jazz Crusaders-sounding "Smoke and Mirrors" featuring a muscular saxophone solo outro. Elsewhere, Kay delves into the bluesy slow-burn acid rock of "Hurtin'," which takes its time to build to a wicked, soulful climax, and then the oft-headdressed singer goes all '80s robot-disco-funk on the Jaco Pastorius bass-inspired "She's a Fast Persuader." Ultimately, with the album's mix of horns, various percussion instruments, piano, and a general live-in-studio vibe combined with a mature "deep cut" songwriting approach, Rock Dust Light Star does bring to mind the more full-band sound of Jamiroquai's early acid jazz albums and goes a long way toward reestablishing Kay as a uniquely talented and legitimate heir to the '70s funk throne.

Review by Matt Collar, Allmusic.com

Tracklist:

01. Rock Dust Light Star (04:40)
02. White Knuckle Ride (03:35)
03. Smoke and Mirrors (04:31)
04. All Good In The Hood (03:36)
05. Hurtin' (04:17)
06. Blue Skies (03:52)
07. Lifeline (04:40)
08. She's A Fast Persuader (05:17)
09. Two Completely Different Things (04:26)
10. Goodbye To My Dancer (04:07)
11. Never Gonna Be Another (04:08)
12. Hey Floyd (05:09)


Exact Audio Copy V0.99 prebeta 5 from 4. May 2009

EAC extraction logfile from 1. November 2010, 15:59

Jamiroquai / Rock Dust light star

Used drive : HL-DT-STDVDRAM GT30N Adapter: 0 ID: 1

Read mode : Secure
Utilize accurate stream : Yes
Defeat audio cache : Yes
Make use of C2 pointers : No

Read offset correction : 103
Overread into Lead-In and Lead-Out : No
Fill up missing offset samples with silence : Yes
Delete leading and trailing silent blocks : No
Null samples used in CRC calculations : Yes
Used interface : Native Win32 interface for Win NT & 2000
Gap handling : Appended to previous track

Used output format : User Defined Encoder
Selected bitrate : 1024 kBit/s
Quality : High
Add ID3 tag : No
Command line compressor : C:\Program Files (x86)\Exact Audio Copy\FLAC\FLAC.EXE
Additional command line options : -V -8 -T "artist=%a" -T "title=%t" -T "album=%g" -T "date=%y" -T "tracknumber=%n" -T "genre=%m" %s


TOC of the extracted CD

Track | Start | Length | Start sector | End sector
––––––––––––––––––––––––––––-
1 | 0:00.00 | 4:40.54 | 0 | 21053
2 | 4:40.54 | 3:35.15 | 21054 | 37193
3 | 8:15.69 | 4:31.10 | 37194 | 57528
4 | 12:47.04 | 3:36.73 | 57529 | 73801
5 | 16:24.02 | 4:17.56 | 73802 | 93132
6 | 20:41.58 | 3:52.46 | 93133 | 110578
7 | 24:34.29 | 4:40.39 | 110579 | 131617
8 | 29:14.68 | 5:17.40 | 131618 | 155432
9 | 34:32.33 | 4:26.03 | 155433 | 175385
10 | 38:58.36 | 4:07.15 | 175386 | 193925
11 | 43:05.51 | 4:08.26 | 193926 | 212551
12 | 47:14.02 | 5:09.25 | 212552 | 235751


Track 1

Filename C:\My Documents\Rock Dust Light Star\01. Jamiroquai - Rock Dust Light Star.wav

Pre-gap length 0:00:02.00

Peak level 99.9 %
Track quality 100.0 %
Test CRC 7E32CADA
Copy CRC 7E32CADA
Track not present in AccurateRip database
Copy OK

Track 2

Filename C:\My Documents\Rock Dust Light Star\02. Jamiroquai - White Knuckle Ride.wav

Pre-gap length 0:00:00.93

Peak level 99.9 %
Track quality 99.9 %
Test CRC 89CFF01F
Copy CRC 89CFF01F
Track not present in AccurateRip database
Copy OK

Track 3

Filename C:\My Documents\Rock Dust Light Star\03. Jamiroquai - Smoke and Mirrors.wav

Pre-gap length 0:00:01.33

Peak level 99.9 %
Track quality 100.0 %
Test CRC 4A8B60BF
Copy CRC 4A8B60BF
Track not present in AccurateRip database
Copy OK

Track 4

Filename C:\My Documents\Rock Dust Light Star\04. Jamiroquai - All Good In The Hood.wav

Pre-gap length 0:00:01.01

Peak level 99.9 %
Track quality 100.0 %
Test CRC 615E94EF
Copy CRC 615E94EF
Track not present in AccurateRip database
Copy OK

Track 5

Filename C:\My Documents\Rock Dust Light Star\05. Jamiroquai - Hurtin'.wav

Pre-gap length 0:00:01.68

Peak level 100.0 %
Track quality 100.0 %
Test CRC 38B9761B
Copy CRC 38B9761B
Track not present in AccurateRip database
Copy OK

Track 6

Filename C:\My Documents\Rock Dust Light Star\06. Jamiroquai - Blue Skies.wav

Pre-gap length 0:00:01.88

Peak level 99.9 %
Track quality 100.0 %
Test CRC 5E70FDB2
Copy CRC 5E70FDB2
Track not present in AccurateRip database
Copy OK

Track 7

Filename C:\My Documents\Rock Dust Light Star\07. Jamiroquai - Lifeline.wav

Pre-gap length 0:00:00.72

Peak level 99.9 %
Track quality 100.0 %
Test CRC 2097BB57
Copy CRC 2097BB57
Track not present in AccurateRip database
Copy OK

Track 8

Filename C:\My Documents\Rock Dust Light Star\08. Jamiroquai - She's A Fast Persuader.wav

Pre-gap length 0:00:01.00

Peak level 99.9 %
Track quality 100.0 %
Test CRC A8AC8271
Copy CRC A8AC8271
Track not present in AccurateRip database
Copy OK

Track 9

Filename C:\My Documents\Rock Dust Light Star\09. Jamiroquai - Two Completely Different Things.wav

Pre-gap length 0:00:01.14

Peak level 99.9 %
Track quality 100.0 %
Test CRC A169AD78
Copy CRC A169AD78
Track not present in AccurateRip database
Copy OK

Track 10

Filename C:\My Documents\Rock Dust Light Star\10. Jamiroquai - Goodbye To My Dancer.wav

Pre-gap length 0:00:00.84

Peak level 99.9 %
Track quality 100.0 %
Test CRC A17019DB
Copy CRC A17019DB
Track not present in AccurateRip database
Copy OK

Track 11

Filename C:\My Documents\Rock Dust Light Star\11. Jamiroquai - Never Gonna Be Another.wav

Pre-gap length 0:00:00.73

Peak level 100.0 %
Track quality 100.0 %
Test CRC 7E259D9A
Copy CRC 7E259D9A
Track not present in AccurateRip database
Copy OK

Track 12

Filename C:\My Documents\Rock Dust Light Star\12. Jamiroquai - Hey Floyd.wav

Peak level 100.0 %
Track quality 100.0 %
Test CRC 1AC44723
Copy CRC 1AC44723
Track not present in AccurateRip database
Copy OK


None of the tracks are present in the AccurateRip database

No errors occurred

End of status report

foobar2000 1.2 / Dynamic Range Meter 1.1.1
log date: 2015-02-18 21:33:12

––––––––––––––––––––––––––––––––––––––––
Analyzed: Jamiroquai / Rock Dust Light Star
––––––––––––––––––––––––––––––––––––––––

DR Peak RMS Duration Track
––––––––––––––––––––––––––––––––––––––––
DR6 -0.01 dB -7.62 dB 4:41 01-Rock Dust Light Star
DR6 -0.01 dB -7.03 dB 3:35 02-White Knuckle Ride
DR7 -0.01 dB -8.93 dB 4:31 03-Smoke and Mirrors
DR7 -0.01 dB -7.51 dB 3:37 04-All Good In The Hood
DR7 0.00 dB -8.34 dB 4:18 05-Hurtin'
DR7 -0.01 dB -9.38 dB 3:53 06-Blue Skies
DR7 -0.01 dB -8.57 dB 4:41 07-Lifeline
DR6 -0.01 dB -7.86 dB 5:18 08-She's A Fast Persuader
DR7 -0.01 dB -7.85 dB 4:26 09-Two Completely Different Things
DR7 -0.01 dB -8.03 dB 4:07 10-Goodbye To My Dancer
DR7 0.00 dB -8.91 dB 4:08 11-Never Gonna Be Another
DR6 0.00 dB -8.46 dB 5:09 12-Hey Floyd
––––––––––––––––––––––––––––––––––––––––

Number of tracks: 12
Official DR value: DR7

Samplerate: 44100 Hz
Channels: 2
Bits per sample: 16
Bitrate: 872 kbps
Codec: FLAC
================================================================================

Original releaser – smacito




All thanks to original releasers and deepofrain

More interesting music in My Blog