Tags
Language
Tags

Jeroen van Veen - Minimal Piano Collection, Volume XXI-XXVIII (2017) 8CD Box Set

Posted By: Designol
Jeroen van Veen - Minimal Piano Collection, Volume XXI-XXVIII (2017) 8CD Box Set

Jeroen van Veen - Minimal Piano Collection, Volume XXI-XXVIII (2017) 8CD Box Set
Dennis Johnson - Philip Glass - Tom Johnson - Peter Garland
Terry Riley - Harold Budd - Le Monte Young

EAC | FLAC | Image (Cue&Log) ~ 1.44 Gb | Scans included | Time: 09:46:40
Classical, Minimalism | Label: Brilliant Classics | # 95543BR

Who is the true father of Minimalism? When the movement originated in the early 1960s, it sprang up organically – some composers played by the rules (even if they were rules of their own invention), while others experimented freely, unaware or unconcerned about how music 'should' be composed. One of those young mavericks was Dennis Johnson, who has now faded into almost complete obscurity after he gave up his musical ambitions for a career in mathematics. But his 1959 composition November can be considered one of the first, if not the first, properly minimalist work. It later went on to inspire La Monte Young (Johnson's class mate at UCLA) to write his prolific Well-Tuned Piano. Complete recordings are few and far between, and this new recording by Jeroen van Veen is the perfect introduction for anyone looking to get back to the roots of Minimalism.

Jeroen van Veen is one of the Netherlands' most prominent recording artists. This collection of Minimal Piano Music follows two previous successful albums, available on Brilliant Classics (BC8551 and BC9171). The last album provided a snapshot into the extensive scene of minimalist music today; this one takes us back to how it all began. Featuring several famous pieces from the original minimalist canon – including Philip Glass's Music in Contrary Motion and Terry Riley's Keyboard Studies – there are hours of beautifully relaxing and inspiring music here to enjoy.

This 8CD set bring the listener back to the roots of Minimalism, all works were written in the seventies of the 20th century, a time when the new aesthetics and perception of music, sound, repetition and time experience were creating a new chapter in music history. The longest piece is the 5 hour “November” by Dennis Johnson, a work in which the player is free to build the intervals and chords according to his own timing and spacing. The other composers in this set are Philip Glass, Tom Johnson, Peter Garland, Terry Riley, Harold Budd and La Monte Young. Recorded in his own studio by the most important protagonist of Minimalism today, Dutch pianist Jeroen van Veen. Van Veen has a myriad of recordings to his name, notably the multi CD boxes Minimal Piano Collection 1 and 2, complete Satie, Einaudi, Tiersen, Jacob ter Veldhuis, Simeon ten Holt and many more.

Van Veen wrote his own personal and illuminating liner notes for this set.

Jeroen van Veen - Minimal Piano Collection, Volume XXI-XXVIII (2017) 8CD Box Set



Tracklist:

CD1: Dennis Johnson (b. 1938) - November Part 1-6:

01. November - Part 1 (10:01)
02. November - Part 2 (10:00)
03. November - Part 3 (10:00)
04. November - Part 4 (10:00)
05. November - Part 5 (10:00)
06. November - Part 6 (29:54)

CD2: Dennis Johnson - November Part 7-12:

01. November - Part 7 (10:13)
02. November - Part 8 (10:28)
03. November - Part 9 (9:18)
04. November - Part 10 (10:05)
05. November - Part 11 (19:56)
06. November - Part 12 (19:52)

CD3: Dennis Johnson - November Part 13-18:

01. November - Part 13 (10:04)
02. November - Part 14 (10:20)
03. November - Part 15 (9:28)
04. November - Part 16 (10:06)
05. November - Part 17 (20:06)
06. November - Part 18 (19:49)

CD4: Dennis Johnson - November Part 19-24:

01. November - Part 19 (10:01)
02. November - Part 20 (10:31)
03. November - Part 21 (9:39)
04. November - Part 22 (9:40)
05. November - Part 23 (20:11)
06. November - Part 24 (17:07)

CD5: Philip Glass (b. 1937):

01. Two Pages (23:11)
02. Music in Fifths (29:19)
03. Music in Contrary Motion (22:36)

CD6: Tom Johnson (b. 1939)

01. Organ and Silence - Before the Silence (3:38)
02. Organ and Silence - Around the Silence (2:15)
03. Organ and Silence - Within the Silence (4:08)
04. Organ and Silence - Through the Silence (2:41)
05. Organ and Silence - Against the Silence (1:06)
06. Organ and Silence - For the Silence (3:55)
07. Organ and Silence - Toward the Silence (4:05)
08. Organ and Silence - Into the Silence (3:31)
09. Block Design (19:53)
10. Tilework for Piano (5:42)
11. Tango (4:28)

CD7: Peter Garland (b. 1952)

01. A Song (24:07)
02. Nostalgica of the Southern Cross (5:17)
03. The Days Run Away (29:10)
04. Two Persian Miniatures (8:16)
05. The Fall of Quang Tri (3:12)

CD8:

Terry Riley (b. 1935)
01. Keyboard Study No.1 (25:44)
02. Keyboard Study No.2 (33:20)

Harold Budd (b. 1936)
03. Children on the Hill (5:43)

Le Monte Young (b. 1935)
04. Composition 1960 No.7 (4:33)


Exact Audio Copy V1.0 beta 4 from 7. December 2014

EAC extraction logfile from 19. May 2017, 21:37

Jeroen van Veen / Minimal Piano Collection Vol.XXI-XXVIII (CD1)

Used drive : TSSTcorpDVDWBD TS-LB23A Adapter: 1 ID: 0

Read mode : Secure
Utilize accurate stream : Yes
Defeat audio cache : Yes
Make use of C2 pointers : No

Read offset correction : 6
Overread into Lead-In and Lead-Out : No
Fill up missing offset samples with silence : Yes
Delete leading and trailing silent blocks : No
Null samples used in CRC calculations : Yes
Used interface : Native Win32 interface for Win NT & 2000

Used output format : User Defined Encoder
Selected bitrate : 128 kBit/s
Quality : High
Add ID3 tag : Yes
Command line compressor : C:\Program Files (x86)\Exact Audio Copy\Flac\flac.exe
Additional command line options : -T "COMMENT=Ripped by GFox" -V -8 %source%


TOC of the extracted CD

Track | Start | Length | Start sector | End sector
––––––––––––––––––––––––––––-
1 | 0:00.00 | 10:00.70 | 0 | 45069
2 | 10:00.70 | 9:59.71 | 45070 | 90065
3 | 20:00.66 | 9:59.46 | 90066 | 135036
4 | 30:00.37 | 9:59.43 | 135037 | 180004
5 | 40:00.05 | 10:00.35 | 180005 | 225039
6 | 50:00.40 | 29:54.08 | 225040 | 359597


Range status and errors

Selected range

Filename D:\Downloads\Jeroen van Veen - Minimal Piano Collection Vol.XXI-XXVIII (CD1).wav

Peak level 87.4 %
Extraction speed 1.8 X
Range quality 100.0 %
Test CRC F0D7C4E3
Copy CRC F0D7C4E3
Copy OK

No errors occurred


AccurateRip summary

Track 1 not present in database
Track 2 not present in database
Track 3 not present in database
Track 4 not present in database
Track 5 not present in database
Track 6 not present in database

None of the tracks are present in the AccurateRip database

End of status report

==== Log checksum 8266D78E69237987B9ACB64DE3B7632488EA72F42547C09926D2E797C9486590 ====

foobar2000 1.2 / Dynamic Range Meter 1.1.1
log date: 2017-05-20 22:47:34

––––––––––––––––––––––––––––––––––––––––
Analyzed: Jeroen van Veen, piano / Minimal Piano Collection Vol.XXI-XXVIII (CD1)
––––––––––––––––––––––––––––––––––––––––

DR Peak RMS Duration Track
––––––––––––––––––––––––––––––––––––––––
DR14 -5.23 dB -26.54 dB 10:01 01-November - Part 1
DR14 -5.19 dB -24.96 dB 10:00 02-November - Part 2
DR16 -3.35 dB -24.49 dB 10:00 03-November - Part 3
DR17 -1.16 dB -23.95 dB 10:00 04-November - Part 4
DR15 -4.23 dB -31.80 dB 10:00 05-November - Part 5
DR16 -7.61 dB -30.09 dB 29:54 06-November - Part 6
––––––––––––––––––––––––––––––––––––––––

Number of tracks: 6
Official DR value: DR15

Samplerate: 44100 Hz
Channels: 2
Bits per sample: 16
Bitrate: 309 kbps
Codec: FLAC
================================================================================


Exact Audio Copy V1.0 beta 4 from 7. December 2014

EAC extraction logfile from 19. May 2017, 22:55

Jeroen van Veen / Minimal Piano Collection Vol.XXI-XXVIII (CD2)

Used drive : TSSTcorpDVDWBD TS-LB23A Adapter: 1 ID: 0

Read mode : Secure
Utilize accurate stream : Yes
Defeat audio cache : Yes
Make use of C2 pointers : No

Read offset correction : 6
Overread into Lead-In and Lead-Out : No
Fill up missing offset samples with silence : Yes
Delete leading and trailing silent blocks : No
Null samples used in CRC calculations : Yes
Used interface : Native Win32 interface for Win NT & 2000

Used output format : User Defined Encoder
Selected bitrate : 128 kBit/s
Quality : High
Add ID3 tag : Yes
Command line compressor : C:\Program Files (x86)\Exact Audio Copy\Flac\flac.exe
Additional command line options : -T "COMMENT=Ripped by GFox" -V -8 %source%


TOC of the extracted CD

Track | Start | Length | Start sector | End sector
––––––––––––––––––––––––––––-
1 | 0:00.00 | 10:12.42 | 0 | 45941
2 | 10:12.42 | 10:28.22 | 45942 | 93063
3 | 20:40.64 | 9:18.03 | 93064 | 134916
4 | 29:58.67 | 10:05.35 | 134917 | 180326
5 | 40:04.27 | 19:56.17 | 180327 | 270043
6 | 60:00.44 | 19:52.14 | 270044 | 359457


Range status and errors

Selected range

Filename D:\Downloads\Jeroen van Veen - Minimal Piano Collection Vol.XXI-XXVIII (CD2).wav

Peak level 70.8 %
Extraction speed 1.7 X
Range quality 99.9 %
Test CRC 02C51AC2
Copy CRC 02C51AC2
Copy OK

No errors occurred


AccurateRip summary

Track 1 not present in database
Track 2 not present in database
Track 3 not present in database
Track 4 not present in database
Track 5 not present in database
Track 6 not present in database

None of the tracks are present in the AccurateRip database

End of status report

==== Log checksum 29FBCFD6759C38C9C8DBC1D367924093346878B2057EA74F2D5CF198DCE5EFE0 ====

foobar2000 1.2 / Dynamic Range Meter 1.1.1
log date: 2017-05-20 22:47:56

––––––––––––––––––––––––––––––––––––––––
Analyzed: Jeroen van Veen / Minimal Piano Collection Vol.XXI-XXVIII (CD2)
––––––––––––––––––––––––––––––––––––––––

DR Peak RMS Duration Track
––––––––––––––––––––––––––––––––––––––––
DR18 -4.48 dB -31.04 dB 10:13 01-November - Part 7
DR16 -5.18 dB -27.89 dB 10:28 02-November - Part 8
DR16 -7.76 dB -31.46 dB 9:18 03-November - Part 9
DR16 -11.62 dB -33.00 dB 10:05 04-November - Part 10
DR19 -3.00 dB -29.15 dB 19:56 05-November - Part 11
DR18 -3.50 dB -29.54 dB 19:52 06-November - Part 12
––––––––––––––––––––––––––––––––––––––––

Number of tracks: 6
Official DR value: DR17

Samplerate: 44100 Hz
Channels: 2
Bits per sample: 16
Bitrate: 280 kbps
Codec: FLAC
================================================================================


Exact Audio Copy V1.0 beta 4 from 7. December 2014

EAC extraction logfile from 20. May 2017, 9:24

Jeroen van Veen / Minimal Piano Collection Vol.XXI-XXVIII (CD3)

Used drive : TSSTcorpDVDWBD TS-LB23A Adapter: 1 ID: 0

Read mode : Secure
Utilize accurate stream : Yes
Defeat audio cache : Yes
Make use of C2 pointers : No

Read offset correction : 6
Overread into Lead-In and Lead-Out : No
Fill up missing offset samples with silence : Yes
Delete leading and trailing silent blocks : No
Null samples used in CRC calculations : Yes
Used interface : Native Win32 interface for Win NT & 2000

Used output format : User Defined Encoder
Selected bitrate : 128 kBit/s
Quality : High
Add ID3 tag : Yes
Command line compressor : C:\Program Files (x86)\Exact Audio Copy\Flac\flac.exe
Additional command line options : -T "COMMENT=Ripped by GFox" -V -8 %source%


TOC of the extracted CD

Track | Start | Length | Start sector | End sector
––––––––––––––––––––––––––––-
1 | 0:00.00 | 10:03.66 | 0 | 45290
2 | 10:03.66 | 10:19.40 | 45291 | 91755
3 | 20:23.31 | 9:28.33 | 91756 | 134388
4 | 29:51.64 | 10:05.64 | 134389 | 179827
5 | 39:57.53 | 20:06.37 | 179828 | 270314
6 | 60:04.15 | 19:48.71 | 270315 | 359485


Range status and errors

Selected range

Filename D:\Downloads\Jeroen van Veen - Minimal Piano Collection Vol.XXI-XXVIII (CD3).wav

Peak level 48.9 %
Extraction speed 2.0 X
Range quality 100.0 %
Test CRC 69EA65A8
Copy CRC 69EA65A8
Copy OK

No errors occurred


AccurateRip summary

Track 1 not present in database
Track 2 not present in database
Track 3 not present in database
Track 4 not present in database
Track 5 not present in database
Track 6 not present in database

None of the tracks are present in the AccurateRip database

End of status report

==== Log checksum 3F08A282ABAA2F0B005C70107B13F154EE2F7390D89D0BE8675E530B16B0D2B1 ====

foobar2000 1.2 / Dynamic Range Meter 1.1.1
log date: 2017-05-20 22:48:18

––––––––––––––––––––––––––––––––––––––––
Analyzed: Jeroen van Veen / Minimal Piano Collection Vol.XXI-XXVIII (CD3)
––––––––––––––––––––––––––––––––––––––––

DR Peak RMS Duration Track
––––––––––––––––––––––––––––––––––––––––
DR15 -6.94 dB -31.20 dB 10:04 01-November - Part 13
DR16 -7.38 dB -30.28 dB 10:20 02-November - Part 14
DR15 -6.77 dB -28.32 dB 9:28 03-November - Part 15
DR13 -10.59 dB -30.67 dB 10:06 04-November - Part 16
DR16 -7.56 dB -29.99 dB 20:06 05-November - Part 17
DR16 -6.21 dB -29.64 dB 19:49 06-November - Part 18
––––––––––––––––––––––––––––––––––––––––

Number of tracks: 6
Official DR value: DR15

Samplerate: 44100 Hz
Channels: 2
Bits per sample: 16
Bitrate: 281 kbps
Codec: FLAC
================================================================================


Exact Audio Copy V1.0 beta 4 from 7. December 2014

EAC extraction logfile from 20. May 2017, 10:33

Jeroen van Veen / Minimal Piano Collection Vol.XXI-XXVIII (CD4)

Used drive : TSSTcorpDVDWBD TS-LB23A Adapter: 1 ID: 0

Read mode : Secure
Utilize accurate stream : Yes
Defeat audio cache : Yes
Make use of C2 pointers : No

Read offset correction : 6
Overread into Lead-In and Lead-Out : No
Fill up missing offset samples with silence : Yes
Delete leading and trailing silent blocks : No
Null samples used in CRC calculations : Yes
Used interface : Native Win32 interface for Win NT & 2000

Used output format : User Defined Encoder
Selected bitrate : 128 kBit/s
Quality : High
Add ID3 tag : Yes
Command line compressor : C:\Program Files (x86)\Exact Audio Copy\Flac\flac.exe
Additional command line options : -T "COMMENT=Ripped by GFox" -V -8 %source%


TOC of the extracted CD

Track | Start | Length | Start sector | End sector
––––––––––––––––––––––––––––-
1 | 0:00.00 | 10:00.54 | 0 | 45053
2 | 10:00.54 | 10:31.32 | 45054 | 92410
3 | 20:32.11 | 9:38.68 | 92411 | 135828
4 | 30:11.04 | 9:39.70 | 135829 | 179323
5 | 39:50.74 | 20:10.39 | 179324 | 270112
6 | 60:01.38 | 17:06.59 | 270113 | 347121


Range status and errors

Selected range

Filename D:\Downloads\Jeroen van Veen - Minimal Piano Collection Vol.XXI-XXVIII (CD4).wav

Peak level 96.8 %
Extraction speed 1.9 X
Range quality 100.0 %
Test CRC DBC40A35
Copy CRC DBC40A35
Copy OK

No errors occurred


AccurateRip summary

Track 1 not present in database
Track 2 not present in database
Track 3 not present in database
Track 4 not present in database
Track 5 not present in database
Track 6 not present in database

None of the tracks are present in the AccurateRip database

End of status report

==== Log checksum 2356797320D68BDF93213B5CAE51331AE2D079EC15A66FF6F70FADA5656BAE9B ====

foobar2000 1.2 / Dynamic Range Meter 1.1.1
log date: 2017-05-20 22:48:42

––––––––––––––––––––––––––––––––––––––––
Analyzed: Jeroen van Veen / Minimal Piano Collection Vol.XXI-XXVIII (CD4)
––––––––––––––––––––––––––––––––––––––––

DR Peak RMS Duration Track
––––––––––––––––––––––––––––––––––––––––
DR15 -3.35 dB -24.19 dB 10:01 01-November - Part 19
DR14 -3.46 dB -23.32 dB 10:31 02-November - Part 20
DR14 -1.01 dB -23.18 dB 9:39 03-November - Part 21
DR14 -0.28 dB -23.18 dB 9:40 04-November - Part 22
DR17 -3.40 dB -26.24 dB 20:11 05-November - Part 23
DR19 -3.85 dB -29.34 dB 17:07 06-November - Part 24
––––––––––––––––––––––––––––––––––––––––

Number of tracks: 6
Official DR value: DR15

Samplerate: 44100 Hz
Channels: 2
Bits per sample: 16
Bitrate: 320 kbps
Codec: FLAC
================================================================================


Exact Audio Copy V1.0 beta 4 from 7. December 2014

EAC extraction logfile from 20. May 2017, 11:53

Jeroen van Veen / Minimal Piano Collection Vol.XXI-XXVIII (CD5)

Used drive : TSSTcorpDVDWBD TS-LB23A Adapter: 1 ID: 0

Read mode : Secure
Utilize accurate stream : Yes
Defeat audio cache : Yes
Make use of C2 pointers : No

Read offset correction : 6
Overread into Lead-In and Lead-Out : No
Fill up missing offset samples with silence : Yes
Delete leading and trailing silent blocks : No
Null samples used in CRC calculations : Yes
Used interface : Native Win32 interface for Win NT & 2000

Used output format : User Defined Encoder
Selected bitrate : 128 kBit/s
Quality : High
Add ID3 tag : Yes
Command line compressor : C:\Program Files (x86)\Exact Audio Copy\Flac\flac.exe
Additional command line options : -T "COMMENT=Ripped by GFox" -V -8 %source%


TOC of the extracted CD

Track | Start | Length | Start sector | End sector
––––––––––––––––––––––––––––-
1 | 0:00.00 | 23:10.43 | 0 | 104292
2 | 23:10.43 | 29:19.07 | 104293 | 236224
3 | 52:29.50 | 22:36.17 | 236225 | 337941


Range status and errors

Selected range

Filename D:\Downloads\Jeroen van Veen - Minimal Piano Collection Vol.XXI-XXVIII (CD5).wav

Peak level 76.7 %
Extraction speed 1.7 X
Range quality 99.9 %
Test CRC 19A65127
Copy CRC 19A65127
Copy OK

No errors occurred


AccurateRip summary

Track 1 not present in database
Track 2 not present in database
Track 3 not present in database

None of the tracks are present in the AccurateRip database

End of status report

==== Log checksum 73FFA940DE7EF0972C3A79A22B0433B3C4FFC8F0A724E6D41FA13F0FBF4BB362 ====

foobar2000 1.2 / Dynamic Range Meter 1.1.1
log date: 2017-05-20 22:49:07

––––––––––––––––––––––––––––––––––––––––
Analyzed: Jeroen van Veen / Minimal Piano Collection Vol.XXI-XXVIII (CD5)
––––––––––––––––––––––––––––––––––––––––

DR Peak RMS Duration Track
––––––––––––––––––––––––––––––––––––––––
DR11 -2.30 dB -15.00 dB 23:11 01-Two Pages
DR11 -2.30 dB -14.21 dB 29:19 02-Music in Fifths
DR12 -2.31 dB -15.75 dB 22:36 03-Music in Contrary Motion
––––––––––––––––––––––––––––––––––––––––

Number of tracks: 3
Official DR value: DR11

Samplerate: 44100 Hz
Channels: 2
Bits per sample: 16
Bitrate: 553 kbps
Codec: FLAC
================================================================================


Exact Audio Copy V1.0 beta 4 from 7. December 2014

EAC extraction logfile from 20. May 2017, 12:54

Jeroen van Veen / Minimal Piano Collection Vol.XXI-XXVIII (CD6)

Used drive : TSSTcorpDVDWBD TS-LB23A Adapter: 1 ID: 0

Read mode : Secure
Utilize accurate stream : Yes
Defeat audio cache : Yes
Make use of C2 pointers : No

Read offset correction : 6
Overread into Lead-In and Lead-Out : No
Fill up missing offset samples with silence : Yes
Delete leading and trailing silent blocks : No
Null samples used in CRC calculations : Yes
Used interface : Native Win32 interface for Win NT & 2000

Used output format : User Defined Encoder
Selected bitrate : 128 kBit/s
Quality : High
Add ID3 tag : Yes
Command line compressor : C:\Program Files (x86)\Exact Audio Copy\Flac\flac.exe
Additional command line options : -T "COMMENT=Ripped by GFox" -V -8 %source%


TOC of the extracted CD

Track | Start | Length | Start sector | End sector
––––––––––––––––––––––––––––-
1 | 0:00.00 | 3:38.22 | 0 | 16371
2 | 3:38.22 | 2:15.08 | 16372 | 26504
3 | 5:53.30 | 4:08.34 | 26505 | 45138
4 | 10:01.64 | 2:41.27 | 45139 | 57240
5 | 12:43.16 | 1:05.72 | 57241 | 62187
6 | 13:49.13 | 3:55.20 | 62188 | 79832
7 | 17:44.33 | 4:04.49 | 79833 | 98181
8 | 21:49.07 | 3:30.48 | 98182 | 113979
9 | 25:19.55 | 19:53.07 | 113980 | 203461
10 | 45:12.62 | 5:42.00 | 203462 | 229111
11 | 50:54.62 | 4:27.57 | 229112 | 249193


Range status and errors

Selected range

Filename D:\Downloads\Jeroen van Veen - Minimal Piano Collection Vol.XXI-XXVIII (CD6).wav

Peak level 76.9 %
Extraction speed 1.6 X
Range quality 100.0 %
Test CRC 222380F6
Copy CRC 222380F6
Copy OK

No errors occurred


AccurateRip summary

Track 1 not present in database
Track 2 not present in database
Track 3 not present in database
Track 4 not present in database
Track 5 not present in database
Track 6 not present in database
Track 7 not present in database
Track 8 not present in database
Track 9 not present in database
Track 10 not present in database
Track 11 not present in database

None of the tracks are present in the AccurateRip database

End of status report

==== Log checksum 46EC1F80FCE57016C9B9336DA7C84323D13807A196DBCA2161DEC35205A17416 ====

foobar2000 1.2 / Dynamic Range Meter 1.1.1
log date: 2017-05-20 22:49:22

––––––––––––––––––––––––––––––––––––––––
Analyzed: Jeroen van Veen / Minimal Piano Collection Vol.XXI-XXVIII (CD6)
––––––––––––––––––––––––––––––––––––––––

DR Peak RMS Duration Track
––––––––––––––––––––––––––––––––––––––––
DR20 -8.55 dB -35.92 dB 3:38 01-Organ and Silence - Before the Silence
DR14 -3.77 dB -22.44 dB 2:15 02-Organ and Silence - Around the Silence
DR16 -8.76 dB -30.15 dB 4:08 03-Organ and Silence - Within the Silence
DR14 -3.53 dB -24.55 dB 2:41 04-Organ and Silence - Through the Silence
DR13 -4.48 dB -20.79 dB 1:06 05-Organ and Silence - Against the Silence
DR16 -18.74 dB -41.16 dB 3:55 06-Organ and Silence - For the Silence
DR14 -2.28 dB -21.92 dB 4:05 07-Organ and Silence - Toward the Silence
DR13 -14.24 dB -36.66 dB 3:31 08-Organ and Silence - Into the Silence
DR15 -5.93 dB -24.60 dB 19:53 09-Block Design
DR13 -4.12 dB -20.22 dB 5:42 10-Tilework for Piano
DR12 -4.91 dB -20.15 dB 4:28 11-Tango
––––––––––––––––––––––––––––––––––––––––

Number of tracks: 11
Official DR value: DR14

Samplerate: 44100 Hz
Channels: 2
Bits per sample: 16
Bitrate: 257 kbps
Codec: FLAC
================================================================================


Exact Audio Copy V1.0 beta 4 from 7. December 2014

EAC extraction logfile from 20. May 2017, 14:05

Jeroen van Veen / Minimal Piano Collection Vol.XXI-XXVIII (CD7)

Used drive : TSSTcorpDVDWBD TS-LB23A Adapter: 1 ID: 0

Read mode : Secure
Utilize accurate stream : Yes
Defeat audio cache : Yes
Make use of C2 pointers : No

Read offset correction : 6
Overread into Lead-In and Lead-Out : No
Fill up missing offset samples with silence : Yes
Delete leading and trailing silent blocks : No
Null samples used in CRC calculations : Yes
Used interface : Native Win32 interface for Win NT & 2000

Used output format : User Defined Encoder
Selected bitrate : 128 kBit/s
Quality : High
Add ID3 tag : Yes
Command line compressor : C:\Program Files (x86)\Exact Audio Copy\Flac\flac.exe
Additional command line options : -T "COMMENT=Ripped by GFox" -V -8 %source%


TOC of the extracted CD

Track | Start | Length | Start sector | End sector
––––––––––––––––––––––––––––-
1 | 0:00.00 | 24:07.00 | 0 | 108524
2 | 24:07.00 | 5:17.33 | 108525 | 132332
3 | 29:24.33 | 29:09.73 | 132333 | 263580
4 | 58:34.31 | 8:15.55 | 263581 | 300760
5 | 66:50.11 | 3:11.56 | 300761 | 315141


Range status and errors

Selected range

Filename D:\Downloads\Jeroen van Veen - Minimal Piano Collection Vol.XXI-XXVIII (CD7).wav

Peak level 75.3 %
Extraction speed 1.8 X
Range quality 100.0 %
Test CRC 6B456B94
Copy CRC 6B456B94
Copy OK

No errors occurred


AccurateRip summary

Track 1 not present in database
Track 2 not present in database
Track 3 not present in database
Track 4 not present in database
Track 5 not present in database

None of the tracks are present in the AccurateRip database

End of status report

==== Log checksum D82BFA737D0FDCC85F863D7C5AA78DD0FA6673E7534E8DD39B19D1DD4526FD1C ====

foobar2000 1.2 / Dynamic Range Meter 1.1.1
log date: 2017-05-20 22:49:43

––––––––––––––––––––––––––––––––––––––––
Analyzed: Jeroen van Veen / Minimal Piano Collection Vol.XXI-XXVIII (CD7)
––––––––––––––––––––––––––––––––––––––––

DR Peak RMS Duration Track
––––––––––––––––––––––––––––––––––––––––
DR14 -3.82 dB -22.52 dB 24:07 01-A Song
DR13 -3.49 dB -23.58 dB 5:17 02-Nostalgica of the Southern Cross
DR15 -4.02 dB -23.34 dB 29:10 03-The Days Run Away
DR18 -2.74 dB -28.47 dB 8:16 04-Two Persian Miniatures
DR8 -2.45 dB -15.80 dB 3:12 05-The Fall of Quang Tri
––––––––––––––––––––––––––––––––––––––––

Number of tracks: 5
Official DR value: DR14

Samplerate: 44100 Hz
Channels: 2
Bits per sample: 16
Bitrate: 292 kbps
Codec: FLAC
================================================================================


Exact Audio Copy V1.0 beta 4 from 7. December 2014

EAC extraction logfile from 20. May 2017, 15:20

Jeroen van Veen / Minimal Piano Collection Vol.XXI-XXVIII (CD8)

Used drive : TSSTcorpDVDWBD TS-LB23A Adapter: 1 ID: 0

Read mode : Secure
Utilize accurate stream : Yes
Defeat audio cache : Yes
Make use of C2 pointers : No

Read offset correction : 6
Overread into Lead-In and Lead-Out : No
Fill up missing offset samples with silence : Yes
Delete leading and trailing silent blocks : No
Null samples used in CRC calculations : Yes
Used interface : Native Win32 interface for Win NT & 2000

Used output format : User Defined Encoder
Selected bitrate : 128 kBit/s
Quality : High
Add ID3 tag : Yes
Command line compressor : C:\Program Files (x86)\Exact Audio Copy\Flac\flac.exe
Additional command line options : -T "COMMENT=Ripped by GFox" -V -8 %source%


TOC of the extracted CD

Track | Start | Length | Start sector | End sector
––––––––––––––––––––––––––––-
1 | 0:00.00 | 25:44.34 | 0 | 115833
2 | 25:44.34 | 33:20.12 | 115834 | 265845
3 | 59:04.46 | 5:43.20 | 265846 | 291590
4 | 64:47.66 | 4:33.12 | 291591 | 312077


Range status and errors

Selected range

Filename D:\Downloads\Jeroen van Veen - Minimal Piano Collection Vol.XXI-XXVIII (CD8).wav

Peak level 97.6 %
Extraction speed 1.6 X
Range quality 100.0 %
Test CRC 8F4FCDAD
Copy CRC 8F4FCDAD
Copy OK

No errors occurred


AccurateRip summary

Track 1 not present in database
Track 2 not present in database
Track 3 not present in database
Track 4 not present in database

None of the tracks are present in the AccurateRip database

End of status report

==== Log checksum AD84733993C6499EB7132F0B1F1340568132C64A62F13D1D7ABA66FE456115EC ====

foobar2000 1.2 / Dynamic Range Meter 1.1.1
log date: 2017-05-20 22:50:05

––––––––––––––––––––––––––––––––––––––––
Analyzed: Jeroen van Veen / Minimal Piano Collection Vol.XXI-XXVIII (CD8)
––––––––––––––––––––––––––––––––––––––––

DR Peak RMS Duration Track
––––––––––––––––––––––––––––––––––––––––
DR15 -0.21 dB -18.71 dB 25:44 01-Riley - Keyboard Study No.1
DR11 -0.28 dB -14.43 dB 33:20 02-Riley - Keyboard Study No.2
DR11 -6.61 dB -22.28 dB 5:43 03-Budd - Children on the Hill
DR11 -0.78 dB -29.26 dB 4:33 04-Young - Composition 1960 No.7
––––––––––––––––––––––––––––––––––––––––

Number of tracks: 4
Official DR value: DR12

Samplerate: 44100 Hz
Channels: 2
Bits per sample: 16
Bitrate: 405 kbps
Codec: FLAC
================================================================================

Jeroen van Veen - Minimal Piano Collection, Volume XXI-XXVIII (2017) 8CD Box Set