Tags
Language
Tags
February 2023
Su Mo Tu We Th Fr Sa
29 30 31 1 2 3 4
5 6 7 8 9 10 11
12 13 14 15 16 17 18
19 20 21 22 23 24 25
26 27 28 1 2 3 4

Jethro Tull - Stockholm 1969: The Master Reel (2014) {Japanese Edition}

Posted By: popsakov
Jethro Tull - Stockholm 1969: The Master Reel (2014) {Japanese Edition}

Jethro Tull - Stockholm 1969: The Master Reel (2014) {Japanese Edition}
EAC Rip | FLAC (Img) + Cue + Log ~ 256 Mb | MP3 CBR320 ~ 161 Mb
Covers Included | 01:05:05 | RAR 5% Recovery
Progressive Rock | Tachika Records #JTTLCD-318 | Bootleg

This outstanding live soundboard recording of JETHRO TULL - STOCKHOLM ’69 THE MASTER REEL CD 1969 is from January 09, 1969. It was recorded at the Konserthuset in Stockholm, Sweden. Japanese pressing silver CD-R that comes packaged in a Mini-LP sleeve.
***************

Jethro Tull - Stockholm 1969: The Master Reel (2014) {Japanese Edition}

Track List:

01. My Sunday Feeling [0:06:21.32]
02. Martin's Tune [0:14:01.43]
03. To Be Sad Is A Mad Way To Be [0:04:10.15]
04. Back To The Family [0:05:15.71]
05. Dharma For One [0:14:50.47]
06. Nothing Is Easy [0:16:52.22]
07. A Song For Jeffrey [0:03:33.11]

Personnel:
Bass Guitar - Glenn Cornick
Drums - Clive Bunker
Guitar - Martin Barre
Vocals, Flute - Ian Anderson

Exact Audio Copy V1.3 from 2. September 2016

EAC extraction logfile from 17. December 2019, 19:34

Jethro Tull / Stockholm 1969 - The Master Reel [JTTLCD-318]

Used drive : HL-DT-STBD-RE BH10LS38 Adapter: 1 ID: 0

Read mode : Secure
Utilize accurate stream : Yes
Defeat audio cache : Yes
Make use of C2 pointers : No

Read offset correction : 667
Overread into Lead-In and Lead-Out : No
Fill up missing offset samples with silence : Yes
Delete leading and trailing silent blocks : No
Null samples used in CRC calculations : Yes
Used interface : Native Win32 interface for Win NT & 2000

Used output format : User Defined Encoder
Selected bitrate : 128 kBit/s
Quality : High
Add ID3 tag : No
Command line compressor : C:\Program Files (x86)\Exact Audio Copy\Flac\flac.exe
Additional command line options : -V -8 -T "Date=%year%" -T "Genre=%genre%" %source%


TOC of the extracted CD

Track | Start | Length | Start sector | End sector
––––––––––––––––––––––––––––-
1 | 0:00.00 | 6:21.32 | 0 | 28606
2 | 6:21.32 | 14:01.43 | 28607 | 91724
3 | 20:23.00 | 4:10.15 | 91725 | 110489
4 | 24:33.15 | 5:15.71 | 110490 | 134185
5 | 29:49.11 | 14:50.47 | 134186 | 200982
6 | 44:39.58 | 16:52.22 | 200983 | 276904
7 | 61:32.05 | 3:33.11 | 276905 | 292890


Range status and errors

Selected range

Filename D:\Rips by Alder\Jethro Tull - Stockholm 1969 - The Master Reel [JTTLCD-318].wav

Peak level 100.0 %
Extraction speed 7.8 X
Range quality 100.0 %
Test CRC 21F4E95D
Copy CRC 21F4E95D
Copy OK

No errors occurred


AccurateRip summary

Track 1 not present in database
Track 2 not present in database
Track 3 not present in database
Track 4 not present in database
Track 5 not present in database
Track 6 not present in database
Track 7 not present in database

None of the tracks are present in the AccurateRip database

End of status report

–– CUETools DB Plugin V2.1.6

[CTDB TOCID: jmfaoFQ4FuoEnEEXVNObIvA0hQk-] disk not present in database
Submit result: jmfaoFQ4FuoEnEEXVNObIvA0hQk- has been uploaded


==== Log checksum E987DC5841D27BB0F1AB3DBAC18DAFE5B6A9DFD44BDD6872C01F33BCB95F1464 ====

[CUETools log; Date: 24.01.2020 21:25:10; Version: 2.1.6]
[CTDB TOCID: jmfaoFQ4FuoEnEEXVNObIvA0hQk-] found.
Track | CTDB Status
1 | (1/1) Accurately ripped
2 | (1/1) Accurately ripped
3 | (1/1) Accurately ripped
4 | (1/1) Accurately ripped
5 | (1/1) Accurately ripped
6 | (1/1) Accurately ripped
7 | (1/1) Accurately ripped
[AccurateRip ID: 001154ab-0069c8a1-640f4107] disk not present in database.

Track Peak [ CRC32 ] [W/O NULL] [ LOG ]
– 100,0 [21F4E95D] [2697C0DB] CRC32
01 100,0 [0588FA89] [C3A9CED3]
02 98,5 [CB958ACA] [D31EA02B]
03 96,3 [D6960492] [BFB127BB]
04 90,9 [3D984C71] [F0BDD4CC]
05 100,0 [40EEE9FB] [2B823741]
06 100,0 [C37FE703] [D1CA99F7]
07 100,0 [57063706] [88FF38A4]

All thanks go to Alder

>>> Jethro Tull in my Blog <<<

DOWNLOAD: