Tags
Language
Tags

John Barry - The Quiller Memorandum: Original Motion Picture Soundtrack (1966) Reissue 2012

Posted By: Efgrapha
John Barry - The Quiller Memorandum: Original Motion Picture Soundtrack (1966) Reissue 2012

John Barry - The Quiller Memorandum: Original Motion Picture Soundtrack (1966) Reissue 2012
EAC | FLAC (Image) + cue.+log ~ 201 Mb | Scans included
Soundtrack, Score | Label: Intrada | # ISC 201 | 00:35:12

Cool, classic John Barry soundtrack for superb Michael Anderson spy thriller starring George Segal, Alec Guinness, Max Von Sydow, Senta Berger. Music first appears on LP from Columbia label in 1966. Inspired by fresh script from Harold Pinter, drawn from Adam Hall best seller, Barry avoids James Bond style of spy music, nods instead towards atmospheric West Germany locale, bleak theme of rising neo-Nazi movement. For the record, composer produces perfect album offering majority of his score in vivid stereo sound. Haunting main waltz-theme "Wednesday's Child" anchors, suspenseful cues play in contrast. Album also features Matt Monro in vocal version of theme. Intrada CD features album program in stereo from Columbia master tapes, courtesy Sony. For album fans, original artwork features on one side of booklet, all new artwork features on other side. Take your pick! John Barry conducts.

John Barry - The Quiller Memorandum: Original Motion Picture Soundtrack (1966) Reissue 2012


~ John Barry at Allmusic
~ John Barry at Wiki

~ Film at IMDB
~ Film at Wiki

Tracklist:

01. Wednesday's Child - Main Theme (02:13)
02. Quiller Caught - The Fight (02:51)
03. The Barrel Organ (02:40)
04. Oktober - Walk From The River (03:49)
05. Downtown (02:21)
06. Main Title Theme (02:05)
07. Wednesday's Child (02:38) performed by Matt Monro
08. The Love Scene - The Old House (03:52)
09. Autobahn March (02:46)
10. He Knows The Way Out! (02:19)
11. Night Walk In Berlin (03:05)
12. Quiller And The Bomb (02:35)
13. Have You Heard Of A Man Called Jones? - End Theme (01:51)


Exact Audio Copy V1.0 beta 3 from 29. August 2011

EAC extraction logfile from 16. March 2013, 12:00

John Barry / The Quiller Memorandum

Used drive : TSSTcorpCDDVDW SH-S202H Adapter: 0 ID: 0

Read mode : Secure
Utilize accurate stream : Yes
Defeat audio cache : Yes
Make use of C2 pointers : No

Read offset correction : 6
Overread into Lead-In and Lead-Out : No
Fill up missing offset samples with silence : Yes
Delete leading and trailing silent blocks : No
Null samples used in CRC calculations : Yes
Used interface : Native Win32 interface for Win NT & 2000

Used output format : Internal WAV Routines
Sample format : 44.100 Hz; 16 Bit; Stereo


TOC of the extracted CD

Track | Start | Length | Start sector | End sector
––––––––––––––––––––––––––––-
1 | 0:00.29 | 2:13.65 | 29 | 10068
2 | 2:14.19 | 2:51.66 | 10069 | 22959
3 | 5:06.10 | 2:40.24 | 22960 | 34983
4 | 7:46.34 | 3:49.23 | 34984 | 52181
5 | 11:35.57 | 2:21.34 | 52182 | 62790
6 | 13:57.16 | 2:05.00 | 62791 | 72165
7 | 16:02.16 | 2:38.65 | 72166 | 84080
8 | 18:41.06 | 3:52.31 | 84081 | 101511
9 | 22:33.37 | 2:46.26 | 101512 | 113987
10 | 25:19.63 | 2:19.74 | 113988 | 124486
11 | 27:39.62 | 3:05.24 | 124487 | 138385
12 | 30:45.11 | 2:35.71 | 138386 | 150081
13 | 33:21.07 | 1:51.70 | 150082 | 158476


Range status and errors

Selected range

Filename D:\John Barry - The Quiller Memorandum\John Barry - The Quiller Memorandum.wav

Peak level 92.5 %
Extraction speed 2.9 X
Range quality 100.0 %
Test CRC 66382B5D
Copy CRC 66382B5D
Copy OK

No errors occurred


AccurateRip summary

Track 1 accurately ripped (confidence 2) [EEA2B4A6] (AR v1)
Track 2 accurately ripped (confidence 2) [60726D43] (AR v1)
Track 3 accurately ripped (confidence 2) [36E5DBAD] (AR v1)
Track 4 accurately ripped (confidence 2) [CD601E9D] (AR v1)
Track 5 accurately ripped (confidence 2) [13009CE9] (AR v1)
Track 6 accurately ripped (confidence 2) [21418CFE] (AR v1)
Track 7 accurately ripped (confidence 2) [1C17BA24] (AR v1)
Track 8 accurately ripped (confidence 2) [E7959CDE] (AR v1)
Track 9 accurately ripped (confidence 2) [F91954B8] (AR v1)
Track 10 accurately ripped (confidence 2) [46196CA0] (AR v1)
Track 11 accurately ripped (confidence 2) [C5C07BA1] (AR v1)
Track 12 accurately ripped (confidence 2) [21B04E52] (AR v1)
Track 13 accurately ripped (confidence 2) [AF371FC8] (AR v1)

All tracks accurately ripped

End of status report

==== Log checksum A3B2A03486252C82F94658D08B840F6B1D4A3E161AA647761B89AB0C82B42AD5 ====

foobar2000 1.2 / Dynamic Range Meter 1.1.1
log date: 2016-03-18 17:08:55

––––––––––––––––––––––––––––––––––––––––
Analyzed: John Barry / The Quiller Memorandum
––––––––––––––––––––––––––––––––––––––––

DR Peak RMS Duration Track
––––––––––––––––––––––––––––––––––––––––
DR9 -3.01 dB -15.03 dB 2:14 01-Wednesday's Child - Main Theme
DR9 -1.63 dB -15.30 dB 2:52 02-Quiller Caught - The Fight
DR11 -2.84 dB -17.21 dB 2:40 03-The Barrel Organ
DR9 -1.00 dB -16.05 dB 3:49 04-Oktober - Walk From The River
DR9 -3.45 dB -17.25 dB 2:05 06-Main Title Theme
DR10 -5.10 dB -20.04 dB 3:52 08-The Love Scene - The Old House
DR11 -0.67 dB -14.37 dB 2:46 09-Autobahn March
DR10 -2.22 dB -16.47 dB 2:20 10-He Knows The Way Out!
DR10 -2.91 dB -17.83 dB 3:05 11-Night Walk In Berlin
DR10 -2.52 dB -17.79 dB 2:36 12-Quiller And The Bomb
DR9 -3.69 dB -18.26 dB 1:52 13-Have You Heard Of A Man Called Jones? - End Theme
––––––––––––––––––––––––––––––––––––––––

Number of tracks: 11
Official DR value: DR10

Samplerate: 44100 Hz
Channels: 2
Bits per sample: 16
Bitrate: 731 kbps
Codec: FLAC
================================================================================

––––––––––––––––––––––––––––––––––––––––
Statistics for: 07-Wednesday's Child
Number of samples: 7006020
Duration: 2:39
––––––––––––––––––––––––––––––––––––––––

Left Right

Peak Value: -4.24 dB –- -5.06 dB
Avg RMS: -15.38 dB –- -16.30 dB
DR channel: 8.46 dB –- 8.70 dB
––––––––––––––––––––––––––––––––––––––––

Official DR Value: DR9

Samplerate: 44100 Hz
Channels: 2
Bits per sample: 16
Bitrate: 731 kbps
Codec: FLAC
================================================================================
––––––––––––––––––––––––––––––––––––––––
Statistics for: 05-Downtown
Number of samples: 6238092
Duration: 2:21
––––––––––––––––––––––––––––––––––––––––

Left Right

Peak Value: -2.88 dB –- -2.58 dB
Avg RMS: -15.48 dB –- -15.81 dB
DR channel: 10.01 dB –- 9.38 dB
––––––––––––––––––––––––––––––––––––––––

Official DR Value: DR10

Samplerate: 44100 Hz
Channels: 2
Bits per sample: 16
Bitrate: 731 kbps
Codec: FLAC
================================================================================

John Barry - The Quiller Memorandum: Original Motion Picture Soundtrack (1966) Reissue 2012

John Barry - The Quiller Memorandum: Original Motion Picture Soundtrack (1966) Reissue 2012

All thanks to original uploader - Composer's fan

More Movies & Soundtracks in Efgrapha Blog