Tags
Language
Tags

John Barry - Thunderball: Original Motion Picture Soundtrack (1965) Expanded Remastered 2003

Posted By: Efgrapha
John Barry - Thunderball: Original Motion Picture Soundtrack (1965) Expanded Remastered 2003

John Barry - Thunderball: Original Motion Picture Soundtrack (1965/2003)
EAC | FLAC (Image) + cue.+log ~ 443 Mb | Mp3, CBR320 kbps ~ 193 Mb | Scans included
Soundtrack, Score | Label: EMI, Capitol | # 72435-80589-2-5 | 01:19:04

If Goldfinger proved that the James Bond franchise was box office dynamite, 1965's Thunderball cemented the British super-spy's international appeal–and further forged a set of pop culture cliches that both inspired and endured even Mike Meyer's modern, multi-chaptered Austin Powers spoofing. While Goldfinger also marked composer John Barry stamping his enduring influence on the series' music, this fourth installment finds his big band and jazz-inspired arrangements pulsing with confidence, stripped down rhythmic tension and exotic elegance. Tom Jones follows up Shirley Bassey's previous larger-than-life title track performance with a worthy rival of his own, its dramatic, Barry-composed melody interpolated throughout the composer's masterful score. Songwriter Leslie Bricusse (who co-wrote "Goldfinger" with Barry) also returns, teaming with the composer on the emblematic "Café Martinique" and delightfully kitschy "Mr. Kiss Kiss Bang Bang" (originally intended as the film's Bassey-sung theme song, but abandoned and replaced by the film's producers). This new, digitally remastered and expanded edition notably doubles the running time of the original album with selections that bristle with Barry's haunting string and wind arrangements, including two suites comprising 20-plus minutes of the film's concluding underwater intrigue. It's one of Bond's–and Barry's–best.

Review by Jerry McCulley

James Bond goes under the sea to find his man, and composer John Barry obliges with an aquatically cool yet subtly powerful soundtrack. Barry made his first big mark with an equally wonderful backdrop to Bond's earlier From Russia With Love and Goldfinger adventures. It had been Barry's intent to give Shirley Bassey – who'd scored big with "Goldfinger" – a second go-around with a Bond movie song, but the producers' decision to change the song resulted in Tom Jones getting the title song, devised by Barry at the last moment. He lends the "Thunderball" vocal theme a well-gauged mix of pelvic thrust and serious drama. The rest of the set – including another update of the "007" theme and an instrumental take on what was originally to be the vocal feature, "Mr. Kiss Kiss Bang Bang" – is all pure ingenuity and layered drama. To a lot of people, it was all a little too drenched in reverb and a little too much of the same music repeated; this may have been a result of the fact that Barry was so late finishing the score, that only music from the first half of the movie was represented on the soundtrack LP.

Review by Bruce Eder, All Music Guide

~ John Barry at Allmusic
~ John Barry Website
~ John Barry at Wiki

~ Film at IMDB
~ Film at Wiki

Tracklist:

01. Thunderball - Main Title (3:04) Vocals by Tom Jones
02. Chateau Flight (2:31)
03. The Spa (2:43)
04. Switching The Body (2:48)
05. The Bomb (5:45)
06. Cafe Mrtinique (3:46)
07. Thunderball (3:57)
08. Death Of Fiona (2:31)
09. Bond Below Disco Volante (4:05)
10. Search For Vulcan (2:25)
11. 007 (2:27)
12. Mr. Kiss Kiss Bang Bang (3:18)

Previously Unreleased Bonus Tracks:
13. Gunbarrel/Traction Table/Gassing The Plane/Car Chase (4:43)
14. Bond Meets Domino/Shark Tank/Lights Out For Paula/For King And Country (8:18)
15. Street Chase (3:23)
16. Finding The Plance/Underwater Ballet/Bond With Spectre Frogmen
/Leiter To The Rescue / Bond Joins Underwater Battle (10:16)
17. Underwater Mayhem/Death Of Largo/End Titles (10:21)
18. Mr. Kiss Kiss Band Bang [Mono] (2:42)


Exact Audio Copy V0.99 prebeta 5 from 4. May 2009

Отчёт EAC об извлечении, выполненном 5. октября 2010, 16:16

John Barry / Thunderball

Дисковод: TSSTcorpCDDVDW SH-S202H Adapter: 3 ID: 0

Режим чтения : Достоверность
Использование точного потока : Да
Отключение кэша аудио : Да
Использование указателей C2 : Нет

Коррекция смещения при чтении : 6
Способность читать области Lead-in и Lead-out : Нет
Заполнение пропущенных сэмплов тишиной : Да
Удаление блоков с тишиной в начале и конце : Нет
При вычислениях CRC использовались нулевые сэмплы : Да
Интерфейс : Встроенный Win32-интерфейс для Win NT/2000

Выходной формат : Внутренние WAV-операции
Формат сэмплов : 44.100 Гц; 16 бит; стерео


TOC извлечённого CD

Трек | Старт | Длительность | Начальный сектор | Конечный сектор
––––––––––––––––––––––––––––––––––-
1 | 0:00.00 | 3:03.47 | 0 | 13771
2 | 3:03.47 | 2:31.00 | 13772 | 25096
3 | 5:34.47 | 2:42.43 | 25097 | 37289
4 | 8:17.15 | 2:48.17 | 37290 | 49906
5 | 11:05.32 | 5:45.20 | 49907 | 75801
6 | 16:50.52 | 3:45.58 | 75802 | 92734
7 | 20:36.35 | 3:57.15 | 92735 | 110524
8 | 24:33.50 | 2:31.02 | 110525 | 121851
9 | 27:04.52 | 4:05.08 | 121852 | 140234
10 | 31:09.60 | 2:24.50 | 140235 | 151084
11 | 33:34.35 | 2:27.37 | 151085 | 162146
12 | 36:01.72 | 3:18.18 | 162147 | 177014
13 | 39:20.15 | 4:43.25 | 177015 | 198264
14 | 44:03.40 | 8:18.12 | 198265 | 235626
15 | 52:21.52 | 3:23.33 | 235627 | 250884
16 | 55:45.10 | 10:15.40 | 250885 | 297049
17 | 66:00.50 | 10:21.05 | 297050 | 343629
18 | 76:21.55 | 2:41.70 | 343630 | 355774


Характеристики диапазона извлечения и сообщения об ошибках

Выбранный диапазон

Имя файла C:\Torrent\Мои раздачи\James Bond Collection\04. Thunderball (1965)\John Barry - Thunderball.wav

Пиковый уровень 96.5 %
Качество диапазона 100.0 %
CRC теста 24D3D6D0
CRC копии 24D3D6D0
Копирование… OK

Ошибок не произошло


AccurateRip: сводка

Трек 1 точное извлечение (доверие 15) [59C86C9B]
Трек 2 точное извлечение (доверие 15) [16A06E7B]
Трек 3 точное извлечение (доверие 15) [4BA76067]
Трек 4 точное извлечение (доверие 15) [6E5171D4]
Трек 5 точное извлечение (доверие 15) [1969D69F]
Трек 6 точное извлечение (доверие 15) [A53D097A]
Трек 7 точное извлечение (доверие 15) [F004A7B3]
Трек 8 точное извлечение (доверие 15) [5C7A4C45]
Трек 9 точное извлечение (доверие 15) [6E039841]
Трек 10 точное извлечение (доверие 15) [6BF0B7E0]
Трек 11 точное извлечение (доверие 15) [F045F830]
Трек 12 точное извлечение (доверие 15) [8EE22A63]
Трек 13 точное извлечение (доверие 15) [A3CF7C7D]
Трек 14 точное извлечение (доверие 15) [FEEF30A8]
Трек 15 точное извлечение (доверие 15) [0F91AA1C]
Трек 16 точное извлечение (доверие 15) [BD619709]
Трек 17 точное извлечение (доверие 15) [16BD1B26]
Трек 18 точное извлечение (доверие 14) [D325D552]

Все треки извлечены точно

Конец отчёта

[CUETools log; Date: 07.08.2018 22:28:40; Version: 2.1.4]
[CTDB TOCID: Z8UIjeIUzcC3UvelggBKrmR6YsU-] found.
Track | CTDB Status
1 | (26/26) Accurately ripped
2 | (26/26) Accurately ripped
3 | (25/26) Accurately ripped
4 | (26/26) Accurately ripped
5 | (26/26) Accurately ripped
6 | (26/26) Accurately ripped
7 | (26/26) Accurately ripped
8 | (26/26) Accurately ripped
9 | (26/26) Accurately ripped
10 | (26/26) Accurately ripped
11 | (26/26) Accurately ripped
12 | (26/26) Accurately ripped
13 | (26/26) Accurately ripped
14 | (26/26) Accurately ripped
15 | (26/26) Accurately ripped
16 | (26/26) Accurately ripped
17 | (26/26) Accurately ripped
18 | (24/26) Accurately ripped
[AccurateRip ID: 002b50a6-02566696-00128712] found.
Track [ CRC | V2 ] Status
01 [59c86c9b|2f945acd] (20+29/55) Accurately ripped
02 [16a06e7b|b3335186] (20+27/53) Accurately ripped
03 [4ba76067|edc3b4a4] (20+27/53) Accurately ripped
04 [6e5171d4|5512fc37] (20+26/52) Accurately ripped
05 [1969d69f|a7045d3b] (20+27/53) Accurately ripped
06 [a53d097a|a4a009d4] (20+27/53) Accurately ripped
07 [f004a7b3|130f9b6c] (20+28/54) Accurately ripped
08 [5c7a4c45|d5c73825] (20+27/53) Accurately ripped
09 [6e039841|f4c91c2e] (20+27/53) Accurately ripped
10 [6bf0b7e0|1a51238c] (20+27/53) Accurately ripped
11 [f045f830|9d506ad4] (20+27/53) Accurately ripped
12 [8ee22a63|89d0d203] (20+27/53) Accurately ripped
13 [a3cf7c7d|71da540a] (20+26/51) Accurately ripped
14 [feef30a8|16695e83] (20+27/52) Accurately ripped
15 [0f91aa1c|1dd5bc00] (20+27/53) Accurately ripped
16 [bd619709|e430a539] (19+28/52) Accurately ripped
17 [16bd1b26|99698fe3] (20+27/52) Accurately ripped
18 [d325d552|eca28402] (19+27/51) Accurately ripped
Offsetted by -664:
01 [818161b3] (00/55) No match (V2 was not tested)
02 [f60c755b] (00/53) No match (V2 was not tested)
03 [5a95177f] (00/53) No match (V2 was not tested)
04 [7e50f514] (00/52) No match (V2 was not tested)
05 [c1057647] (00/53) No match (V2 was not tested)
06 [2d93135a] (00/53) No match (V2 was not tested)
07 [ded03ae3] (00/54) No match (V2 was not tested)
08 [02d4c6d5] (00/53) No match (V2 was not tested)
09 [0d1f09a1] (00/53) No match (V2 was not tested)
10 [1d890a10] (00/53) No match (V2 was not tested)
11 [63ab7a60] (00/53) No match (V2 was not tested)
12 [f34fdcdb] (00/53) No match (V2 was not tested)
13 [f507898d] (00/51) No match (V2 was not tested)
14 [9fc3f318] (00/52) No match (V2 was not tested)
15 [cd5a5e04] (00/53) No match (V2 was not tested)
16 [4c7f1103] (00/52) No match (V2 was not tested)
17 [a5159da4] (00/52) No match (V2 was not tested)
18 [faaadaaa] (00/51) No match (V2 was not tested)

Track Peak [ CRC32 ] [W/O NULL] [ LOG ]
– 96,5 [24D3D6D0] [2167B8A7] CRC32
01 92,1 [452B2BDD] [371D5608]
02 94,4 [7CEA8AC2] [7A3BF1CD]
03 94,3 [CF577D64] [FDC7F875]
04 94,4 [A2F164FF] [87F76F9C]
05 94,4 [051B48AE] [134A7CD8]
06 71,7 [8C8E6ADE] [144F1EFD]
07 96,3 [8CB4EC47] [C7D0449A]
08 94,4 [884F742E] [348F26CF]
09 94,4 [B9A9C168] [4E15C61D]
10 93,2 [B1529EB3] [19597A05]
11 93,5 [15B2D657] [D04F0672]
12 79,4 [6E427E8B] [4AB5D1FF]
13 94,4 [380AB03C] [D1DC128A]
14 94,7 [BFE2AA00] [ADEDA189]
15 94,4 [06481585] [E610B97E]
16 96,5 [13D83AE8] [DEF69012]
17 94,4 [4322D409] [38D0B566]
18 79,3 [81AFF265] [F9035FB2]

foobar2000 1.2 / Dynamic Range Meter 1.1.1
log date: 2018-08-07 22:44:21

––––––––––––––––––––––––––––––––––––––––
Analyzed: John Barry / Thunderball
––––––––––––––––––––––––––––––––––––––––

DR Peak RMS Duration Track
––––––––––––––––––––––––––––––––––––––––
DR10 -0.71 dB -13.35 dB 3:04 01-Thunderball - Main Title
DR10 -0.50 dB -15.55 dB 2:31 02-Chateau Flight
DR11 -0.50 dB -19.86 dB 2:43 03-The Spa
DR13 -0.50 dB -20.45 dB 2:48 04-Switching The Body
DR9 -0.50 dB -15.97 dB 5:45 05-The Bomb
DR12 -2.88 dB -19.31 dB 3:46 06-Cafe Mrtinique
DR11 -0.32 dB -15.29 dB 3:57 07-Thunderball
DR11 -0.50 dB -16.04 dB 2:31 08-Death Of Fiona
DR11 -0.50 dB -16.87 dB 4:05 09-Bond Below Disco Volante
DR11 -0.60 dB -18.13 dB 2:25 10-Search For Vulcan
DR10 -0.58 dB -13.82 dB 2:27 11-007
DR9 -2.00 dB -13.66 dB 3:18 12-Mr. Kiss Kiss Bang Bang
DR10 -0.50 dB -15.04 dB 4:43 13-Gunbarrel/Traction Table/Gassing The Plane/Car Chase
DR12 -0.47 dB -16.05 dB 8:18 14-Bond Meets Domino/Shark Tank/Lights Out For Paula/For King And Country
DR9 -0.50 dB -11.53 dB 3:23 15-Street Chase
DR9 -0.31 dB -14.76 dB 10:16 16-Finding The Plance/Underwater Ballet/Bond With Spectre Frogmen/Leiter To The …
DR10 -0.50 dB -13.07 dB 10:21 17-Underwater Mayhem/Death Of Largo/End Titles
DR10 -2.01 dB -14.08 dB 2:42 18-Mr. Kiss Kiss Band Bang [Mono]
––––––––––––––––––––––––––––––––––––––––

Number of tracks: 18
Official DR value: DR10

Samplerate: 44100 Hz
Channels: 2
Bits per sample: 16
Bitrate: 763 kbps
Codec: FLAC
================================================================================

John Barry - Thunderball: Original Motion Picture Soundtrack (1965) Expanded Remastered 2003

John Barry - Thunderball: Original Motion Picture Soundtrack (1965) Expanded Remastered 2003

All thanks to original uploader - Composer's fan

More Movies & Soundtracks in Efgrapha Blog