Tags
Language
Tags

John Digweed - Quattro II (2021)

Posted By: JET 1
John Digweed - Quattro II (2021)

John Digweed - Quattro II (2021)
EAC Rip | FLAC (Tracks) +CUE, LOG | 1.5 GB
Genre: Ambient, Downtempo, Breakbeat, Breaks | Label: Bedrock Records | Catalog Number: BEDQUATIICD

Quattro II Is the new follow up to the hugely successful Quattro compilation album from John Digweed that was released in April 2020. Featuring 4 CD's of exclusive new material which has been compiled and mixed by John Digweed, showcasing music from some of the most exciting electronic producers out there. This time with the Juxtaposition CD we hand the controls to German legend Robert Babicz for an original album of futuristic electronica and ambient textures.
Soundscape - Cinematic synths, Ambient textures, Acid wobbles, sonic waves, Haunting Vocals.
Tempo - Atmospheric Breaks, Hypnotic grooves, Indie throbbers, Melodic vibes, Driving Acid.
Redux - Nu skol breaks, Feel good House, Future grooves, Euro Chugger.
Juxtaposition By Robert Babicz - Futuristic electronica and ambient textures.

Exact Audio Copy V1.6 from 23. October 2020

EAC extraction logfile from 2. March 2021, 12:37

John Digweed / Quattro II Disc 1 - Soundscape

Used drive : PIONEER BD-RW BDR-209M Adapter: 1 ID: 0

Read mode : Secure
Utilize accurate stream : Yes
Defeat audio cache : Yes
Make use of C2 pointers : No

Read offset correction : 667
Overread into Lead-In and Lead-Out : No
Fill up missing offset samples with silence : Yes
Delete leading and trailing silent blocks : No
Null samples used in CRC calculations : Yes
Used interface : Native Win32 interface for Win NT & 2000
Gap handling : Appended to previous track

Used output format : User Defined Encoder
Selected bitrate : 896 kBit/s
Quality : High
Add ID3 tag : No
Command line compressor : C:\Program Files (x86)\Exact Audio Copy\Flac\flac.exe
Additional command line options : -8 -V -T "ARTIST=%artist%" -T "TITLE=%title%" -T "ALBUM=%albumtitle%" -T "DATE=%year%" -T "TRACKNUMBER=%tracknr%" -T "GENRE=%genre%" -T "PERFORMER=%albuminterpret%" -T "COMPOSER=%composer%" -T "ALBUMARTIST=%albumartist%" -T "DISCNUMBER=%cdnumber%" -T "TOTALDISCS=%totalcds%" -T "TOTALTRACKS=%numtracks%" -T "COMMENT=%comment%" %source% -o %dest%


TOC of the extracted CD

Track | Start | Length | Start sector | End sector
––––––––––––––––––––––––––––-
1 | 0:00.00 | 7:32.20 | 0 | 33919
2 | 7:32.20 | 4:39.13 | 33920 | 54857
3 | 12:11.33 | 3:26.33 | 54858 | 70340
4 | 15:37.66 | 6:13.27 | 70341 | 98342
5 | 21:51.18 | 4:48.01 | 98343 | 119943
6 | 26:39.19 | 5:11.60 | 119944 | 143328
7 | 31:51.04 | 7:14.22 | 143329 | 175900
8 | 39:05.26 | 5:14.27 | 175901 | 199477
9 | 44:19.53 | 6:14.10 | 199478 | 227537
10 | 50:33.63 | 7:22.40 | 227538 | 260727
11 | 57:56.28 | 5:51.20 | 260728 | 287072
12 | 63:47.48 | 3:30.25 | 287073 | 302847
13 | 67:17.73 | 5:54.02 | 302848 | 329399


Track 1

Filename D:\Music\EAC Rips\[BEDQUATIICD] John Digweed - Quattro II (2021) [CD FLAC]\John Digweed - Quattro II DISC I - SOUNDSCAPE\01 - Acid Rockers - Exploring Delta Dub.wav

Pre-gap length 0:00:02.00

Peak level 94.4 %
Extraction speed 5.3 X
Track quality 100.0 %
Test CRC C56DD795
Copy CRC C56DD795
Track not present in AccurateRip database
Copy OK

Track 2

Filename D:\Music\EAC Rips\[BEDQUATIICD] John Digweed - Quattro II (2021) [CD FLAC]\John Digweed - Quattro II DISC I - SOUNDSCAPE\02 - Stelios Vassiloudis - Alone.wav

Peak level 94.3 %
Extraction speed 5.7 X
Track quality 100.0 %
Test CRC DD745568
Copy CRC DD745568
Track not present in AccurateRip database
Copy OK

Track 3

Filename D:\Music\EAC Rips\[BEDQUATIICD] John Digweed - Quattro II (2021) [CD FLAC]\John Digweed - Quattro II DISC I - SOUNDSCAPE\03 - Betical - Icon (Reincarnation).wav

Peak level 94.3 %
Extraction speed 5.8 X
Track quality 100.0 %
Test CRC 82BAD3E3
Copy CRC 82BAD3E3
Track not present in AccurateRip database
Copy OK

Track 4

Filename D:\Music\EAC Rips\[BEDQUATIICD] John Digweed - Quattro II (2021) [CD FLAC]\John Digweed - Quattro II DISC I - SOUNDSCAPE\04 - Hannes Bieger feat. Juan Hansen - Burn Your Love (Synthapella).wav

Peak level 94.3 %
Extraction speed 6.7 X
Track quality 100.0 %
Test CRC A33D126C
Copy CRC A33D126C
Track not present in AccurateRip database
Copy OK

Track 5

Filename D:\Music\EAC Rips\[BEDQUATIICD] John Digweed - Quattro II (2021) [CD FLAC]\John Digweed - Quattro II DISC I - SOUNDSCAPE\05 - Satoshi Fumi & Ian O'Donovan - Rising (Ambient Mix).wav

Peak level 94.3 %
Extraction speed 6.9 X
Track quality 100.0 %
Test CRC BD54BB09
Copy CRC BD54BB09
Track not present in AccurateRip database
Copy OK

Track 6

Filename D:\Music\EAC Rips\[BEDQUATIICD] John Digweed - Quattro II (2021) [CD FLAC]\John Digweed - Quattro II DISC I - SOUNDSCAPE\06 - Josh Wink - “New Years Day Acid” (Beat-less reprise).wav

Peak level 94.3 %
Extraction speed 7.4 X
Track quality 100.0 %
Test CRC 5E29A35B
Copy CRC 5E29A35B
Track not present in AccurateRip database
Copy OK

Track 7

Filename D:\Music\EAC Rips\[BEDQUATIICD] John Digweed - Quattro II (2021) [CD FLAC]\John Digweed - Quattro II DISC I - SOUNDSCAPE\07 - Guy Mantzur & Khen - My Golden cage ( Kasper Koman 6AM reprise).wav

Peak level 84.4 %
Extraction speed 8.0 X
Track quality 100.0 %
Test CRC 63CF7BE4
Copy CRC 63CF7BE4
Track not present in AccurateRip database
Copy OK

Track 8

Filename D:\Music\EAC Rips\[BEDQUATIICD] John Digweed - Quattro II (2021) [CD FLAC]\John Digweed - Quattro II DISC I - SOUNDSCAPE\08 - Satoshi Fumi - Manis (Firmament Mix).wav

Peak level 77.1 %
Extraction speed 7.4 X
Track quality 99.9 %
Test CRC EE447C08
Copy CRC EE447C08
Track not present in AccurateRip database
Copy OK

Track 9

Filename D:\Music\EAC Rips\[BEDQUATIICD] John Digweed - Quattro II (2021) [CD FLAC]\John Digweed - Quattro II DISC I - SOUNDSCAPE\09 - Lopezhouse - Long Rain.wav

Peak level 87.0 %
Extraction speed 7.9 X
Track quality 99.9 %
Test CRC 54A32ACD
Copy CRC 54A32ACD
Track not present in AccurateRip database
Copy OK

Track 10

Filename D:\Music\EAC Rips\[BEDQUATIICD] John Digweed - Quattro II (2021) [CD FLAC]\John Digweed - Quattro II DISC I - SOUNDSCAPE\10 - Luke Brancaccio, Gai Barone & Kiki Cave - We Live Electric (Dub Mix).wav

Peak level 94.3 %
Extraction speed 8.4 X
Track quality 99.9 %
Test CRC 73F9785B
Copy CRC 73F9785B
Track not present in AccurateRip database
Copy OK

Track 11

Filename D:\Music\EAC Rips\[BEDQUATIICD] John Digweed - Quattro II (2021) [CD FLAC]\John Digweed - Quattro II DISC I - SOUNDSCAPE\11 - Dave Walker - Embrace.wav

Peak level 88.2 %
Extraction speed 8.4 X
Track quality 99.9 %
Test CRC 4554E7D8
Copy CRC 4554E7D8
Track not present in AccurateRip database
Copy OK

Track 12

Filename D:\Music\EAC Rips\[BEDQUATIICD] John Digweed - Quattro II (2021) [CD FLAC]\John Digweed - Quattro II DISC I - SOUNDSCAPE\12 - Coloursound - Fly With Me (T_Mo & Luke Brancaccio Downtempo Remix).wav

Peak level 92.6 %
Extraction speed 8.8 X
Track quality 100.0 %
Test CRC 428D39BD
Copy CRC 428D39BD
Track not present in AccurateRip database
Copy OK

Track 13

Filename D:\Music\EAC Rips\[BEDQUATIICD] John Digweed - Quattro II (2021) [CD FLAC]\John Digweed - Quattro II DISC I - SOUNDSCAPE\13 - Quivver - Nothing New To Feel (No Beats Mix).wav

Peak level 94.3 %
Extraction speed 9.6 X
Track quality 100.0 %
Test CRC 5EEA0DCA
Copy CRC 5EEA0DCA
Track not present in AccurateRip database
Copy OK


None of the tracks are present in the AccurateRip database

No errors occurred

End of status report

–– CUETools DB Plugin V2.1.6

[CTDB TOCID: jvG474t3r09MHxxmSo.LiDMWDMI-] found
Submit result: already submitted
Track | CTDB Status
1 | (5/5) Accurately ripped
2 | (5/5) Accurately ripped
3 | (5/5) Accurately ripped
4 | (5/5) Accurately ripped
5 | (5/5) Accurately ripped
6 | (5/5) Accurately ripped
7 | (5/5) Accurately ripped
8 | (5/5) Accurately ripped
9 | (5/5) Accurately ripped
10 | (5/5) Accurately ripped
11 | (5/5) Accurately ripped
12 | (5/5) Accurately ripped
13 | (5/5) Accurately ripped


==== Log checksum 7D895D485A5610AE78910ABDB4B50400DEE0A49A6836A65A6A2D4CBBEE65CF5B ====

Exact Audio Copy V1.6 from 23. October 2020

EAC extraction logfile from 2. March 2021, 13:08

John Digweed / John Digweed - Quattro II DISC II - TEMPO

Used drive : PIONEER BD-RW BDR-209M Adapter: 1 ID: 0

Read mode : Secure
Utilize accurate stream : Yes
Defeat audio cache : Yes
Make use of C2 pointers : No

Read offset correction : 667
Overread into Lead-In and Lead-Out : No
Fill up missing offset samples with silence : Yes
Delete leading and trailing silent blocks : No
Null samples used in CRC calculations : Yes
Used interface : Native Win32 interface for Win NT & 2000
Gap handling : Appended to previous track

Used output format : User Defined Encoder
Selected bitrate : 896 kBit/s
Quality : High
Add ID3 tag : No
Command line compressor : C:\Program Files (x86)\Exact Audio Copy\Flac\flac.exe
Additional command line options : -8 -V -T "ARTIST=%artist%" -T "TITLE=%title%" -T "ALBUM=%albumtitle%" -T "DATE=%year%" -T "TRACKNUMBER=%tracknr%" -T "GENRE=%genre%" -T "PERFORMER=%albuminterpret%" -T "COMPOSER=%composer%" -T "ALBUMARTIST=%albumartist%" -T "DISCNUMBER=%cdnumber%" -T "TOTALDISCS=%totalcds%" -T "TOTALTRACKS=%numtracks%" -T "COMMENT=%comment%" %source% -o %dest%


TOC of the extracted CD

Track | Start | Length | Start sector | End sector
––––––––––––––––––––––––––––-
1 | 0:00.00 | 3:29.03 | 0 | 15677
2 | 3:29.03 | 4:32.71 | 15678 | 36148
3 | 8:01.74 | 5:35.50 | 36149 | 61323
4 | 13:37.49 | 5:08.07 | 61324 | 84430
5 | 18:45.56 | 7:08.71 | 84431 | 116601
6 | 25:54.52 | 7:36.00 | 116602 | 150801
7 | 33:30.52 | 6:11.74 | 150802 | 178700
8 | 39:42.51 | 5:07.36 | 178701 | 201761
9 | 44:50.12 | 4:48.41 | 201762 | 223402
10 | 49:38.53 | 4:03.50 | 223403 | 241677
11 | 53:42.28 | 3:46.29 | 241678 | 258656
12 | 57:28.57 | 5:01.70 | 258657 | 281301
13 | 62:30.52 | 7:07.59 | 281302 | 313385


Track 1

Filename D:\Music\EAC Rips\[BEDQUATIICD] John Digweed - Quattro II (2021) [CD FLAC]\John Digweed - Quattro II DISC II - TEMPO\01 - John Digweed & Nick Muir - Stand Still.wav

Pre-gap length 0:00:02.00

Peak level 79.1 %
Extraction speed 4.4 X
Track quality 100.0 %
Test CRC 24733515
Copy CRC 24733515
Track not present in AccurateRip database
Copy OK

Track 2

Filename D:\Music\EAC Rips\[BEDQUATIICD] John Digweed - Quattro II (2021) [CD FLAC]\John Digweed - Quattro II DISC II - TEMPO\02 - Buraki - Green Lake.wav

Peak level 94.3 %
Extraction speed 5.0 X
Track quality 100.0 %
Test CRC 66E791A7
Copy CRC 66E791A7
Track not present in AccurateRip database
Copy OK

Track 3

Filename D:\Music\EAC Rips\[BEDQUATIICD] John Digweed - Quattro II (2021) [CD FLAC]\John Digweed - Quattro II DISC II - TEMPO\03 - EdOne feat Martin Herrs & Santanamusique - Morning Flight.wav

Peak level 94.3 %
Extraction speed 5.2 X
Track quality 99.9 %
Test CRC 2D0B5CF2
Copy CRC 2D0B5CF2
Track not present in AccurateRip database
Copy OK

Track 4

Filename D:\Music\EAC Rips\[BEDQUATIICD] John Digweed - Quattro II (2021) [CD FLAC]\John Digweed - Quattro II DISC II - TEMPO\04 - Remcord - Soul Plane.wav

Peak level 94.3 %
Extraction speed 5.6 X
Track quality 99.9 %
Test CRC B056469A
Copy CRC B056469A
Track not present in AccurateRip database
Copy OK

Track 5

Filename D:\Music\EAC Rips\[BEDQUATIICD] John Digweed - Quattro II (2021) [CD FLAC]\John Digweed - Quattro II DISC II - TEMPO\05 - Dino Lenny - Sweet Paranoia.wav

Peak level 94.3 %
Extraction speed 6.4 X
Track quality 99.9 %
Test CRC FA880E0E
Copy CRC FA880E0E
Track not present in AccurateRip database
Copy OK

Track 6

Filename D:\Music\EAC Rips\[BEDQUATIICD] John Digweed - Quattro II (2021) [CD FLAC]\John Digweed - Quattro II DISC II - TEMPO\06 - Acid Rockers - Exploring Delta Nine.wav

Peak level 94.3 %
Extraction speed 7.5 X
Track quality 100.0 %
Test CRC A07CDE7D
Copy CRC A07CDE7D
Track not present in AccurateRip database
Copy OK

Track 7

Filename D:\Music\EAC Rips\[BEDQUATIICD] John Digweed - Quattro II (2021) [CD FLAC]\John Digweed - Quattro II DISC II - TEMPO\07 - Mono Electric Orchestra - Space Bass.wav

Peak level 94.4 %
Extraction speed 7.8 X
Track quality 100.0 %
Test CRC 43B8D7D1
Copy CRC 43B8D7D1
Track not present in AccurateRip database
Copy OK

Track 8

Filename D:\Music\EAC Rips\[BEDQUATIICD] John Digweed - Quattro II (2021) [CD FLAC]\John Digweed - Quattro II DISC II - TEMPO\08 - Dino Lenny - Dance The Blues.wav

Peak level 94.3 %
Extraction speed 7.9 X
Track quality 100.0 %
Test CRC 3159ABF9
Copy CRC 3159ABF9
Track not present in AccurateRip database
Copy OK

Track 9

Filename D:\Music\EAC Rips\[BEDQUATIICD] John Digweed - Quattro II (2021) [CD FLAC]\John Digweed - Quattro II DISC II - TEMPO\09 - Blaktone & Florian Kruse - Saat.wav

Peak level 94.3 %
Extraction speed 8.1 X
Track quality 100.0 %
Test CRC 147A82D1
Copy CRC 147A82D1
Track not present in AccurateRip database
Copy OK

Track 10

Filename D:\Music\EAC Rips\[BEDQUATIICD] John Digweed - Quattro II (2021) [CD FLAC]\John Digweed - Quattro II DISC II - TEMPO\10 - Coloursound - Fly With Me (Luke Brancaccio & Nolan Remix).wav

Peak level 94.4 %
Extraction speed 7.2 X
Track quality 99.9 %
Test CRC 8F23397F
Copy CRC 8F23397F
Track not present in AccurateRip database
Copy OK

Track 11

Filename D:\Music\EAC Rips\[BEDQUATIICD] John Digweed - Quattro II (2021) [CD FLAC]\John Digweed - Quattro II DISC II - TEMPO\11 - Jim Rivers - Aster.wav

Peak level 94.4 %
Extraction speed 7.2 X
Track quality 99.9 %
Test CRC 1AB3F9B2
Copy CRC 1AB3F9B2
Track not present in AccurateRip database
Copy OK

Track 12

Filename D:\Music\EAC Rips\[BEDQUATIICD] John Digweed - Quattro II (2021) [CD FLAC]\John Digweed - Quattro II DISC II - TEMPO\12 - Aubrey Fry - Hard.wav

Peak level 94.3 %
Extraction speed 8.8 X
Track quality 100.0 %
Test CRC 94037FDD
Copy CRC 94037FDD
Track not present in AccurateRip database
Copy OK

Track 13

Filename D:\Music\EAC Rips\[BEDQUATIICD] John Digweed - Quattro II (2021) [CD FLAC]\John Digweed - Quattro II DISC II - TEMPO\13 - Robert Babicz - Ani.wav

Peak level 94.3 %
Extraction speed 9.0 X
Track quality 100.0 %
Test CRC BF05E57E
Copy CRC BF05E57E
Track not present in AccurateRip database
Copy OK


None of the tracks are present in the AccurateRip database

No errors occurred

End of status report

–– CUETools DB Plugin V2.1.6

[CTDB TOCID: jNcrbYy.4zWGMPR29dTnOrRzDQQ-] found
Submit result: jNcrbYy.4zWGMPR29dTnOrRzDQQ- has been confirmed
Track | CTDB Status
1 | (4/4) Accurately ripped
2 | (4/4) Accurately ripped
3 | (4/4) Accurately ripped
4 | (4/4) Accurately ripped
5 | (4/4) Accurately ripped
6 | (4/4) Accurately ripped
7 | (4/4) Accurately ripped
8 | (4/4) Accurately ripped
9 | (4/4) Accurately ripped
10 | (4/4) Accurately ripped
11 | (4/4) Accurately ripped
12 | (4/4) Accurately ripped
13 | (4/4) Accurately ripped


==== Log checksum B78633BAD9DEDB8D2B52B0A0473D0FEDEF95D724F44BFB38194509EC718E77F1 ====

Exact Audio Copy V1.6 from 23. October 2020

EAC extraction logfile from 2. March 2021, 13:39

John Digweed / John Digweed - Quattro II DISC III - Redux

Used drive : PIONEER BD-RW BDR-209M Adapter: 1 ID: 0

Read mode : Secure
Utilize accurate stream : Yes
Defeat audio cache : Yes
Make use of C2 pointers : No

Read offset correction : 667
Overread into Lead-In and Lead-Out : No
Fill up missing offset samples with silence : Yes
Delete leading and trailing silent blocks : No
Null samples used in CRC calculations : Yes
Used interface : Native Win32 interface for Win NT & 2000
Gap handling : Appended to previous track

Used output format : User Defined Encoder
Selected bitrate : 896 kBit/s
Quality : High
Add ID3 tag : No
Command line compressor : C:\Program Files (x86)\Exact Audio Copy\Flac\flac.exe
Additional command line options : -8 -V -T "ARTIST=%artist%" -T "TITLE=%title%" -T "ALBUM=%albumtitle%" -T "DATE=%year%" -T "TRACKNUMBER=%tracknr%" -T "GENRE=%genre%" -T "PERFORMER=%albuminterpret%" -T "COMPOSER=%composer%" -T "ALBUMARTIST=%albumartist%" -T "DISCNUMBER=%cdnumber%" -T "TOTALDISCS=%totalcds%" -T "TOTALTRACKS=%numtracks%" -T "COMMENT=%comment%" %source% -o %dest%


TOC of the extracted CD

Track | Start | Length | Start sector | End sector
––––––––––––––––––––––––––––-
1 | 0:00.00 | 4:57.10 | 0 | 22284
2 | 4:57.10 | 6:13.43 | 22285 | 50302
3 | 11:10.53 | 5:37.70 | 50303 | 75647
4 | 16:48.48 | 6:24.65 | 75648 | 104512
5 | 23:13.38 | 4:24.69 | 104513 | 124381
6 | 27:38.32 | 5:44.32 | 124382 | 150213
7 | 33:22.64 | 7:17.07 | 150214 | 182995
8 | 40:39.71 | 4:55.34 | 182996 | 205154
9 | 45:35.30 | 4:54.14 | 205155 | 227218
10 | 50:29.44 | 6:28.61 | 227219 | 256379
11 | 56:58.30 | 6:06.62 | 256380 | 283891
12 | 63:05.17 | 5:20.25 | 283892 | 307916


Track 1

Filename D:\Music\EAC Rips\[BEDQUATIICD] John Digweed - Quattro II (2021) [CD FLAC]\John Digweed - Quattro II DISC III - REDUX\01 - Stelios Vassiloudis - Rust (Breaks Mix).wav

Pre-gap length 0:00:02.00

Peak level 94.2 %
Extraction speed 4.2 X
Track quality 99.9 %
Test CRC 6C05EA99
Copy CRC 6C05EA99
Track not present in AccurateRip database
Copy OK

Track 2

Filename D:\Music\EAC Rips\[BEDQUATIICD] John Digweed - Quattro II (2021) [CD FLAC]\John Digweed - Quattro II DISC III - REDUX\02 - John Digweed & Nick Muir - Forge (Kohra Remix).wav

Peak level 94.4 %
Extraction speed 5.4 X
Track quality 100.0 %
Test CRC 6915C18F
Copy CRC 6915C18F
Track not present in AccurateRip database
Copy OK

Track 3

Filename D:\Music\EAC Rips\[BEDQUATIICD] John Digweed - Quattro II (2021) [CD FLAC]\John Digweed - Quattro II DISC III - REDUX\03 - Tigerhook Presents Randall Jones - Beautiful Thang (Bushwacka Remix).wav

Peak level 94.4 %
Extraction speed 5.9 X
Track quality 100.0 %
Test CRC CA11127C
Copy CRC CA11127C
Track not present in AccurateRip database
Copy OK

Track 4

Filename D:\Music\EAC Rips\[BEDQUATIICD] John Digweed - Quattro II (2021) [CD FLAC]\John Digweed - Quattro II DISC III - REDUX\04 - Science Dept. - Persuasion (Chris Fortier Remix).wav

Peak level 94.4 %
Extraction speed 6.5 X
Track quality 100.0 %
Test CRC 47E26BB2
Copy CRC 47E26BB2
Track not present in AccurateRip database
Copy OK

Track 5

Filename D:\Music\EAC Rips\[BEDQUATIICD] John Digweed - Quattro II (2021) [CD FLAC]\John Digweed - Quattro II DISC III - REDUX\05 - Bedrock - Beautiful Strange (Lost Desert Remix).wav

Peak level 94.4 %
Extraction speed 6.0 X
Track quality 99.9 %
Test CRC 17C7EF8D
Copy CRC 17C7EF8D
Track not present in AccurateRip database
Copy OK

Track 6

Filename D:\Music\EAC Rips\[BEDQUATIICD] John Digweed - Quattro II (2021) [CD FLAC]\John Digweed - Quattro II DISC III - REDUX\06 - Guy Mantzur & Khen - My Golden Cage (Kasper Koman 6AM Remix).wav

Peak level 94.3 %
Extraction speed 7.3 X
Track quality 100.0 %
Test CRC 0322F929
Copy CRC 0322F929
Track not present in AccurateRip database
Copy OK

Track 7

Filename D:\Music\EAC Rips\[BEDQUATIICD] John Digweed - Quattro II (2021) [CD FLAC]\John Digweed - Quattro II DISC III - REDUX\07 - John Digweed & Nick Muir - Stand Still (Lopezhouse Remix).wav

Peak level 94.4 %
Extraction speed 7.8 X
Track quality 100.0 %
Test CRC E037E956
Copy CRC E037E956
Track not present in AccurateRip database
Copy OK

Track 8

Filename D:\Music\EAC Rips\[BEDQUATIICD] John Digweed - Quattro II (2021) [CD FLAC]\John Digweed - Quattro II DISC III - REDUX\08 - Emerson, Digweed, Muir - Tracer (Ian O'Donovan Dawn Mix).wav

Peak level 94.3 %
Extraction speed 7.0 X
Track quality 99.9 %
Test CRC F6469624
Copy CRC F6469624
Track not present in AccurateRip database
Copy OK

Track 9

Filename D:\Music\EAC Rips\[BEDQUATIICD] John Digweed - Quattro II (2021) [CD FLAC]\John Digweed - Quattro II DISC III - REDUX\09 - John Digweed & Nick Muir - Raise (Quivver Remix).wav

Peak level 94.3 %
Extraction speed 8.0 X
Track quality 100.0 %
Test CRC E734CFA0
Copy CRC E734CFA0
Track not present in AccurateRip database
Copy OK

Track 10

Filename D:\Music\EAC Rips\[BEDQUATIICD] John Digweed - Quattro II (2021) [CD FLAC]\John Digweed - Quattro II DISC III - REDUX\10 - John Digweed & Nick Muir - Satellite (Satoshi Fumi Remix).wav

Peak level 94.4 %
Extraction speed 8.4 X
Track quality 100.0 %
Test CRC 30A6CE17
Copy CRC 30A6CE17
Track not present in AccurateRip database
Copy OK

Track 11

Filename D:\Music\EAC Rips\[BEDQUATIICD] John Digweed - Quattro II (2021) [CD FLAC]\John Digweed - Quattro II DISC III - REDUX\11 - Miles Atmospheric feat- The Apparition - Calling You Out (Josh Wink Paradise Dub).wav

Peak level 94.3 %
Extraction speed 8.0 X
Track quality 99.9 %
Test CRC 25D3C9E9
Copy CRC 25D3C9E9
Track not present in AccurateRip database
Copy OK

Track 12

Filename D:\Music\EAC Rips\[BEDQUATIICD] John Digweed - Quattro II (2021) [CD FLAC]\John Digweed - Quattro II DISC III - REDUX\12 - Quivver - Don't Say Anything (Skanna Remix).wav

Peak level 94.2 %
Extraction speed 8.9 X
Track quality 100.0 %
Test CRC 9C525472
Copy CRC 9C525472
Track not present in AccurateRip database
Copy OK


None of the tracks are present in the AccurateRip database

No errors occurred

End of status report

–– CUETools DB Plugin V2.1.6

[CTDB TOCID: 5rs_9RFHPwdMWbKPw7pFISkMfq4-] found
Submit result: already submitted
Track | CTDB Status
1 | (5/5) Accurately ripped
2 | (5/5) Accurately ripped
3 | (5/5) Accurately ripped
4 | (5/5) Accurately ripped
5 | (5/5) Accurately ripped
6 | (5/5) Accurately ripped
7 | (5/5) Accurately ripped
8 | (5/5) Accurately ripped
9 | (5/5) Accurately ripped
10 | (5/5) Accurately ripped
11 | (5/5) Accurately ripped
12 | (5/5) Accurately ripped


==== Log checksum 296807BA74FBA2503DCC1483232698EC64775E5B854A16A07FB14577A1347CDC ====

Exact Audio Copy V1.6 from 23. October 2020

EAC extraction logfile from 2. March 2021, 15:08

Robert Babicz / John Digweed - Quattro II DISC IV - JUXTAPOSITION

Used drive : PIONEER BD-RW BDR-209M Adapter: 1 ID: 0

Read mode : Secure
Utilize accurate stream : Yes
Defeat audio cache : Yes
Make use of C2 pointers : No

Read offset correction : 667
Overread into Lead-In and Lead-Out : No
Fill up missing offset samples with silence : Yes
Delete leading and trailing silent blocks : No
Null samples used in CRC calculations : Yes
Used interface : Native Win32 interface for Win NT & 2000
Gap handling : Appended to previous track

Used output format : User Defined Encoder
Selected bitrate : 896 kBit/s
Quality : High
Add ID3 tag : No
Command line compressor : C:\Program Files (x86)\Exact Audio Copy\Flac\flac.exe
Additional command line options : -8 -V -T "ARTIST=%artist%" -T "TITLE=%title%" -T "ALBUM=%albumtitle%" -T "DATE=%year%" -T "TRACKNUMBER=%tracknr%" -T "GENRE=%genre%" -T "PERFORMER=%albuminterpret%" -T "COMPOSER=%composer%" -T "ALBUMARTIST=%albumartist%" -T "DISCNUMBER=%cdnumber%" -T "TOTALDISCS=%totalcds%" -T "TOTALTRACKS=%numtracks%" -T "COMMENT=%comment%" %source% -o %dest%


TOC of the extracted CD

Track | Start | Length | Start sector | End sector
––––––––––––––––––––––––––––-
1 | 0:00.00 | 3:27.47 | 0 | 15571
2 | 3:27.47 | 2:45.33 | 15572 | 27979
3 | 6:13.05 | 6:22.55 | 27980 | 56684
4 | 12:35.60 | 6:01.17 | 56685 | 83776
5 | 18:37.02 | 7:33.21 | 83777 | 117772
6 | 26:10.23 | 3:20.08 | 117773 | 132780
7 | 29:30.31 | 4:28.29 | 132781 | 152909
8 | 33:58.60 | 5:55.26 | 152910 | 179560
9 | 39:54.11 | 9:11.69 | 179561 | 220954
10 | 49:06.05 | 4:59.01 | 220955 | 243380
11 | 54:05.06 | 4:47.47 | 243381 | 264952
12 | 58:52.53 | 5:44.60 | 264953 | 290812


Track 1

Filename D:\Music\EAC Rips\[BEDQUATIICD] John Digweed - Quattro II (2021) [CD FLAC]\John Digweed - Quattro II DISC IV - JUXTAPOSITION\01 Free Fall.wav

Pre-gap length 0:00:02.00

Peak level 87.9 %
Extraction speed 4.4 X
Track quality 100.0 %
Test CRC D1FC6FD8
Copy CRC D1FC6FD8
Track not present in AccurateRip database
Copy OK

Track 2

Filename D:\Music\EAC Rips\[BEDQUATIICD] John Digweed - Quattro II (2021) [CD FLAC]\John Digweed - Quattro II DISC IV - JUXTAPOSITION\02 Pur Pur.wav

Peak level 94.2 %
Extraction speed 4.6 X
Track quality 100.0 %
Test CRC 609FB36E
Copy CRC 609FB36E
Track not present in AccurateRip database
Copy OK

Track 3

Filename D:\Music\EAC Rips\[BEDQUATIICD] John Digweed - Quattro II (2021) [CD FLAC]\John Digweed - Quattro II DISC IV - JUXTAPOSITION\03 Wonderforest.wav

Peak level 78.9 %
Extraction speed 5.6 X
Track quality 100.0 %
Test CRC 055A8989
Copy CRC 055A8989
Track not present in AccurateRip database
Copy OK

Track 4

Filename D:\Music\EAC Rips\[BEDQUATIICD] John Digweed - Quattro II (2021) [CD FLAC]\John Digweed - Quattro II DISC IV - JUXTAPOSITION\04 Bizzarre Color Bending.wav

Peak level 94.3 %
Extraction speed 5.7 X
Track quality 99.9 %
Test CRC A866860C
Copy CRC A866860C
Track not present in AccurateRip database
Copy OK

Track 5

Filename D:\Music\EAC Rips\[BEDQUATIICD] John Digweed - Quattro II (2021) [CD FLAC]\John Digweed - Quattro II DISC IV - JUXTAPOSITION\05 Walking With Closed Eyes.wav

Peak level 94.3 %
Extraction speed 6.8 X
Track quality 100.0 %
Test CRC 6BEE5C1F
Copy CRC 6BEE5C1F
Track not present in AccurateRip database
Copy OK

Track 6

Filename D:\Music\EAC Rips\[BEDQUATIICD] John Digweed - Quattro II (2021) [CD FLAC]\John Digweed - Quattro II DISC IV - JUXTAPOSITION\06 Focus On The Light.wav

Peak level 87.7 %
Extraction speed 6.7 X
Track quality 100.0 %
Test CRC 76691A20
Copy CRC 76691A20
Track not present in AccurateRip database
Copy OK

Track 7

Filename D:\Music\EAC Rips\[BEDQUATIICD] John Digweed - Quattro II (2021) [CD FLAC]\John Digweed - Quattro II DISC IV - JUXTAPOSITION\07 Resonance.wav

Peak level 79.1 %
Extraction speed 7.2 X
Track quality 100.0 %
Test CRC C1C8D60D
Copy CRC C1C8D60D
Track not present in AccurateRip database
Copy OK

Track 8

Filename D:\Music\EAC Rips\[BEDQUATIICD] John Digweed - Quattro II (2021) [CD FLAC]\John Digweed - Quattro II DISC IV - JUXTAPOSITION\08 Water Mirrors.wav

Peak level 94.2 %
Extraction speed 7.8 X
Track quality 100.0 %
Test CRC F9CE1ACE
Copy CRC F9CE1ACE
Track not present in AccurateRip database
Copy OK

Track 9

Filename D:\Music\EAC Rips\[BEDQUATIICD] John Digweed - Quattro II (2021) [CD FLAC]\John Digweed - Quattro II DISC IV - JUXTAPOSITION\09 Love Tree.wav

Peak level 77.6 %
Extraction speed 8.5 X
Track quality 100.0 %
Test CRC 5ACD5F36
Copy CRC 5ACD5F36
Track not present in AccurateRip database
Copy OK

Track 10

Filename D:\Music\EAC Rips\[BEDQUATIICD] John Digweed - Quattro II (2021) [CD FLAC]\John Digweed - Quattro II DISC IV - JUXTAPOSITION\10 Future City.wav

Peak level 79.9 %
Extraction speed 8.4 X
Track quality 100.0 %
Test CRC 0B405CB9
Copy CRC 0B405CB9
Track not present in AccurateRip database
Copy OK

Track 11

Filename D:\Music\EAC Rips\[BEDQUATIICD] John Digweed - Quattro II (2021) [CD FLAC]\John Digweed - Quattro II DISC IV - JUXTAPOSITION\11 World Of Distance.wav

Peak level 83.0 %
Extraction speed 8.6 X
Track quality 100.0 %
Test CRC 059B1DF3
Copy CRC 059B1DF3
Track not present in AccurateRip database
Copy OK

Track 12

Filename D:\Music\EAC Rips\[BEDQUATIICD] John Digweed - Quattro II (2021) [CD FLAC]\John Digweed - Quattro II DISC IV - JUXTAPOSITION\12 Violett Nights.wav

Peak level 70.7 %
Extraction speed 9.1 X
Track quality 100.0 %
Test CRC 80458444
Copy CRC 80458444
Track not present in AccurateRip database
Copy OK


None of the tracks are present in the AccurateRip database

No errors occurred

End of status report

–– CUETools DB Plugin V2.1.6

[CTDB TOCID: M1SxfUxjKq7wu6jYmLykfD.bVI4-] found
Submit result: already submitted
Track | CTDB Status
1 | (5/5) Accurately ripped
2 | (5/5) Accurately ripped
3 | (5/5) Accurately ripped
4 | (5/5) Accurately ripped
5 | (5/5) Accurately ripped
6 | (5/5) Accurately ripped
7 | (5/5) Accurately ripped
8 | (5/5) Accurately ripped
9 | (5/5) Accurately ripped
10 | (5/5) Accurately ripped
11 | (5/5) Accurately ripped
12 | (5/5) Accurately ripped


==== Log checksum 783FEFCFDA702A77F6E6F909C8A716DBCCE3B4EBE36BDCA76F1C0E8997305B2F ====

Tracklist :::
Soundscape
1. Acid Rockers – Exploring Delta Dub
2. Stelios Vassiloudis – Alone
3. Betical – Icon – Reincarnation
4. Hannes Bieger feat. Juan Hansen – Burn Your Love – Synthapella
5. Satoshi Fumi & Ian O’Donovan – Rising – Ambient Mix
6. Josh Wink – “New Years Day Acid” (Beat-less reprise)
7. Guy Mantzur & Khen – My Golden cage ( Kasper Koman 6AM reprise)
8. Satoshi Fumi – Manis – Firmament Mix
9. Lopezhouse – Long Rain
10. Luke Brancaccio, Gai Barone & Kiki Cave – We Live Electric – Dub Mix
11. Dave Walker – Embrace
12. Coloursound – Fly With Me – T_Mo & Luke Brancaccio Downtempo Remix
13. Quivver – Nothing New To Feel – No Beats Mix

Tempo
1. John Digweed & Nick Muir – Stand Still
2. Buraki – Green Lake
3. EdOne feat Martin Herrs & Santanamusique – Morning Flight
4. Remcord – Soul Plane
5. Dino Lenny – Sweet Paranoia
6. Acid Rockers – Exploring Delta Nine
7. Mono Electric Orchestra – Space Bass
8. Dino Lenny – Dance The Blues
9. Blaktone & Florian Kruse – Saat
10. Coloursound – Fly With Me – Luke Brancaccio & Nolan Remix
11. Jim Rivers – Aster
12. Aubrey Fry – Hard
13. Robert Babicz – Ani

Redux
1. Stelios Vassiloudis – Rust – Breaks Mix
2. John Digweed & Nick Muir – Forge – Kohra Remix
3. Tigerhook Presents Randall Jones – Beautiful Thang – Bushwacka Remix
4. Science Dept. – Persuasion – Chris Fortier Remix
5. Bedrock – Beautiful Strange – Lost Desert Remix
6. Guy Mantzur & Khen – My Golden Cage – Kasper Koman 6AM Remix
7. John Digweed & Nick Muir – Stand Still – Lopezhouse Remix
8. Emerson, Digweed, Muir – Tracer – Ian O’Donovan Dawn Mix
9. John Digweed & Nick Muir – Raise – Quivver Remix
10. John Digweed & Nick Muir – Satellite – Satoshi Fumi Remix
11. Miles Atmospheric feat: The Apparition – Calling You Out – Josh Wink Paradise Dub
12. Quivver – Don’t Say Anything – Skanna Remix

Juxtaposition – Robert Babicz

Juxtaposition with Robert Babicz
An original album of futuristic electronica and ambient textures

1. Free Fall
2. Pur Pur
3. Wonderforest
4. Bizzarre Color Bending
5. Walking With Closed Eyes
6. Focus On The Light
7. Resonance
8. Water Mirrors
9. Love Tree
10. Future City
11. World Of Distance
12. Violett Nights


Thanks to Original Re-leaser.