Subcategories

Kasabian - Velociraptor! (2011) CD+DVD Limited Edition [Re-Up]

Posted By: Designol
Kasabian - Velociraptor! (2011) CD+DVD Limited Edition [Re-Up]

Kasabian - Velociraptor! (2011) Limited Edition [CD+DVD]
EAC | FLAC | Tracks (Cue&Log) ~ 330 Mb | Mp3 (CBR320) ~ 118 Mb | Time: 00:50:38
DVD9 | NTSC | 16:9 (720x480) VBR | LPCM 2 ch, 1536 kbps or AC3 5 ch, 448 kbps | 7 Gb | 01:54:01
Indie Rock, Alternative Rock, BritPop | Label: Columbia/Sony | # PARADISE70 | Scans ~ 48 Mb

Velociraptor! is a primordial beast of a record that confirms the band's place at the top table of modern day rock'n'roll legends. Written and produced by Serge, the album was recorded in Leicester and mixed in San Francisco. The deluxe CD+DVD edition contains an audio CD with the regular album tracklisting, and a DVD featuring the band's live show from the O2 Dublin on November 27th 2009; 21 tracks in total, listed in the format details below.

Kasabian’s big PR problem is they’ve never had a Pulp-like wit about them, and their ability to communicate the human condition has been limited to drug trip visions and fist-pumping hippie lyrics that come off as Shaun Ryder-lite. Plus, an Oasis-esque hunger for arena domination just oozes out of this band, so they’re firmly in the “love ‘em or hate ‘em” category, and never more so than on Velociraptor! Here, they’ve got the audacity to open their album with a gong, which gives way to a Mexican trumpet riff, a funky, spy-movie bassline, and production that screams “mod!” That’s possibly the most convoluted way to go “back to basics,” as the opening “Let's Roll Just Like We Used To” infers, but Kasabian have been a band of post-Brit-pop possibilities from the get go, so bringing in techno, ethnic sounds, and an orchestra is coming home for this impudent crew. The hurdle that must be jumped is that wild ideas sometimes take precedence over great ideas, but everything is shaped into a winner thanks to the group’s undying allegiance to the groove. It icky thumps like White Stripes on the gutsy “Re-Wired” and peaks the meters on the Chemical Brothers-like title track. If the bold lyrics don’t always work, the hooks cover that up just fine, and even as everything and two kitchen sinks are thrown at the listener – productions shifts and epic constructions abound – the album is right-sized, laying the whole circus out in 11 tracks and pulling up stakes right before the audience tires of the spectacle. Megaton beats still mix well with high-flying, Gallagher brothers-styled melodies, so anyone who wished “Setting Sun” would have supernova’d into an album will have no problem embracing this one.

Review by David Jeffries, Allmusic.com

Kasabian - Velociraptor! (2011) CD+DVD Limited Edition [Re-Up]



Tracklist:

01. Let's Roll Just Like We Used To (4:48)
02. Days Are Forgotten (5:03)
03. Goodbye Kiss (4:07)
04. La Fee Verte (5:48)
05. Velociraptor! (2:54)
06. Acid Turkish Bath (Shelter From The Storm) (6:02)
07. I Hear Voices (3:59)
08. Re-Wired (4:47)
09. Man Of Simple Pleasures (3:52)
10. Switchblade Smiles (4:15)
11. Neon Noon (5:21)


Exact Audio Copy V1.0 beta 3 from 29. August 2011

EAC extraction logfile from 25. June 2014, 20:18

Kasabian / Velociraptor!

Used drive : Optiarc BD ROM BC-5100S Adapter: 1 ID: 2

Read mode : Secure
Utilize accurate stream : Yes
Defeat audio cache : Yes
Make use of C2 pointers : No

Read offset correction : 667
Overread into Lead-In and Lead-Out : No
Fill up missing offset samples with silence : Yes
Delete leading and trailing silent blocks : No
Null samples used in CRC calculations : Yes
Used interface : Native Win32 interface for Win NT & 2000
Gap handling : Appended to previous track

Used output format : User Defined Encoder
Selected bitrate : 1024 kBit/s
Quality : High
Add ID3 tag : No
Command line compressor : C:\Program Files\Exact Audio Copy\Flac\flac.exe
Additional command line options : -8 -V -T "ARTIST=%artist%" -T "TITLE=%title%" -T "ALBUM=%albumtitle%" -T "DATE=%year%" -T "TRACKNUMBER=%tracknr%" -T "GENRE=%genre%" -T "PERFORMER=%albuminterpret%" -T "COMPOSER=%composer%" %haslyrics%–tag-from-file=LYRICS="%lyricsfile%"%haslyrics% -T "ALBUMARTIST=%albumartist%" -T "DISCNUMBER=%cdnumber%" -T "TOTALDISCS=%totalcds%" -T "TOTALTRACKS=%numtracks%" -T "COMMENT=%comment%" %source% -o %dest%


TOC of the extracted CD

Track | Start | Length | Start sector | End sector
––––––––––––––––––––––––––––-
1 | 0:00.00 | 4:47.59 | 0 | 21583
2 | 4:47.59 | 5:02.58 | 21584 | 44291
3 | 9:50.42 | 4:06.57 | 44292 | 62798
4 | 13:57.24 | 5:47.56 | 62799 | 88879
5 | 19:45.05 | 2:54.18 | 88880 | 101947
6 | 22:39.23 | 6:02.07 | 101948 | 129104
7 | 28:41.30 | 3:58.66 | 129105 | 147020
8 | 32:40.21 | 4:47.06 | 147021 | 168551
9 | 37:27.27 | 3:51.53 | 168552 | 185929
10 | 41:19.05 | 4:14.65 | 185930 | 205044
11 | 45:33.70 | 5:20.51 | 205045 | 229095


Track 1

Filename F:\Kasabian\Albums\2011 - Velociraptor!\01 - Let's Roll Just Like We Used To.wav

Pre-gap length 0:00:02.00

Peak level 100.0 %
Extraction speed 1.0 X
Track quality 100.0 %
Test CRC 3CD0EF8B
Copy CRC 3CD0EF8B
Accurately ripped (confidence 200) [53599DFA] (AR v2)
Copy OK

Track 2

Filename F:\Kasabian\Albums\2011 - Velociraptor!\02 - Days Are Forgotten.wav

Pre-gap length 0:00:00.50

Peak level 100.0 %
Extraction speed 1.1 X
Track quality 99.9 %
Test CRC C483E608
Copy CRC C483E608
Accurately ripped (confidence 200) [8BF1F13C] (AR v2)
Copy OK

Track 3

Filename F:\Kasabian\Albums\2011 - Velociraptor!\03 - Goodbye Kiss.wav

Pre-gap length 0:00:00.16

Peak level 100.0 %
Extraction speed 1.3 X
Track quality 100.0 %
Test CRC 7BA705C7
Copy CRC 7BA705C7
Accurately ripped (confidence 200) [5C605848] (AR v2)
Copy OK

Track 4

Filename F:\Kasabian\Albums\2011 - Velociraptor!\04 - La Fée Verte.wav

Pre-gap length 0:00:02.80

Peak level 100.0 %
Extraction speed 1.4 X
Track quality 100.0 %
Test CRC 42F5703D
Copy CRC 42F5703D
Accurately ripped (confidence 200) [47781DCF] (AR v2)
Copy OK

Track 5

Filename F:\Kasabian\Albums\2011 - Velociraptor!\05 - Velociraptor!.wav

Peak level 100.0 %
Extraction speed 1.4 X
Track quality 100.0 %
Test CRC 4E405CF7
Copy CRC 4E405CF7
Accurately ripped (confidence 200) [6DC7B156] (AR v2)
Copy OK

Track 6

Filename F:\Kasabian\Albums\2011 - Velociraptor!\06 - Acid Turkish Bath (Shelter From The Storm).wav

Pre-gap length 0:00:02.68

Peak level 100.0 %
Extraction speed 1.6 X
Track quality 100.0 %
Test CRC 66F8E119
Copy CRC 66F8E119
Accurately ripped (confidence 200) [F0A83F37] (AR v2)
Copy OK

Track 7

Filename F:\Kasabian\Albums\2011 - Velociraptor!\07 - I Hear Voices.wav

Pre-gap length 0:00:00.61

Peak level 100.0 %
Extraction speed 1.6 X
Track quality 100.0 %
Test CRC 57D7CC69
Copy CRC 57D7CC69
Accurately ripped (confidence 200) [78BFCEB0] (AR v2)
Copy OK

Track 8

Filename F:\Kasabian\Albums\2011 - Velociraptor!\08 - Re-Wired.wav

Peak level 100.0 %
Extraction speed 1.7 X
Track quality 100.0 %
Test CRC 4E51223D
Copy CRC 4E51223D
Accurately ripped (confidence 200) [843193AA] (AR v2)
Copy OK

Track 9

Filename F:\Kasabian\Albums\2011 - Velociraptor!\09 - Man Of Simple Pleasures.wav

Pre-gap length 0:00:02.89

Peak level 100.0 %
Extraction speed 1.6 X
Track quality 99.9 %
Test CRC D132AEAE
Copy CRC D132AEAE
Accurately ripped (confidence 200) [E427A9B8] (AR v2)
Copy OK

Track 10

Filename F:\Kasabian\Albums\2011 - Velociraptor!\10 - Switchblade Smiles.wav

Pre-gap length 0:00:00.61

Peak level 100.0 %
Extraction speed 1.9 X
Track quality 100.0 %
Test CRC 318F5786
Copy CRC 318F5786
Accurately ripped (confidence 200) [8DB75AE0] (AR v2)
Copy OK

Track 11

Filename F:\Kasabian\Albums\2011 - Velociraptor!\11 - Neon Noon.wav

Pre-gap length 0:00:01.32

Peak level 100.0 %
Extraction speed 2.0 X
Track quality 100.0 %
Test CRC 17A83B8B
Copy CRC 17A83B8B
Accurately ripped (confidence 200) [C9CD2F5B] (AR v2)
Copy OK


All tracks accurately ripped

No errors occurred

End of status report

–– CUETools DB Plugin V2.1.3

[CTDB TOCID: K38JMbcPUn_h2krvf6OL9mM2Dco-] found, Submit result: K38JMbcPUn_h2krvf6OL9mM2Dco- has been confirmed
[2b4f8a6a] (178/181) Accurately ripped
[915c8405] (001/181) No match
[c50e6ff2] (001/181) No match
[961a1797] (001/181) No match


==== Log checksum 8BDE93D5C2A2E692D158A1452FD58A3904B6C8B543ACA658154F857327B29477 ====

[CUETools log; Date: 14.10.2018 17:45:33; Version: 2.1.4]
[CTDB TOCID: K38JMbcPUn_h2krvf6OL9mM2Dco-] found.
Track | CTDB Status
1 | (602/606) Accurately ripped
2 | (603/606) Accurately ripped
3 | (605/606) Accurately ripped
4 | (605/606) Accurately ripped
5 | (605/606) Accurately ripped
6 | (602/606) Accurately ripped
7 | (604/606) Accurately ripped
8 | (602/606) Accurately ripped
9 | (603/606) Accurately ripped
10 | (604/606) Accurately ripped
11 | (601/606) Accurately ripped
[AccurateRip ID: 00151f3c-00b640d3-a50bee0b] found.
Track [ CRC | V2 ] Status
01 [d1a165b9|53599dfa] (034+200/289) Accurately ripped
02 [f6317893|8bf1f13c] (036+200/291) Accurately ripped
03 [521bc321|5c605848] (035+200/290) Accurately ripped
04 [f1b7632c|47781dcf] (036+200/291) Accurately ripped
05 [19ad4ce2|6dc7b156] (035+200/290) Accurately ripped
06 [109a0085|f0a83f37] (035+200/290) Accurately ripped
07 [b1513dac|78bfceb0] (035+200/290) Accurately ripped
08 [cf344ecd|843193aa] (035+200/288) Accurately ripped
09 [cf1cefe6|e427a9b8] (035+200/290) Accurately ripped
10 [85031be1|8db75ae0] (035+200/288) Accurately ripped
11 [5389debb|c9cd2f5b] (035+200/288) Accurately ripped
Offsetted by -12:
01 [a96f1845] (010/289) Accurately ripped
02 [d0c2815f] (010/291) Accurately ripped
03 [0226e89d] (010/290) Accurately ripped
04 [02195e25] (010/291) Accurately ripped
05 [5ea307f1] (010/290) Accurately ripped
06 [6f597b91] (010/290) Accurately ripped
07 [8c4cd008] (010/290) Accurately ripped
08 [921187f1] (010/288) Accurately ripped
09 [57acc43e] (010/290) Accurately ripped
10 [57dc6be5] (010/288) Accurately ripped
11 [73c8eb33] (010/288) Accurately ripped
Offsetted by -42:
01 [44f156a3] (002/289) Accurately ripped
02 [f32d175d] (002/291) Accurately ripped
03 [ba42c653] (002/290) Accurately ripped
04 [289164c5] (002/291) Accurately ripped
05 [b2bbef31] (002/290) Accurately ripped
06 [5c382f2f] (002/290) Accurately ripped
07 [afc1bdee] (002/290) Accurately ripped
08 [f93a96cb] (000/288) No match (V2 was not tested)
09 [ad14571a] (002/290) Accurately ripped
10 [66fbb3ef] (000/288) No match (V2 was not tested)
11 [44668a5f] (000/288) No match (V2 was not tested)
Offsetted by 6:
01 [e5ba8c73] (000/289) No match (V2 was not tested)
02 [88e8f42d] (000/291) No match (V2 was not tested)
03 [fa163063] (000/290) No match (V2 was not tested)
04 [27b1e45e] (000/291) No match (V2 was not tested)
05 [e6a86070] (000/290) No match (V2 was not tested)
06 [e13a42ff] (000/290) No match (V2 was not tested)
07 [43d3747e] (000/290) No match (V2 was not tested)
08 [edc5b23b] (000/288) No match (V2 was not tested)
09 [8ad505ba] (000/290) No match (V2 was not tested)
10 [1b9673df] (000/288) No match (V2 was not tested)
11 [c36a587f] (000/288) No match (V2 was not tested)

Track Peak [ CRC32 ] [W/O NULL] [ LOG ]
– 100,0 [38EE32AE] [80AA1D86]
01 100,0 [3CD0EF8B] [74CD9367] CRC32
02 100,0 [C483E608] [FD045363] CRC32
03 100,0 [7BA705C7] [56F94C60] CRC32
04 100,0 [42F5703D] [F1CA2FBD] CRC32
05 100,0 [4E405CF7] [EEA43C43] CRC32
06 100,0 [66F8E119] [16DB88B0] CRC32
07 100,0 [57D7CC69] [D4E36DF3] CRC32
08 100,0 [4E51223D] [CF1E08FB] CRC32
09 100,0 [D132AEAE] [C806787D] CRC32
10 100,0 [318F5786] [843B78CE] CRC32
11 100,0 [17A83B8B] [D51F1702] CRC32

foobar2000 1.2 / Dynamic Range Meter 1.1.1
log date: 2018-10-14 17:44:07

––––––––––––––––––––––––––––––––––––––––
Analyzed: Kasabian / Velociraptor!
––––––––––––––––––––––––––––––––––––––––

DR Peak RMS Duration Track
––––––––––––––––––––––––––––––––––––––––
DR7 0.00 dB -9.58 dB 4:48 01-Let's Roll Just Like We Used To
DR7 0.00 dB -8.18 dB 5:03 02-Days Are Forgotten
DR6 0.00 dB -7.96 dB 4:07 03-Goodbye Kiss
DR7 0.00 dB -9.67 dB 5:48 04-La Fee Verte
DR6 0.00 dB -6.86 dB 2:54 05-Velociraptor!
DR7 0.00 dB -9.85 dB 6:02 06-Acid Turkish Bath (Shelter From The Storm)
DR8 0.00 dB -9.73 dB 3:59 07-I Hear Voices
DR6 0.00 dB -8.50 dB 4:47 08-Re-Wired
DR7 0.00 dB -8.98 dB 3:52 09-Man Of Simple Pleasures
DR6 0.00 dB -8.70 dB 4:15 10-Switchblade Smiles
DR9 0.00 dB -12.80 dB 5:21 11-Neon Noon
––––––––––––––––––––––––––––––––––––––––

Number of tracks: 11
Official DR value: DR7

Samplerate: 44100 Hz
Channels: 2
Bits per sample: 16
Bitrate: 706 kbps
Codec: FLAC
================================================================================


Kasabian - Velociraptor! (2011) CD+DVD Limited Edition [Re-Up]

Kasabian - Velociraptor! (2011) CD+DVD Limited Edition [Re-Up]

Kasabian - Velociraptor! (2011) CD+DVD Limited Edition [Re-Up]

Kasabian - Velociraptor! (2011) CD+DVD Limited Edition [Re-Up]

Kasabian - Velociraptor! (2011) CD+DVD Limited Edition [Re-Up]

Kasabian - Velociraptor! (2011) CD+DVD Limited Edition [Re-Up]


DVD Tracklist:

Live From The O2 Dublin (27.11.09) - 24:18
01. Julie And The Moth Man - 6:14
02. Underdog - 5:04
03. Where Did All The Love Go? - 4:17
04. Swarfiga - 2:22
05. Shoot The Runner - 4:00
06. Cutt Off - 5:28
07. Processed Beats - 3:47
08. West Ryder Silver Bullet - 6:08
09. Thick As Thieves - 3:21
10. Take Aim - 6:12
11. Empire - 4:22
12. Last Trip (In Flight) - 3:02
13. I.D - 5:49
14. Ladies And Gentlemen (Roll The Dice) - 3:59
15. Fire - 5:00
16. Fast Fuse - 6:15
17. The Doberman - 8:21
18. Club Foot - 5:32
19. Vlad The Impaler - 6:40
20. Stuntman - 5:28
21. L.S.F (Lost Souls Forever) - 9:10


Kasabian - Velociraptor! (2011) CD+DVD Limited Edition [Re-Up]

Kasabian - Velociraptor! (2011) CD+DVD Limited Edition [Re-Up]