Tags
Language
Tags

Kate Bush - Director's Cut (2011) Collector’s Edition 3 CD Box Set [Re-Up]

Posted By: Designol
Kate Bush - Director's Cut (2011) Collector’s Edition 3 CD Box Set [Re-Up]

Kate Bush - Director's Cut (2011) Collector’s Edition 3 CD Box Set
EAC | FLAC | Image (Cue&Log) ~ 854 Mb | Mp3 (CBR320) ~ 364 Mb | Scans ~ 255 Mb
Label: Fish People | # FPCDX001, 5099902777320 | Time: 02:38:13
Genre: Art Rock, Alternative Pop/Rock

Deluxe three CD edition includes Director's Cut plus remastered versions of the Sensual World and the Red Shoes, all housed in a case-bound book. 2011 album from the British songstress. On Directors Cut, Kate revisits a selection of tracks from her albums the Sensual World and the Red Shoes, a process that presents a fascinating portrait of an artist in a constant state of evolution. She has re-recorded some elements whilst keeping the best musical performances of each song - making it something of a director's cut but in sound, not vision. All the lead vocals and drums are new performances, some of the tracks featuring guests including Steve Gadd, Danny Thompson and, on backing vocals, Mica Paris. Three songs have been completely re-recorded, one of which is 'This Woman's Work'.

During her early career, Kate Bush released albums regularly despite her reputation as a perfectionist in the studio. Her first five were released within seven years. After The Hounds of Love in 1985, however, the breaks between got longer: The Sensual World appeared in 1989 and The Red Shoes in 1993. Then, nothing before Aerial, a double album issued in 2005. It's taken six more years to get The Director's Cut, an album whose material isn't new, though its presentation is. Four of this set's 11 tracks first appeared on The Sensual World, while the other seven come from The Red Shoes. Bush's reasons for re-recording these songs is a mystery. She does have her own world-class recording studio, and given the sounds here, she's kept up with technology. Some of these songs are merely tweaked, and pleasantly so, while others are radically altered. The two most glaring examples are "Flower of the Mountain" (previously known as "The Sensual World") and "This Woman's Work." The former intended to use Molly Bloom's soliloquy from James Joyce's novel Ulysses as its lyric; Bush was refused permission by his estate. That decision was eventually reversed; hence she re-recorded the originally intended lyrics. And while the arrangement is similar, there are added layers of synth and percussion. Her voice is absent the wails and hiccupy gasps of her youthful incarnation. These have been replaced by somewhat huskier, even more luxuriant and elegant tones. On the latter song, the arrangement of a full band and Michael Nyman's strings are replaced by a sparse, reverbed electric piano which pans between speakers. This skeletal arrangement frames Bush's more prominent vocal which has grown into these lyrics and inhabits them in full: their regrets, disappointments, and heartbreaks with real acceptance. She lets that voice rip on "Lilly," supported by a tougher, punchier bassline, skittering guitar efx, and a hypnotic drum loop. Bush's son Bertie makes an appearance as the voice of the computer (with Auto-Tune) on "Deeper Understanding." On "RubberBand Girl," Bush pays homage to the Rolling Stones' opening riff from "Street Fighting Man" in all its garagey glory (which one suspects was always there and has now been uncovered). The experience of The Director's Cut, encountering all this familiar material in its new dressing, is more than occasionally unsettling, but simultaneously, it is deeply engaging and satisfying.

Review by Thom Jurek, Allmusic.com

Kate Bush - Director's Cut (2011) Collector’s Edition 3 CD Box Set [Re-Up]





Kate Bush - Director's Cut (2011) Collector’s Edition 3 CD Box Set [Re-Up]

CD1: Director's Cut
EAC | FLAC | Image (Cue&Log) ~ 275 Mb | Mp3 (CBR320) ~ 131 Mb | Time: 00:57:03


Tracklist:

01. Flower of the Mountain (Originally Titled The Sensual World) (5:15)
02. Song of Solomon (4:45)
03. Lily (4:05)
04. Deeper Understanding (6:33)
05. The Red Shoes (4:58)
06. This Woman's Work (6:30)
07. Moments of Pleasure (6:32)
08. Never Be Mine (5:05)
09. Top of the City (4:24)
10. And So Is Love (4:21)
11. Rubberband Girl (4:37)


Exact Audio Copy V1.0 beta 1 from 15. November 2010

EAC extraction logfile from 17. June 2011, 22:40

Kate Bush / 2011 - Director's Cut (Disc 01) Director's Cut

Used drive : ASUS DRW-24B1ST Adapter: 0 ID: 0

Read mode : Secure
Utilize accurate stream : Yes
Defeat audio cache : Yes
Make use of C2 pointers : No

Read offset correction : 6
Overread into Lead-In and Lead-Out : No
Fill up missing offset samples with silence : Yes
Delete leading and trailing silent blocks : No
Null samples used in CRC calculations : Yes
Used interface : Native Win32 interface for Win NT & 2000

Used output format : User Defined Encoder
Selected bitrate : 768 kBit/s
Quality : High
Add ID3 tag : No
Command line compressor : C:\Program Files\Exact Audio Copy\FLAC\FLAC.EXE
Additional command line options : -8 -V -T "ARTIST=%a" -T "TITLE=%t" -T "ALBUM=%g" -T "DATE=%y" -T "TRACKNUMBER=%n" -T "GENRE=%m" -T "COMMENT=%e" %j–picture="%i"%j %s -o %d


TOC of the extracted CD

Track | Start | Length | Start sector | End sector
––––––––––––––––––––––––––––-
1 | 0:00.00 | 5:15.04 | 0 | 23628
2 | 5:15.04 | 4:44.68 | 23629 | 44996
3 | 9:59.72 | 4:04.46 | 44997 | 63342
4 | 14:04.43 | 6:33.36 | 63343 | 92853
5 | 20:38.04 | 4:58.05 | 92854 | 115208
6 | 25:36.09 | 6:29.43 | 115209 | 144426
7 | 32:05.52 | 6:31.55 | 144427 | 173806
8 | 38:37.32 | 5:05.25 | 173807 | 196706
9 | 43:42.57 | 4:23.40 | 196707 | 216471
10 | 48:06.22 | 4:20.47 | 216472 | 236018
11 | 52:26.69 | 4:36.53 | 236019 | 256771


Range status and errors

Selected range

Filename C:\_EAC\Kate Bush - 2011 - Director's Cut - CD1\Kate Bush - 2011 - Director's Cut (Disc 01).wav

Peak level 100.0 %
Extraction speed 0.5 X
Range quality 100.0 %
Test CRC A16B426D
Copy CRC A16B426D
Copy OK

No errors occurred


AccurateRip summary

Track 1 accurately ripped (confidence 20) [A8D2256D]
Track 2 accurately ripped (confidence 20) [9148C9A6]
Track 3 accurately ripped (confidence 20) [58DA2EC5]
Track 4 accurately ripped (confidence 20) [B0E1C04B]
Track 5 accurately ripped (confidence 20) [1EA02465]
Track 6 accurately ripped (confidence 19) [4AB17201]
Track 7 accurately ripped (confidence 19) [2FA6A78C]
Track 8 accurately ripped (confidence 19) [13AF9FA1]
Track 9 accurately ripped (confidence 19) [93789B4A]
Track 10 accurately ripped (confidence 19) [94D5EDA6]
Track 11 accurately ripped (confidence 19) [29E07F7B]

All tracks accurately ripped

End of status report

==== Log checksum E0FA68F2C09BA44FEBACFF57AA3AD51F7635E943097376DC50191676AD2113B2 ====

[CUETools log; Date: 22.06.2016 17:43:53; Version: 2.1.4]
[CTDB TOCID: mGr.1R_3RsubCnuiXMfTANJA2xQ-] found.
Track | CTDB Status
1 | (332/377) Accurately ripped
2 | (333/377) Accurately ripped
3 | (333/377) Accurately ripped
4 | (333/377) Accurately ripped
5 | (333/377) Accurately ripped
6 | (333/377) Accurately ripped
7 | (331/377) Accurately ripped
8 | (329/377) Accurately ripped
9 | (331/377) Accurately ripped
10 | (330/377) Accurately ripped
11 | (331/377) Accurately ripped
[AccurateRip ID: 0017de4c-00cf991b-980d5f0b] found.
Track [ CRC | V2 ] Status
01 [a8d2256d|8e0e3df0] (117+200/395) Accurately ripped
02 [9148c9a6|c8ef91e9] (118+200/396) Accurately ripped
03 [58da2ec5|f0afb384] (117+200/394) Accurately ripped
04 [b0e1c04b|59f4b5f7] (116+200/393) Accurately ripped
05 [1ea02465|6ee774ec] (116+200/393) Accurately ripped
06 [4ab17201|2a338965] (117+200/394) Accurately ripped
07 [2fa6a78c|6ad91691] (118+200/395) Accurately ripped
08 [13af9fa1|98bef0c7] (117+200/392) Accurately ripped
09 [93789b4a|62c7339d] (114+200/390) Accurately ripped
10 [94d5eda6|7f5615b5] (115+200/391) Accurately ripped
11 [29e07f7b|e2eb9a68] (115+200/393) Accurately ripped
Offsetted by 6:
01 [ad248ced] (000/395) No match (V2 was not tested)
02 [9860b05b] (000/396) No match (V2 was not tested)
03 [aa08fba9] (000/394) No match (V2 was not tested)
04 [0e4535cf] (000/393) No match (V2 was not tested)
05 [8bac35e3] (000/393) No match (V2 was not tested)
06 [a531e3f5] (000/394) No match (V2 was not tested)
07 [c8659bdd] (000/395) No match (V2 was not tested)
08 [381d961d] (000/392) No match (V2 was not tested)
09 [35fd9721] (000/390) No match (V2 was not tested)
10 [31a025d6] (000/391) No match (V2 was not tested)
11 [25b433ac] (000/393) No match (V2 was not tested)

Track Peak [ CRC32 ] [W/O NULL] [ LOG ]
– 100,0 [A16B426D] [B2A79F27] CRC32
01 88,5 [76EAED27] [711060D7]
02 91,1 [C85ABE17] [CF7BA4EA]
03 98,5 [8A97ACD0] [DAB86AAA]
04 100,0 [80B910AE] [9CCA31D5]
05 92,7 [97EB0F37] [F081FFB1]
06 73,0 [75C0D06D] [4B341A56]
07 63,2 [40F13F72] [DE7F757F]
08 84,7 [47763BF8] [D47ACBAF]
09 98,5 [D8230CE0] [99A48EBB]
10 100,0 [87DF41AD] [9B821197]
11 97,8 [CE3819A1] [85A7CF29]

foobar2000 1.2 / Dynamic Range Meter 1.1.1
log date: 2016-06-22 17:49:54

––––––––––––––––––––––––––––––––––––––––
Analyzed: Kate Bush / 2011 - Director's Cut (Disc 01) Director's Cut
––––––––––––––––––––––––––––––––––––––––

DR Peak RMS Duration Track
––––––––––––––––––––––––––––––––––––––––
DR13 -1.06 dB -16.35 dB 5:15 01-Flower Of The Mountain (Originally Titled The Sensual World)
DR11 -0.80 dB -15.15 dB 4:45 02-Song Of Solomon
DR14 -0.13 dB -16.80 dB 4:05 03-Lily
DR15 0.00 dB -17.17 dB 6:33 04-Deeper Understanding
DR14 -0.66 dB -16.77 dB 4:58 05-The Red Shoes
DR12 -2.72 dB -20.47 dB 6:30 06-This Woman's Work
DR12 -3.97 dB -20.13 dB 6:32 07-Moments Of Pleasure
DR15 -1.44 dB -19.63 dB 5:05 08-Never Be Mine
DR14 -0.12 dB -17.37 dB 4:24 09-Top Of The City
DR12 0.00 dB -15.13 dB 4:21 10-And So Is Love
DR14 -0.18 dB -16.03 dB 4:37 11-Rubberband Girl
––––––––––––––––––––––––––––––––––––––––

Number of tracks: 11
Official DR value: DR13

Samplerate: 44100 Hz
Channels: 2
Bits per sample: 16
Bitrate: 674 kbps
Codec: FLAC
================================================================================




Kate Bush - Director's Cut (2011) Collector’s Edition 3 CD Box Set [Re-Up]

CD 2: The Sensual World
EAC | FLAC | Image (Cue&Log) ~ 263 Mb | Mp3 (CBR320) ~ 106 Mb | Time: 00:45:56


Tracklist:

01. The Sensual World (3:58)
02. Love and Anger (4:42)
03. The Fog (5:07)
04. Reaching out (3:12)
05. Heads We're Dancing (5:21)
06. Deeper Understanding (4:46)
07. Between a Man and a Woman (3:30)
08. Never Be Mine (3:45)
09. Rocket's Tail (4:07)
10. This Woman's Work (3:39)
11. Walk Straight Down the Middle (3:49)


Exact Audio Copy V1.0 beta 1 from 15. November 2010

EAC extraction logfile from 17. June 2011, 23:18

Kate Bush / 2011 - Director's Cut (Disc 02) The Sensual World

Used drive : ASUS DRW-24B1ST Adapter: 0 ID: 0

Read mode : Secure
Utilize accurate stream : Yes
Defeat audio cache : Yes
Make use of C2 pointers : No

Read offset correction : 6
Overread into Lead-In and Lead-Out : No
Fill up missing offset samples with silence : Yes
Delete leading and trailing silent blocks : No
Null samples used in CRC calculations : Yes
Used interface : Native Win32 interface for Win NT & 2000

Used output format : User Defined Encoder
Selected bitrate : 768 kBit/s
Quality : High
Add ID3 tag : No
Command line compressor : C:\Program Files\Exact Audio Copy\FLAC\FLAC.EXE
Additional command line options : -8 -V -T "ARTIST=%a" -T "TITLE=%t" -T "ALBUM=%g" -T "DATE=%y" -T "TRACKNUMBER=%n" -T "GENRE=%m" -T "COMMENT=%e" %j–picture="%i"%j %s -o %d


TOC of the extracted CD

Track | Start | Length | Start sector | End sector
––––––––––––––––––––––––––––-
1 | 0:00.32 | 3:57.50 | 32 | 17856
2 | 3:58.07 | 4:42.35 | 17857 | 39041
3 | 8:40.42 | 5:06.55 | 39042 | 62046
4 | 13:47.22 | 3:12.35 | 62047 | 76481
5 | 16:59.57 | 5:21.15 | 76482 | 100571
6 | 22:20.72 | 4:46.18 | 100572 | 122039
7 | 27:07.15 | 3:30.25 | 122040 | 137814
8 | 30:37.40 | 3:44.65 | 137815 | 154679
9 | 34:22.30 | 4:07.15 | 154680 | 173219
10 | 38:29.45 | 3:38.67 | 173220 | 189636
11 | 42:08.37 | 3:48.63 | 189637 | 206799


Range status and errors

Selected range

Filename C:\_EAC\Kate Bush - 2011 - Director's Cut - CD2\Kate Bush - 2011 - Director's Cut (Disc 02) The Sensual World.wav

Peak level 100.0 %
Extraction speed 0.2 X
Range quality 100.0 %
Test CRC 8896777F
Copy CRC 8896777F
Copy OK

No errors occurred


AccurateRip summary

Track 1 accurately ripped (confidence 8) [A8D6EB59]
Track 2 accurately ripped (confidence 8) [DA556046]
Track 3 accurately ripped (confidence 8) [35F52362]
Track 4 accurately ripped (confidence 8) [519342BD]
Track 5 accurately ripped (confidence 8) [7E12FA4E]
Track 6 accurately ripped (confidence 8) [0FF5FFDB]
Track 7 accurately ripped (confidence 8) [B38E0BAC]
Track 8 accurately ripped (confidence 8) [6D5EA042]
Track 9 accurately ripped (confidence 8) [063AAB13]
Track 10 accurately ripped (confidence 8) [FF2798E5]
Track 11 accurately ripped (confidence 8) [FCF68F9D]

All tracks accurately ripped

End of status report

==== Log checksum 1B529FB0054BC0755AECB469A86B2C170C552E433F21A8EA774D4BD3B276BB9D ====

[CUETools log; Date: 22.06.2016 17:44:04; Version: 2.1.4]
Pregap length 00:00:32.
[CTDB TOCID: VeLWEClrHbtHfxd4CDcn_CG5vIA-] found.
Track | CTDB Status
1 | (290/292) Accurately ripped
2 | (289/292) Accurately ripped
3 | (288/292) Accurately ripped
4 | (290/292) Accurately ripped
5 | (290/292) Accurately ripped
6 | (289/292) Accurately ripped
7 | (289/292) Accurately ripped
8 | (289/292) Accurately ripped
9 | (289/292) Accurately ripped
10 | (290/292) Accurately ripped
11 | (290/292) Accurately ripped
[AccurateRip ID: 001388e0-00a863ed-760ac50b] found.
Track [ CRC | V2 ] Status
01 [a8d6eb59|5b52025a] (042+200/661) Accurately ripped
02 [da556046|39d816f9] (043+200/662) Accurately ripped
03 [35f52362|fea44724] (043+200/664) Accurately ripped
04 [519342bd|832276cb] (043+200/662) Accurately ripped
05 [7e12fa4e|1232e826] (043+200/662) Accurately ripped
06 [0ff5ffdb|29829fff] (043+200/664) Accurately ripped
07 [b38e0bac|dc2537fe] (043+200/663) Accurately ripped
08 [6d5ea042|6a4131cc] (043+200/664) Accurately ripped
09 [063aab13|c727ab09] (043+200/663) Accurately ripped
10 [ff2798e5|4a8a77ee] (043+200/663) Accurately ripped
11 [fcf68f9d|874b8dc0] (042+200/660) Accurately ripped
Offsetted by 1339:
01 [49a60daf] (178/661) Accurately ripped
02 [82012544] (181/662) Accurately ripped
03 [8ece75f7] (182/664) Accurately ripped
04 [3e8517a3] (181/662) Accurately ripped
05 [9278aa97] (180/662) Accurately ripped
06 [d08efd68] (181/664) Accurately ripped
07 [03fc5322] (180/663) Accurately ripped
08 [0f96a5b7] (181/664) Accurately ripped
09 [da909ea9] (180/663) Accurately ripped
10 [04434d0e] (180/663) Accurately ripped
11 [d00df89d] (180/660) Accurately ripped
Offsetted by 1399:
01 [480f4fa7] (002/661) Accurately ripped
02 [4fc4f1e1] (002/662) Accurately ripped
03 [ea5a7f66] (002/664) Accurately ripped
04 [f34b4adb] (002/662) Accurately ripped
05 [51cedc2b] (002/662) Accurately ripped
06 [b81d03cc] (002/664) Accurately ripped
07 [35aa779a] (002/663) Accurately ripped
08 [2285153b] (002/664) Accurately ripped
09 [703851a1] (002/663) Accurately ripped
10 [2e2bb022] (002/663) Accurately ripped
11 [9a0a0c9d] (002/660) Accurately ripped
Offsetted by 1407:
01 [d0619cb7] (012/661) Accurately ripped
02 [33ec740b] (012/662) Accurately ripped
03 [4d20b754] (012/664) Accurately ripped
04 [60bb0d6b] (012/662) Accurately ripped
05 [381e9e83] (012/662) Accurately ripped
06 [f91ee284] (012/664) Accurately ripped
07 [b3c1afaa] (012/663) Accurately ripped
08 [9c82bdb3] (012/664) Accurately ripped
09 [953d9cb1] (012/663) Accurately ripped
10 [ef7ddf7a] (012/663) Accurately ripped
11 [a3e7649d] (012/660) Accurately ripped
Offsetted by 1429:
01 [4743f0a3] (011/661) Accurately ripped
02 [287b0f6d] (011/662) Accurately ripped
03 [9d5c1978] (011/664) Accurately ripped
04 [4dae6477] (011/662) Accurately ripped
05 [b179f4f5] (011/662) Accurately ripped
06 [2be406fe] (011/664) Accurately ripped
07 [ce8189d6] (011/663) Accurately ripped
08 [abfc4cfd] (011/664) Accurately ripped
09 [3b0c2b1d] (011/663) Accurately ripped
10 [431fe1ac] (011/663) Accurately ripped
11 [7f08169d] (011/660) Accurately ripped
Offsetted by 1467:
01 [cecadeaf] (002/661) Accurately ripped
02 [84e44dfd] (002/662) Accurately ripped
03 [c08e1032] (002/664) Accurately ripped
04 [158140a3] (002/662) Accurately ripped
05 [f774d017] (002/662) Accurately ripped
06 [e0ace8e8] (002/664) Accurately ripped
07 [e56fd422] (002/663) Accurately ripped
08 [af712d37] (002/664) Accurately ripped
09 [2ae54fa9] (002/663) Accurately ripped
10 [1966428e] (002/663) Accurately ripped
11 [6de3789d] (002/660) Accurately ripped
Offsetted by -86:
01 [ef622eed] (000/661) No match (V2 was not tested)
02 [8e587830] (000/662) No match (V2 was not tested)
03 [1d07e60a] (000/664) No match (V2 was not tested)
04 [f921d731] (000/662) No match (V2 was not tested)
05 [d239911c] (000/662) No match (V2 was not tested)
06 [d521e5a1] (000/664) No match (V2 was not tested)
07 [a8147100] (000/663) No match (V2 was not tested)
08 [8df7cd38] (000/664) No match (V2 was not tested)
09 [3841c427] (000/663) No match (V2 was not tested)
10 [a0f41bf3] (000/663) No match (V2 was not tested)
11 [d2eb1d9d] (000/660) No match (V2 was not tested)
Offsetted by 6:
01 [0f14a525] (000/661) No match (V2 was not tested)
02 [2be232bb] (000/662) No match
03 [85821bd3] (000/664) No match
04 [63a714a9] (000/662) No match
05 [2acecc10] (000/662) No match
06 [c0b766e5] (000/664) No match
07 [d21f75b8] (000/663) No match
08 [88dcde9c] (000/664) No match
09 [61fea35f] (000/663) No match
10 [d0253c67] (000/663) No match
11 [c45c919d] (000/660) No match
Offsetted by 1040:
01 [e2a20d79] (000/661) No match (V2 was not tested)
02 [5dfc99e5] (000/662) No match (V2 was not tested)
03 [58f842bf] (000/664) No match (V2 was not tested)
04 [e4540fdd] (000/662) No match (V2 was not tested)
05 [7293aafe] (000/662) No match (V2 was not tested)
06 [12e9194b] (000/664) No match (V2 was not tested)
07 [bb5883cc] (000/663) No match (V2 was not tested)
08 [602e2d32] (000/664) No match (V2 was not tested)
09 [d2eac933] (000/663) No match (V2 was not tested)
10 [2ae3a395] (000/663) No match (V2 was not tested)
11 [ff5d3f9d] (000/660) No match (V2 was not tested)

Track Peak [ CRC32 ] [W/O NULL] [ LOG ]
– 100,0 [8896777F] [62C4AEE1] CRC32
01 78,4 [14034E22] [87849B44]
02 100,0 [1CA8DFF1] [28E680F5]
03 70,4 [B8DA03FB] [35B7CC78]
04 78,8 [BABB23A8] [C10863E1]
05 99,1 [057F7147] [D24A974E]
06 80,3 [2CB5A48B] [02166C8E]
07 82,4 [9128995E] [9862D938]
08 74,3 [C080954B] [47878313]
09 89,6 [6DF6B9B6] [A0B3E799]
10 57,0 [C2C0A868] [69907F0E]
11 93,7 [C1A3EFB6] [D916371A]

foobar2000 1.2 / Dynamic Range Meter 1.1.1
log date: 2016-06-22 17:50:07

––––––––––––––––––––––––––––––––––––––––
Analyzed: Kate Bush / 2011 - Director's Cut (Disc 02) The Sensual World
––––––––––––––––––––––––––––––––––––––––

DR Peak RMS Duration Track
––––––––––––––––––––––––––––––––––––––––
DR13 -2.11 dB -17.18 dB 3:58 01-The Sensual World
DR12 0.00 dB -15.03 dB 4:42 02-Love And Anger
DR11 -3.05 dB -16.60 dB 5:07 03-The Fog
DR13 -2.06 dB -19.47 dB 3:12 04-Reaching Out
DR12 -0.07 dB -15.84 dB 5:21 05-Heads We're Dancing
DR12 -1.90 dB -16.81 dB 4:46 06-Deeper Understanding
DR12 -1.68 dB -17.24 dB 3:30 07-Between A Man And A Woman
DR11 -2.58 dB -16.07 dB 3:45 08-Never Be Mine
DR13 -0.95 dB -17.29 dB 4:07 09-Rocket's Tail
DR11 -4.87 dB -21.10 dB 3:39 10-This Woman's Work
DR14 -0.56 dB -16.27 dB 3:49 11-Walk Straight Down The Middle
––––––––––––––––––––––––––––––––––––––––

Number of tracks: 11
Official DR value: DR12

Samplerate: 44100 Hz
Channels: 2
Bits per sample: 16
Bitrate: 800 kbps
Codec: FLAC
================================================================================




Kate Bush - Director's Cut (2011) Collector’s Edition 3 CD Box Set [Re-Up]

CD 3: The Red Shoes (Remastered)
EAC | FLAC | Image (Cue&Log) ~ 316 Mb | Mp3 (CBR320) ~ 127 Mb | Time: 00:55:12


Tracklist:

01. Rubberband Girl (4:45)
02. And So Is Love (4:17)
03. Eat the Music (5:08)
04. Moments of Pleasure (5:18)
05. The Song of Solomon (4:27)
06. Lily (3:54)
07. The Red Shoes (4:02)
08. Top of the City (4:14)
09. Constellation of tThe Heart (4:47)
10. Big Stripey Lie (3:29)
11. Why Should I Love You? (5:01)
12. You're the One (5:50)


Exact Audio Copy V1.0 beta 1 from 15. November 2010

EAC extraction logfile from 17. June 2011, 23:53

Kate Bush / 2011 - Director's Cut (Disc 03) The Red Shoes (Remastered)

Used drive : ASUS DRW-24B1ST Adapter: 0 ID: 0

Read mode : Secure
Utilize accurate stream : Yes
Defeat audio cache : Yes
Make use of C2 pointers : No

Read offset correction : 6
Overread into Lead-In and Lead-Out : No
Fill up missing offset samples with silence : Yes
Delete leading and trailing silent blocks : No
Null samples used in CRC calculations : Yes
Used interface : Native Win32 interface for Win NT & 2000

Used output format : User Defined Encoder
Selected bitrate : 768 kBit/s
Quality : High
Add ID3 tag : No
Command line compressor : C:\Program Files\Exact Audio Copy\FLAC\FLAC.EXE
Additional command line options : -8 -V -T "ARTIST=%a" -T "TITLE=%t" -T "ALBUM=%g" -T "DATE=%y" -T "TRACKNUMBER=%n" -T "GENRE=%m" -T "COMMENT=%e" %j–picture="%i"%j %s -o %d


TOC of the extracted CD

Track | Start | Length | Start sector | End sector
––––––––––––––––––––––––––––-
1 | 0:00.00 | 4:45.19 | 0 | 21393
2 | 4:45.19 | 4:17.21 | 21394 | 40689
3 | 9:02.40 | 5:07.71 | 40690 | 63785
4 | 14:10.36 | 5:17.67 | 63786 | 87627
5 | 19:28.28 | 4:27.05 | 87628 | 107657
6 | 23:55.33 | 3:53.44 | 107658 | 125176
7 | 27:49.02 | 4:02.30 | 125177 | 143356
8 | 31:51.32 | 4:13.60 | 143357 | 162391
9 | 36:05.17 | 4:46.48 | 162392 | 183889
10 | 40:51.65 | 3:29.18 | 183890 | 199582
11 | 44:21.08 | 5:01.18 | 199583 | 222175
12 | 49:22.26 | 5:50.19 | 222176 | 248444


Range status and errors

Selected range

Filename C:\_EAC\Kate Bush - 2011 - Director's Cut - CD3\Kate Bush - 2011 - Director's Cut (Disc 03) The Red Shoes.wav

Peak level 100.0 %
Extraction speed 0.3 X
Range quality 100.0 %
Test CRC A00C4E66
Copy CRC A00C4E66
Copy OK

No errors occurred


AccurateRip summary

Track 1 accurately ripped (confidence 10) [685A5E30]
Track 2 accurately ripped (confidence 10) [31BFD7E6]
Track 3 accurately ripped (confidence 10) [357512AA]
Track 4 accurately ripped (confidence 10) [9A6293CD]
Track 5 accurately ripped (confidence 10) [7C690021]
Track 6 accurately ripped (confidence 10) [27EC2BC8]
Track 7 accurately ripped (confidence 10) [9C8F71F6]
Track 8 accurately ripped (confidence 10) [9397DCAF]
Track 9 accurately ripped (confidence 10) [44DCA869]
Track 10 accurately ripped (confidence 10) [535EFFA1]
Track 11 accurately ripped (confidence 10) [3554FC35]
Track 12 accurately ripped (confidence 10) [141A3980]

All tracks accurately ripped

End of status report

==== Log checksum DB9DF6E71A42A8FCEFED3AEB51E5FFFDA132BAEE502ECE2DBC1002C9E57E5421 ====

Exact Audio Copy V1.0 beta 1 from 15. November 2010

EAC extraction logfile from 17. June 2011, 23:53

Kate Bush / 2011 - Director's Cut (Disc 03) The Red Shoes (Remastered)

Used drive : ASUS DRW-24B1ST Adapter: 0 ID: 0

Read mode : Secure
Utilize accurate stream : Yes
Defeat audio cache : Yes
Make use of C2 pointers : No

Read offset correction : 6
Overread into Lead-In and Lead-Out : No
Fill up missing offset samples with silence : Yes
Delete leading and trailing silent blocks : No
Null samples used in CRC calculations : Yes
Used interface : Native Win32 interface for Win NT & 2000

Used output format : User Defined Encoder
Selected bitrate : 768 kBit/s
Quality : High
Add ID3 tag : No
Command line compressor : C:\Program Files\Exact Audio Copy\FLAC\FLAC.EXE
Additional command line options : -8 -V -T "ARTIST=%a" -T "TITLE=%t" -T "ALBUM=%g" -T "DATE=%y" -T "TRACKNUMBER=%n" -T "GENRE=%m" -T "COMMENT=%e" %j–picture="%i"%j %s -o %d


TOC of the extracted CD

Track | Start | Length | Start sector | End sector
––––––––––––––––––––––––––––-
1 | 0:00.00 | 4:45.19 | 0 | 21393
2 | 4:45.19 | 4:17.21 | 21394 | 40689
3 | 9:02.40 | 5:07.71 | 40690 | 63785
4 | 14:10.36 | 5:17.67 | 63786 | 87627
5 | 19:28.28 | 4:27.05 | 87628 | 107657
6 | 23:55.33 | 3:53.44 | 107658 | 125176
7 | 27:49.02 | 4:02.30 | 125177 | 143356
8 | 31:51.32 | 4:13.60 | 143357 | 162391
9 | 36:05.17 | 4:46.48 | 162392 | 183889
10 | 40:51.65 | 3:29.18 | 183890 | 199582
11 | 44:21.08 | 5:01.18 | 199583 | 222175
12 | 49:22.26 | 5:50.19 | 222176 | 248444


Range status and errors

Selected range

Filename C:\_EAC\Kate Bush - 2011 - Director's Cut - CD3\Kate Bush - 2011 - Director's Cut (Disc 03) The Red Shoes.wav

Peak level 100.0 %
Extraction speed 0.3 X
Range quality 100.0 %
Test CRC A00C4E66
Copy CRC A00C4E66
Copy OK

No errors occurred


AccurateRip summary

Track 1 accurately ripped (confidence 10) [685A5E30]
Track 2 accurately ripped (confidence 10) [31BFD7E6]
Track 3 accurately ripped (confidence 10) [357512AA]
Track 4 accurately ripped (confidence 10) [9A6293CD]
Track 5 accurately ripped (confidence 10) [7C690021]
Track 6 accurately ripped (confidence 10) [27EC2BC8]
Track 7 accurately ripped (confidence 10) [9C8F71F6]
Track 8 accurately ripped (confidence 10) [9397DCAF]
Track 9 accurately ripped (confidence 10) [44DCA869]
Track 10 accurately ripped (confidence 10) [535EFFA1]
Track 11 accurately ripped (confidence 10) [3554FC35]
Track 12 accurately ripped (confidence 10) [141A3980]

All tracks accurately ripped

End of status report

==== Log checksum DB9DF6E71A42A8FCEFED3AEB51E5FFFDA132BAEE502ECE2DBC1002C9E57E5421 ====

foobar2000 1.2 / Dynamic Range Meter 1.1.1
log date: 2016-06-22 17:50:23

––––––––––––––––––––––––––––––––––––––––
Analyzed: Kate Bush / 2011 - Director's Cut (Disc 03) The Red Shoes (Remastered)
––––––––––––––––––––––––––––––––––––––––

DR Peak RMS Duration Track
––––––––––––––––––––––––––––––––––––––––
DR10 -0.33 dB -12.93 dB 4:45 01-Rubberband Girl
DR11 -0.28 dB -14.11 dB 4:17 02-And So Is Love
DR12 -0.15 dB -14.69 dB 5:08 03-Eat The Music
DR10 0.00 dB -14.73 dB 5:18 04-Moments Of Pleasure
DR11 0.00 dB -15.37 dB 4:27 05-The Song Of Solomon
DR10 0.00 dB -12.53 dB 3:54 06-Lily
DR11 -0.56 dB -13.88 dB 4:02 07-The Red Shoes
DR10 0.00 dB -14.04 dB 4:14 08-Top Of The City
DR11 0.00 dB -13.53 dB 4:47 09-Constellation Of The Heart
DR10 0.00 dB -11.66 dB 3:29 10-Big Stripey Lie
DR11 0.00 dB -13.76 dB 5:01 11-Why Should I Love You?
DR8 -1.72 dB -12.10 dB 5:50 12-You're The One
––––––––––––––––––––––––––––––––––––––––

Number of tracks: 12
Official DR value: DR11

Samplerate: 44100 Hz
Channels: 2
Bits per sample: 16
Bitrate: 802 kbps
Codec: FLAC
================================================================================




Kate Bush - Director's Cut (2011) Collector’s Edition 3 CD Box Set [Re-Up]


All thanks to original releaser

More interesting music in My Blog