Tags
Language
Tags
March 2023
Su Mo Tu We Th Fr Sa
26 27 28 1 2 3 4
5 6 7 8 9 10 11
12 13 14 15 16 17 18
19 20 21 22 23 24 25
26 27 28 29 30 31 1

King Diamond - The Complete Roadrunner Collection 1986-1990 (2013) [5CD Box Set]

Posted By: v3122
King Diamond - The Complete Roadrunner Collection 1986-1990 (2013) [5CD Box Set]

King Diamond - The Complete Roadrunner Collection 1986-1990 (2013)
EAC | Flac(Image) + Cue + Log & MP3 CBR 320Kbps
Roadrunner, 1686176212 | ~ 1531 or 665 Mb | Artwork(png) -> 269 Mb
Heavy Metal

After doing time as vocalist for pioneering metal band Mercyful Fate, King Diamond broke out solo in 1986. The singer's multi-octave range, theatrical, corpse-painted face, and highly conceptual songwriting came into full form with the interweaving story lines of albums like 1987's Abigail and 1988's Them. The Complete Roadrunner Collection 1986-1990 gathers together King Diamond's five earliest albums, including the aforementioned concept albums, a less than stellar debut (Fatal Portrait), 1989's crushing Conspiracy, and 1990's The Eye.

by Fred Thomas, allmusic
King Diamond - The Complete Roadrunner Collection 1986-1990 (2013) [5CD Box Set]

King Diamond - The Complete Roadrunner Collection 1986-1990 (2013):

King Diamond - The Complete Roadrunner Collection 1986-1990 (2013) [5CD Box Set]

Tracklist CD1 - Fatal Portrait (1986):

1. The Candle
2. The Jonah
3. The Portrait
4. Dressed In White
5. Charon
6. Lurking In The Dark
7. Halloween
8. Voices From The Past
9. Haunted

Exact Audio Copy V1.0 beta 3 from 29. August 2011

EAC extraction logfile from 10. May 2013, 11:33

King Diamond / Fatal Portrait

Used drive : PLEXTOR BD-R PX-B950SA Adapter: 6 ID: 0

Read mode : Secure
Utilize accurate stream : Yes
Defeat audio cache : Yes
Make use of C2 pointers : No

Read offset correction : 6
Overread into Lead-In and Lead-Out : No
Fill up missing offset samples with silence : Yes
Delete leading and trailing silent blocks : No
Null samples used in CRC calculations : Yes
Used interface : Native Win32 interface for Win NT & 2000

Used output format : Internal WAV Routines
Sample format : 44.100 Hz; 16 Bit; Stereo


TOC of the extracted CD

Track | Start | Length | Start sector | End sector
––––––––––––––––––––––––––––-
1 | 0:00.00 | 6:42.35 | 0 | 30184
2 | 6:42.35 | 5:18.15 | 30185 | 54049
3 | 12:00.50 | 5:09.25 | 54050 | 77249
4 | 17:10.00 | 3:10.05 | 77250 | 91504
5 | 20:20.05 | 4:17.11 | 91505 | 110790
6 | 24:37.16 | 3:36.01 | 110791 | 126991
7 | 28:13.17 | 4:15.46 | 126992 | 146162
8 | 32:28.63 | 1:32.11 | 146163 | 153073
9 | 34:00.74 | 3:53.47 | 153074 | 170595


Range status and errors

Selected range

Filename C:\Users\Meijin\Desktop\ALLexxess\King Diamond\2013 Complete Collection 1986-1990 (5CD Box Set Roadrunner Records)\1986 Fatal Portrait\King Diamond - Fatal Portrait.wav

Peak level 100.0 %
Extraction speed 6.6 X
Range quality 100.0 %
Test CRC E0A56EF7
Copy CRC E0A56EF7
Copy OK

No errors occurred


AccurateRip summary

Track 1 not present in database
Track 2 not present in database
Track 3 not present in database
Track 4 not present in database
Track 5 not present in database
Track 6 not present in database
Track 7 not present in database
Track 8 not present in database
Track 9 not present in database

None of the tracks are present in the AccurateRip database

End of status report

==== Log checksum F91E2D471052E06B405EEB3FE65F2DDC7970C7FD7B505B2F983D165EE82A73EB ====


[CUETools log; Date: 10.02.2020 6:58:47; Version: 2.1.4]
[AccurateRip ID: 000ea85e-0067b192-6308e209] found.
Track [ CRC | V2 ] Status
01 [e039a0f8|e8eb748f] (00+22/22) Accurately ripped
02 [8ba2b8ec|24a1c2dc] (00+22/22) Accurately ripped
03 [fa59b16b|4f807c56] (00+22/22) Accurately ripped
04 [64a911d5|1121daef] (00+22/22) Accurately ripped
05 [2c4f0433|a34eda3f] (00+22/22) Accurately ripped
06 [8e18eac9|4c4368c2] (00+22/22) Accurately ripped
07 [7c770565|b4959278] (00+22/22) Accurately ripped
08 [7ed269c7|4174ba82] (00+22/22) Accurately ripped
09 [67ace795|345e88c7] (00+23/23) Accurately ripped

Track Peak [ CRC32 ] [W/O NULL] [ LOG ]
– 100,0 [E0A56EF7] [063EBDB5] CRC32
01 100,0 [1013F9E3] [E1EF6DF7]
02 100,0 [B43050F6] [1B92F73E]
03 100,0 [CB716736] [4DEE6A91]
04 100,0 [88B1DA73] [7B731DE5]
05 100,0 [3E33B6C2] [26884465]
06 100,0 [818FE4E2] [BB88F7F1]
07 100,0 [73D15602] [EF1D5247]
08 100,0 [A8D45921] [BE59C907]
09 100,0 [7881B88C] [7F746501]


King Diamond - The Complete Roadrunner Collection 1986-1990 (2013) [5CD Box Set]

Tracklist CD2 - Abigail (1987):

1. Funeral
2. Arrival
3. A Mansion In Darkness
4. The Family Ghost
5. The 7th Day Of July 1777
6. Omens
7. The Possession
8. Abigail
9. Black Horsemen

Exact Audio Copy V1.0 beta 3 from 29. August 2011

EAC extraction logfile from 10. May 2013, 11:05

King Diamond / Abigail

Used drive : PLEXTOR BD-R PX-B950SA Adapter: 6 ID: 0

Read mode : Secure
Utilize accurate stream : Yes
Defeat audio cache : Yes
Make use of C2 pointers : No

Read offset correction : 6
Overread into Lead-In and Lead-Out : No
Fill up missing offset samples with silence : Yes
Delete leading and trailing silent blocks : No
Null samples used in CRC calculations : Yes
Used interface : Native Win32 interface for Win NT & 2000

Used output format : Internal WAV Routines
Sample format : 44.100 Hz; 16 Bit; Stereo


TOC of the extracted CD

Track | Start | Length | Start sector | End sector
––––––––––––––––––––––––––––-
1 | 0:00.00 | 1:32.10 | 0 | 6909
2 | 1:32.10 | 5:28.42 | 6910 | 31551
3 | 7:00.52 | 4:34.72 | 31552 | 52173
4 | 11:35.49 | 4:05.70 | 52174 | 70618
5 | 15:41.44 | 4:52.10 | 70619 | 92528
6 | 20:33.54 | 3:58.26 | 92529 | 110404
7 | 24:32.05 | 3:28.25 | 110405 | 126029
8 | 28:00.30 | 4:52.55 | 126030 | 147984
9 | 32:53.10 | 7:38.69 | 147985 | 182403


Range status and errors

Selected range

Filename C:\Users\Meijin\Desktop\ALLexxess\King Diamond\2013 Complete Collection 1986-1990 (5CD Box Set Roadrunner Records)\1987 Abigail\King Diamond - Abigail.wav

Peak level 100.0 %
Extraction speed 6.7 X
Range quality 100.0 %
Test CRC 680D9088
Copy CRC 680D9088
Copy OK

No errors occurred


AccurateRip summary

Track 1 not present in database
Track 2 not present in database
Track 3 not present in database
Track 4 not present in database
Track 5 not present in database
Track 6 not present in database
Track 7 not present in database
Track 8 not present in database
Track 9 not present in database

None of the tracks are present in the AccurateRip database

End of status report

==== Log checksum 36FC644053794D5CDE6FF226C9566D11B742F449DD5C733AB81DE8E92316003B ====


[CUETools log; Date: 10.02.2020 7:00:28; Version: 2.1.4]
[AccurateRip ID: 000c8580-005e07f6-7f098009] found.
Track [ CRC | V2 ] Status
01 [3f60613e|2c2129af] (00+20/20) Accurately ripped
02 [785388d3|266b1ec7] (00+20/20) Accurately ripped
03 [ba0976da|b4e9dd42] (00+20/20) Accurately ripped
04 [d13fa3b0|893cd052] (00+21/21) Accurately ripped
05 [d1b90934|d2142403] (00+20/20) Accurately ripped
06 [436bc427|bcdc9ee4] (00+20/20) Accurately ripped
07 [0845d464|cf8c88b4] (00+20/20) Accurately ripped
08 [dba55a88|e97c1357] (00+20/20) Accurately ripped
09 [1e7a65d7|dbab9809] (00+21/21) Accurately ripped

Track Peak [ CRC32 ] [W/O NULL] [ LOG ]
– 100,0 [680D9088] [94936B97] CRC32
01 100,0 [074E071E] [FB5A75E6]
02 100,0 [A8B20C43] [B2139306]
03 100,0 [FAC839F9] [D5CB2047]
04 100,0 [498581DD] [DF8C85CC]
05 100,0 [EF16ED26] [BF83FA69]
06 100,0 [245BC774] [FA58FF5C]
07 100,0 [11E354B6] [718DECEE]
08 100,0 [558E4475] [22709E77]
09 100,0 [6F75068B] [9F264A24]


King Diamond - The Complete Roadrunner Collection 1986-1990 (2013) [5CD Box Set]

Tracklist CD3 - 'Them' (1988):

1. Out From The Asylum
2. Welcome Home
3. The Invisible Guests
4. Tea
5. Mother's Getting Weaker
6. Bye, Bye, Missy
7. A Broken Spell
8. The Accusation Chair
9. "Them"
10. Twilight Symphony
11. Coming Home

Exact Audio Copy V1.0 beta 3 from 29. August 2011

EAC extraction logfile from 10. May 2013, 10:38

King Diamond / 'Them'

Used drive : PLEXTOR BD-R PX-B950SA Adapter: 6 ID: 0

Read mode : Secure
Utilize accurate stream : Yes
Defeat audio cache : Yes
Make use of C2 pointers : No

Read offset correction : 6
Overread into Lead-In and Lead-Out : No
Fill up missing offset samples with silence : Yes
Delete leading and trailing silent blocks : No
Null samples used in CRC calculations : Yes
Used interface : Native Win32 interface for Win NT & 2000

Used output format : Internal WAV Routines
Sample format : 44.100 Hz; 16 Bit; Stereo


TOC of the extracted CD

Track | Start | Length | Start sector | End sector
––––––––––––––––––––––––––––-
1 | 0:00.00 | 1:44.62 | 0 | 7861
2 | 1:44.62 | 4:37.13 | 7862 | 28649
3 | 6:22.00 | 5:04.64 | 28650 | 51513
4 | 11:26.64 | 5:15.17 | 51514 | 75155
5 | 16:42.06 | 4:02.10 | 75156 | 93315
6 | 20:44.16 | 5:08.46 | 93316 | 116461
7 | 25:52.62 | 4:08.51 | 116462 | 135112
8 | 30:01.38 | 4:21.62 | 135113 | 154749
9 | 34:23.25 | 1:57.16 | 154750 | 163540
10 | 36:20.41 | 4:09.62 | 163541 | 182277
11 | 40:30.28 | 1:10.43 | 182278 | 187570


Range status and errors

Selected range

Filename C:\Users\Meijin\Desktop\ALLexxess\King Diamond\2013 Complete Collection 1986-1990 (5CD Box Set Roadrunner Records)\1988 'Them'\King Diamond - 'Them'.wav

Peak level 100.0 %
Extraction speed 6.6 X
Range quality 99.9 %
Test CRC 572473AB
Copy CRC 572473AB
Copy OK

No errors occurred


AccurateRip summary

Track 1 not present in database
Track 2 not present in database
Track 3 not present in database
Track 4 not present in database
Track 5 not present in database
Track 6 not present in database
Track 7 not present in database
Track 8 not present in database
Track 9 not present in database
Track 10 not present in database
Track 11 not present in database

None of the tracks are present in the AccurateRip database

End of status report

==== Log checksum D040B53EEEBAC440CD74B6E610E0D1C23F5C03D8B4CC183B9FF4DD4551B142FB ====


[CUETools log; Date: 10.02.2020 7:02:21; Version: 2.1.4]
[AccurateRip ID: 001240b5-009f0d3f-8009c40b] found.
Track [ CRC | V2 ] Status
01 [3d30c898|acf7daa7] (00+22/22) Accurately ripped
02 [8e55e6b1|032ecd24] (00+21/21) Accurately ripped
03 [b70b1334|1f3ac94f] (00+21/21) Accurately ripped
04 [4ca43bd2|42b2f743] (00+21/21) Accurately ripped
05 [e199e57f|1ec5e170] (00+21/21) Accurately ripped
06 [5003b348|40886afa] (00+21/21) Accurately ripped
07 [82dcd920|02d783c2] (00+21/21) Accurately ripped
08 [d0060b59|aa846b4c] (00+21/21) Accurately ripped
09 [0a4029a9|d55cdfc1] (00+21/21) Accurately ripped
10 [9f40da9e|97890d04] (00+21/21) Accurately ripped
11 [1d71d26b|1539b81e] (00+22/22) Accurately ripped

Track Peak [ CRC32 ] [W/O NULL] [ LOG ]
– 100,0 [572473AB] [78D1116A] CRC32
01 81,8 [83157FDE] [7B73249E]
02 100,0 [C650058C] [49D6AA33]
03 100,0 [042D41C8] [5EB38184]
04 100,0 [FE662BEC] [D29DB0F9]
05 100,0 [00E7F9EF] [4345E884]
06 100,0 [2BB6AD34] [07E74A0A]
07 100,0 [A391CAB9] [23C64F44]
08 100,0 [9758AB29] [E112F3FF]
09 85,7 [9691DE1F] [C2C20443]
10 100,0 [07F4952B] [DE82F355]
11 96,5 [D1FF0B6F] [8D1055E9]


King Diamond - The Complete Roadrunner Collection 1986-1990 (2013) [5CD Box Set]

Tracklist CD4 - Conspiracy (1989):

1. At The Graves
2. Sleepless Nights
3. Lies
4. A Visit From The Dead
5. The Wedding Dream
6. "Amon" Belongs To "Them"
7. Something Weird
8. Victimized
9. Let It Be Done
10. Cremation

Exact Audio Copy V1.0 beta 3 from 29. August 2011

EAC extraction logfile from 10. May 2013, 10:05

King Diamond / Conspiracy

Used drive : PLEXTOR BD-R PX-B950SA Adapter: 6 ID: 0

Read mode : Secure
Utilize accurate stream : Yes
Defeat audio cache : Yes
Make use of C2 pointers : No

Read offset correction : 6
Overread into Lead-In and Lead-Out : No
Fill up missing offset samples with silence : Yes
Delete leading and trailing silent blocks : No
Null samples used in CRC calculations : Yes
Used interface : Native Win32 interface for Win NT & 2000

Used output format : Internal WAV Routines
Sample format : 44.100 Hz; 16 Bit; Stereo


TOC of the extracted CD

Track | Start | Length | Start sector | End sector
––––––––––––––––––––––––––––-
1 | 0:00.00 | 8:57.58 | 0 | 40332
2 | 8:57.58 | 5:06.61 | 40333 | 63343
3 | 14:04.44 | 4:24.00 | 63344 | 83143
4 | 18:28.44 | 6:13.34 | 83144 | 111152
5 | 24:42.03 | 6:02.70 | 111153 | 138372
6 | 30:44.73 | 3:52.05 | 138373 | 155777
7 | 34:37.03 | 2:08.41 | 155778 | 165418
8 | 36:45.44 | 5:22.39 | 165419 | 189607
9 | 42:08.08 | 1:14.63 | 189608 | 195220
10 | 43:22.71 | 4:11.50 | 195221 | 214095


Range status and errors

Selected range

Filename C:\Users\Meijin\Desktop\ALLexxess\King Diamond\2013 Complete Collection 1986-1990 (5CD Box Set Roadrunner Records)\1989 Conspiracy\King Diamond - Conspiracy.wav

Peak level 100.0 %
Extraction speed 7.0 X
Range quality 100.0 %
Test CRC 8B744F1C
Copy CRC 8B744F1C
Copy OK

No errors occurred


AccurateRip summary

Track 1 not present in database
Track 2 not present in database
Track 3 not present in database
Track 4 not present in database
Track 5 not present in database
Track 6 not present in database
Track 7 not present in database
Track 8 not present in database
Track 9 not present in database
Track 10 not present in database

None of the tracks are present in the AccurateRip database

End of status report

==== Log checksum B067D217E6A9CC139E383DC6DDCE167F359D8737FC8EEB0AD90C1EE6FE519947 ====


[CUETools log; Date: 10.02.2020 7:04:26; Version: 2.1.4]
[AccurateRip ID: 0014b2b5-009ef2ae-7f0b260a] found.
Track [ CRC | V2 ] Status
01 [bfd74d39|444fcf3f] (00+21/21) Accurately ripped
02 [f0cead76|c4c95491] (00+20/20) Accurately ripped
03 [feaa4b7f|068d608d] (00+21/21) Accurately ripped
04 [1841fc40|291df35f] (00+21/21) Accurately ripped
05 [780fd137|b96733d7] (00+21/21) Accurately ripped
06 [776c9975|9dbf24d4] (00+21/21) Accurately ripped
07 [cb3d4f2f|112f105f] (00+21/21) Accurately ripped
08 [1a47d742|5c347054] (00+21/21) Accurately ripped
09 [122a789b|00edf198] (00+21/21) Accurately ripped
10 [7cd5d49b|cad2ba8b] (00+22/22) Accurately ripped

Track Peak [ CRC32 ] [W/O NULL] [ LOG ]
– 100,0 [8B744F1C] [7CE96285] CRC32
01 100,0 [3C7233AA] [B6B64511]
02 100,0 [4A920165] [F810B91C]
03 100,0 [6C5D8501] [30AC640C]
04 100,0 [DA31F4C7] [70AAE519]
05 100,0 [C4901144] [F0909DE9]
06 100,0 [ABA1C5CB] [403258B6]
07 81,1 [4DB27C49] [E0246E20]
08 100,0 [2554C3B2] [B8790FD2]
09 100,0 [F479FD4C] [26133FB1]
10 100,0 [3598DA8F] [CF4EA766]


King Diamond - The Complete Roadrunner Collection 1986-1990 (2013) [5CD Box Set]

Tracklist CD5 - The Eye (1990):

1. Eye Of The Witch
2. The Trial (Chambre Ardente)
3. Burn
4. Two Little Girls
5. Into The Convent
6. Father Picard
7. Behind These Walls
8. The Meetings
9. Insanity
10. 1642 Imprisonment
11. The Curse

Exact Audio Copy V1.0 beta 3 from 29. August 2011

EAC extraction logfile from 10. May 2013, 8:42

King Diamond / The Eye

Used drive : PLEXTOR BD-R PX-B950SA Adapter: 6 ID: 0

Read mode : Secure
Utilize accurate stream : Yes
Defeat audio cache : Yes
Make use of C2 pointers : No

Read offset correction : 6
Overread into Lead-In and Lead-Out : No
Fill up missing offset samples with silence : Yes
Delete leading and trailing silent blocks : No
Null samples used in CRC calculations : Yes
Used interface : Native Win32 interface for Win NT & 2000

Used output format : Internal WAV Routines
Sample format : 44.100 Hz; 16 Bit; Stereo


TOC of the extracted CD

Track | Start | Length | Start sector | End sector
––––––––––––––––––––––––––––-
1 | 0:00.00 | 3:47.30 | 0 | 17054
2 | 3:47.30 | 5:13.05 | 17055 | 40534
3 | 9:00.35 | 3:42.50 | 40535 | 57234
4 | 12:43.10 | 2:41.52 | 57235 | 69361
5 | 15:24.62 | 4:47.63 | 69362 | 90949
6 | 20:12.50 | 3:19.67 | 90950 | 105941
7 | 23:32.42 | 3:45.43 | 105942 | 122859
8 | 27:18.10 | 4:31.45 | 122860 | 143229
9 | 31:49.55 | 3:00.35 | 143230 | 156764
10 | 34:50.15 | 3:31.17 | 156765 | 172606
11 | 38:21.32 | 5:42.20 | 172607 | 198276


Range status and errors

Selected range

Filename C:\Users\Meijin\Desktop\ALLexxess\King Diamond\2013 Complete Collection 1986-1990 (5CD Box Set Roadrunner Records)\1990 The Eye\King Diamond - The Eye.wav

Peak level 100.0 %
Extraction speed 6.7 X
Range quality 99.9 %
Test CRC 3AC32811
Copy CRC 3AC32811
Copy OK

No errors occurred


AccurateRip summary

Track 1 cannot be verified as accurate (confidence 29) [F7389610], AccurateRip returned [9B4466A3] (AR v2)
Track 2 cannot be verified as accurate (confidence 29) [A42D6C03], AccurateRip returned [BC2E173F] (AR v2)
Track 3 cannot be verified as accurate (confidence 29) [88E2DE9A], AccurateRip returned [34C6F223] (AR v2)
Track 4 cannot be verified as accurate (confidence 29) [0A5340AD], AccurateRip returned [050FC7D6] (AR v2)
Track 5 cannot be verified as accurate (confidence 29) [6E50A517], AccurateRip returned [FDAC5AD6] (AR v2)
Track 6 cannot be verified as accurate (confidence 29) [001CAC6F], AccurateRip returned [244DEFBD] (AR v2)
Track 7 cannot be verified as accurate (confidence 29) [7E0B6A28], AccurateRip returned [D4CC22AB] (AR v2)
Track 8 cannot be verified as accurate (confidence 29) [9280BACB], AccurateRip returned [AA3022D7] (AR v2)
Track 9 cannot be verified as accurate (confidence 29) [CFAC339E], AccurateRip returned [F59200C8] (AR v2)
Track 10 cannot be verified as accurate (confidence 29) [90A615AB], AccurateRip returned [C5855F99] (AR v2)
Track 11 cannot be verified as accurate (confidence 29) [B04B8925], AccurateRip returned [0D2DE9E3] (AR v2)

No tracks could be verified as accurate
You may have a different pressing from the one(s) in the database

End of status report

==== Log checksum 77DD559174375F66F6D8373A08D02A53772BF3CE7025981DE0002AE7545A8CD2 ====


[CUETools log; Date: 10.02.2020 7:06:20; Version: 2.1.4]
[AccurateRip ID: 0011ed22-009aab29-7b0a530b] found.
Track [ CRC | V2 ] Status
01 [fde460d1|f7389610] (000+020/119) Accurately ripped
02 [5f7daeda|a42d6c03] (000+020/120) Accurately ripped
03 [6b3c3455|88e2de9a] (000+020/119) Accurately ripped
04 [a63d1a6a|0a5340ad] (000+021/120) Accurately ripped
05 [e6b36c14|6e50a517] (000+020/119) Accurately ripped
06 [5a27add2|001cac6f] (000+020/121) Accurately ripped
07 [22287eba|7e0b6a28] (000+020/121) Accurately ripped
08 [64402ea1|9280bacb] (000+020/119) Accurately ripped
09 [43b90a81|cfac339e] (000+020/119) Accurately ripped
10 [fe3573c0|90a615ab] (000+021/118) Accurately ripped
11 [37b7bc75|b04b8925] (000+021/120) Accurately ripped
Offsetted by -943:
01 [03d944eb] (005/119) Accurately ripped
02 [4d72fe53] (005/120) Accurately ripped
03 [0c92525b] (005/119) Accurately ripped
04 [43fcff2f] (005/120) Accurately ripped
05 [a091f295] (005/119) Accurately ripped
06 [c9e609e9] (005/121) Accurately ripped
07 [06dd51ef] (005/121) Accurately ripped
08 [9cfee8af] (005/119) Accurately ripped
09 [9203efde] (005/119) Accurately ripped
10 [720150c7] (005/118) Accurately ripped
11 [539e6286] (005/120) Accurately ripped
Offsetted by -693:
01 [57c8ab0f] (006/119) Accurately ripped
02 [21a36f5d] (006/120) Accurately ripped
03 [0dc73b77] (006/119) Accurately ripped
04 [54b6ad32] (006/120) Accurately ripped
05 [b453df06] (006/119) Accurately ripped
06 [29b1f17f] (006/121) Accurately ripped
07 [954b6111] (006/121) Accurately ripped
08 [8317d09b] (006/119) Accurately ripped
09 [a9c64c2d] (006/119) Accurately ripped
10 [acf340b8] (006/118) Accurately ripped
11 [843c4173] (006/120) Accurately ripped
Offsetted by -675:
01 [9b4466a3] (029/119) Accurately ripped
02 [bc2e173f] (029/120) Accurately ripped
03 [34c6f223] (029/119) Accurately ripped
04 [050fc7d6] (029/120) Accurately ripped
05 [fdac5ad6] (029/119) Accurately ripped
06 [244defbd] (029/121) Accurately ripped
07 [d4cc22ab] (029/121) Accurately ripped
08 [aa3022d7] (029/119) Accurately ripped
09 [f59200c8] (029/119) Accurately ripped
10 [c5855f99] (029/118) Accurately ripped
11 [0d2de9e3] (029/120) Accurately ripped
Offsetted by -673:
01 [f8194297] (004/119) Accurately ripped
02 [5b92d491] (005/120) Accurately ripped
03 [558e066f] (004/119) Accurately ripped
04 [4d8b434c] (004/120) Accurately ripped
05 [8ad40188] (004/119) Accurately ripped
06 [7909ef8b] (004/121) Accurately ripped
07 [bf68a9f5] (004/121) Accurately ripped
08 [e76bba33] (004/119) Accurately ripped
09 [ddfe4144] (004/119) Accurately ripped
10 [9fb8609b] (004/118) Accurately ripped
11 [c1c794cb] (004/120) Accurately ripped
Offsetted by -670:
01 [83588c85] (002/119) Accurately ripped
02 [caa9f08c] (002/120) Accurately ripped
03 [86b8a4e1] (002/119) Accurately ripped
04 [f476f5d7] (002/120) Accurately ripped
05 [db7a7f0f] (002/119) Accurately ripped
06 [7823ef40] (002/121) Accurately ripped
07 [1f5374e4] (002/121) Accurately ripped
08 [43451d3d] (002/119) Accurately ripped
09 [3aa0a1fe] (002/119) Accurately ripped
10 [47505016] (002/118) Accurately ripped
11 [132b6208] (002/120) Accurately ripped
Offsetted by -18:
01 [ba68a53d] (005/119) Accurately ripped
02 [c4f306f8] (005/120) Accurately ripped
03 [443c7da9] (005/119) Accurately ripped
04 [47d14cf1] (005/120) Accurately ripped
05 [ee64ec79] (005/119) Accurately ripped
06 [5f8baf94] (005/121) Accurately ripped
07 [e2a7bd20] (005/121) Accurately ripped
08 [3d27dc65] (005/119) Accurately ripped
09 [f1eac1c9] (005/119) Accurately ripped
10 [7d983774] (005/118) Accurately ripped
11 [4e4b311d] (005/120) Accurately ripped
Offsetted by -17:
01 [e8d31337] (008/119) Accurately ripped
02 [94a565a1] (008/120) Accurately ripped
03 [54a007cf] (008/119) Accurately ripped
04 [a0df767f] (008/120) Accurately ripped
05 [81f56d19] (008/119) Accurately ripped
06 [09e9af7b] (008/121) Accurately ripped
07 [57f600c5] (008/121) Accurately ripped
08 [5bc5a813] (008/119) Accurately ripped
09 [667ae245] (008/119) Accurately ripped
10 [2e31b81d] (008/118) Accurately ripped
11 [e38b874b] (008/120) Accurately ripped
Offsetted by -6:
01 [e765ccf5] (006/119) Accurately ripped
02 [814f76e4] (006/120) Accurately ripped
03 [08e6f771] (006/119) Accurately ripped
04 [36ef2225] (006/120) Accurately ripped
05 [ad39b5ad] (006/119) Accurately ripped
06 [5bf3ae68] (006/121) Accurately ripped
07 [6252e8dc] (006/121) Accurately ripped
08 [ac8d688d] (006/119) Accurately ripped
09 [884c4799] (006/119) Accurately ripped
10 [bc184277] (006/118) Accurately ripped
11 [0369aca2] (006/120) Accurately ripped
Offsetted by -273:
01 [7e651937] (002/119) Accurately ripped
02 [e246bca1] (002/120) Accurately ripped
03 [f115e1cf] (002/119) Accurately ripped
04 [a409106b] (002/120) Accurately ripped
05 [ff80a651] (002/119) Accurately ripped
06 [abe9c87b] (002/121) Accurately ripped
07 [09b25bc5] (002/121) Accurately ripped
08 [bdf9fa13] (002/119) Accurately ripped
09 [a58aa40d] (002/119) Accurately ripped
10 [39c25ccb] (000/118) No match (V2 was not tested)
11 [a8a68762] (002/120) Accurately ripped

Track Peak [ CRC32 ] [W/O NULL] [ LOG ]
– 99,9 [3AC32811] [BEE0443B] CRC32
01 99,9 [525BE796] [367B7C6D]
02 99,9 [D706A4B6] [3A7B4449]
03 99,9 [03AFB240] [97127AF8]
04 98,5 [6873F027] [90BC25F1]
05 99,9 [ED122B6F] [E44484EB]
06 99,9 [99426C59] [5BB51E63]
07 99,9 [4060E178] [F8002D20]
08 99,9 [44F38B58] [C12E711A]
09 99,8 [74D6D9F5] [A09416CE]
10 99,9 [C0080855] [775A29D3]
11 99,9 [4F617DFD] [8F71BCBD]


King Diamond - The Complete Roadrunner Collection 1986-1990 (2013) [5CD Box Set]

All thanks go to ALLexxess

King Diamond in my Blog

Download King Diamond - The Complete Roadrunner Collection 1986-1990 (2013):