Tags
Language
Tags

Maria Muldaur, Women's Voices For Peace Choir ‎- Yes We Can! (2008)

Posted By:
Maria Muldaur, Women's Voices For Peace Choir ‎- Yes We Can! (2008)

Maria Muldaur, Women's Voices For Peace Choir ‎- Yes We Can! (2008)
feat. Joan Baez, Bonnie Raitt, Phoebe Snow, Jane Fonda, Holly Near, Odetta
Amma, Anne Lamott, Marianne Williamson, Jean Shinoda Bolen

EAC | APE | Image (Cue&Log) ~ 411 Mb | Mp3 (CBR320) ~ 159 Mb | Scans included | 01:07:10
Blues, Soul, Blues Rock, Folk Blues, Jazz-Blues | Label: Telarc | # CD-83672

There are a number of arguments to be made for and against Maria Muldaur's 2008 antiwar statement Yes We Can! on Telarc (before actually listening to it; remember, we live in a cynical culture). The "perceived" negatives all relate to the intent of the recording and who it's supposed to reach (no doubt an expression of the same set of beliefs rooted in Muldaur's 1960s music), and the fact that it's loaded with guests (in all fairness, these star-studded affairs seldom work). On Yes We Can!, her guests include Muldaur's old friends (Joan Baez, Bonnie Raitt, Phoebe Snow, Jane Fonda, and Holly Near) and influences (Odetta) and new pals (writers/spiritual gurus Anne Lamott and Marianne Williamson, and Indian spiritual teacher Amma). Does it read as if it is yet another exercise in self-referential backslapping? Yep. But don't believe everything you read on the back of a CD jacket. The positives are all musical. First off, Muldaur hasn't sounded this funky in years – if ever! The set was co-produced by Muldaur and Joel Jaffe. The sound is, for the most part, dirty, raw, and angular, ranging from deep Southern blues to Cajun, gospel, rhythm & blues, and soul – no matter where the songs come from originally. Her great influence, Memphis Minnie, would have been proud of Muldaur's use of the Southern inflection that sounds unaffected even though she was born in New York. Credit for the sonics falls equally with the production and arrangements (handled heroically by David Torkanowsky) and the musicianship (the Free Radicals and the Women's Voices for Peace Choir). The track selection is killer to boot: Edwin Starr's "War (What Is It Good For)," Allen Toussaint's title track, Bob Dylan's "License to Kill" and "Masters of War," Garth Brooks' beautiful "We Shall Be Free" (with deeply moving solo spots from her guests), Elbernita Terrell's (from Detroit's wonderful gospel group the Clark Sisters) "Pray for the USA," and the traditional "Down by the Riverside." Of the two Dylan tracks, "License to Kill" rivals the original. Muldaur understates the lyric, bringing out its nuances and the hidden power in the melody. Muldaur's reading of Timmy Thomas' "Why Can't We Live Together" drips with sincerity and is delivered with expert control – she's a true craftswoman as a vocalist, always resisting the temptation to over-sing. That said, Muldaur may have lost her "good girl gone bad" seductiveness of the early '70s, but what she replaces it with is far more sultry because there isn't anything here but the desire to communicate the emotional intention of these songs in her husky, deeply soulful voice. Old hippies may be drawn to this set for its guests and track list, but any fan of bona fide, honestly performed, deeply emotional American music will be knocked out by it as well.

Review by Thom Jurek, Allmusic.com

Maria Muldaur, Women's Voices For Peace Choir ‎- Yes We Can! (2008)



Tracklist:

01. Make A Better World (4:47)
02. Inner City Blues (Makes Me Wanna Holler) (5:57)
03. Yes We Can, Can (5:11)
04. John Brown (5:56)
05. This Old World (3:18)
06. War (5:25)
07. We Shall Be Free (4:50)
08. License To Kill (3:57)
09. Masters Of War (6:01)
10. Why Can't We Live Together (5:58)
11. Pray For The USA (4:30)
12. Down By The Riverside (6:51)
13. Everyone In The World (4:30)


Exact Audio Copy V0.99 prebeta 4 from 23. January 2008

Отчёт EAC об извлечении, выполненном 15. ноября 2008, 22:19

Maria Muldaur / Yes We Can?

Дисковод: TEAC CD-W552G Adapter: 2 ID: 1

Режим чтения : Достоверность
Использование точного потока : Да
Отключение кэша аудио : Да
Использование указателей C2 : Нет

Коррекция смещения при чтении : 6
Способность читать области Lead-in и Lead-out : Нет
Заполнение пропущенных сэмплов тишиной : Да
Удаление блоков с тишиной в начале и конце : Нет
При вычислениях CRC использовались нулевые сэмплы : Нет
Интерфейс : Установленный внешний ASPI-интерфейс

Выходной формат : Внутренние WAV-операции
Формат сэмплов : 44.100 Гц; 16 бит; стерео


TOC извлечённого CD

Трек | Старт | Длительность | Начальный сектор | Конечный сектор
––––––––––––––––––––––––––––––––––-
1 | 0:00.00 | 4:46.52 | 0 | 21501
2 | 4:46.52 | 5:57.19 | 21502 | 48295
3 | 10:43.71 | 5:10.44 | 48296 | 71589
4 | 15:54.40 | 5:55.74 | 71590 | 98288
5 | 21:50.39 | 3:17.46 | 98289 | 113109
6 | 25:08.10 | 5:25.22 | 113110 | 137506
7 | 30:33.32 | 4:50.25 | 137507 | 159281
8 | 35:23.57 | 3:57.27 | 159282 | 177083
9 | 39:21.09 | 6:00.38 | 177084 | 204121
10 | 45:21.47 | 5:57.45 | 204122 | 230941
11 | 51:19.17 | 4:29.57 | 230942 | 251173
12 | 55:48.74 | 6:50.71 | 251174 | 281994
13 | 62:39.70 | 4:29.60 | 281995 | 302229


Характеристики диапазона извлечения и сообщения об ошибках

Выбранный диапазон

Имя файла W:\Музыка\Разное\Lossless\PART 2\Maria Muldaur - Yes We Can\Maria Muldaur - Yes We Can.wav

Пиковый уровень 100.0 %
Качество диапазона 100.0 %
CRC копии 8386F67D
Копирование… OK

Ошибок не произошло

Конец отчёта

[CUETools log; Date: 23.05.2017 20:21:18; Version: 2.1.4]
[CTDB TOCID: dz7aqiaQ6O.veQOF4Iqg.0JA9F4-] found.
Track | CTDB Status
1 | (11/11) Accurately ripped
2 | (11/11) Accurately ripped
3 | (11/11) Accurately ripped
4 | (11/11) Accurately ripped
5 | (11/11) Accurately ripped
6 | (11/11) Accurately ripped
7 | (11/11) Accurately ripped
8 | (11/11) Accurately ripped
9 | (11/11) Accurately ripped
10 | (11/11) Accurately ripped
11 | (11/11) Accurately ripped
12 | (11/11) Accurately ripped
13 | (11/11) Accurately ripped
[AccurateRip ID: 001fffe3-013ff140-a40fbd0d] found.
Track [ CRC | V2 ] Status
01 [302c8efe|9a82ebf9] (00+00/21) No match
02 [960e5d8a|15d0061c] (00+00/21) No match
03 [a8390bcc|dd71e207] (00+00/21) No match
04 [87d7e0a3|007e3ce2] (00+00/20) No match
05 [e335fb08|56cb934f] (00+00/21) No match
06 [8dd59a5c|e6af09a4] (00+00/21) No match
07 [97418010|860d342c] (00+00/20) No match
08 [c3a0c245|8480037c] (00+00/21) No match
09 [b1a0cef6|4f49b04e] (00+00/21) No match
10 [655bddb8|4396138a] (00+00/21) No match
11 [c8e5aefc|3c5b4406] (00+00/21) No match
12 [6c9462b3|60c94381] (00+00/21) No match
13 [2fd08ed7|18b68d8f] (00+00/20) No match
Offsetted by 676:
01 [cb508ce7] (07/21) Accurately ripped
02 [c3ee3187] (07/21) Accurately ripped
03 [ff8c7aa4] (07/21) Accurately ripped
04 [9c13a277] (06/20) Accurately ripped
05 [2f7a171c] (07/21) Accurately ripped
06 [147b3211] (07/21) Accurately ripped
07 [3121b1dd] (06/20) Accurately ripped
08 [bb300e2b] (07/21) Accurately ripped
09 [152b5cc5] (07/21) Accurately ripped
10 [530ccdc2] (07/21) Accurately ripped
11 [7b9a4ed0] (07/21) Accurately ripped
12 [e8c57003] (07/21) Accurately ripped
13 [bac06410] (07/20) Accurately ripped
Offsetted by 712:
01 [b033a17d] (03/21) Accurately ripped
02 [8e95a2ca] (03/21) Accurately ripped
03 [eec85d32] (03/21) Accurately ripped
04 [6ff4a777] (03/20) Accurately ripped
05 [a211eebe] (03/21) Accurately ripped
06 [257c77db] (03/21) Accurately ripped
07 [1333126e] (03/20) Accurately ripped
08 [b312ac78] (03/21) Accurately ripped
09 [e2b830df] (03/21) Accurately ripped
10 [29845d33] (03/21) Accurately ripped
11 [1963ea7b] (03/21) Accurately ripped
12 [a5601d17] (03/21) Accurately ripped
13 [a9bd7afa] (03/20) Accurately ripped

Track Peak [ CRC32 ] [W/O NULL] [ LOG ]
– 100,0 [11765D27] [8386F67D] W/O NULL
01 99,9 [1F26F8C9] [3FCD3614]
02 100,0 [815A790F] [E8151D87]
03 97,7 [0D48F531] [427D5552]
04 100,0 [8FC426EC] [7194E820]
05 97,1 [0FB7E98D] [BF158692]
06 100,0 [D4A0BB99] [819349FC]
07 98,5 [892CA9C6] [2D467F78]
08 97,2 [A1A03DE5] [B3602DBB]
09 98,2 [D9D427EA] [4E9015F9]
10 98,2 [EB9F181A] [65E88E63]
11 98,0 [803FE02D] [2FFB0DBD]
12 96,2 [A27E64F9] [DFA5594A]
13 96,1 [775D4E8C] [C57C042B]

foobar2000 1.2 / Dynamic Range Meter 1.1.1
log date: 2017-05-23 20:54:59

––––––––––––––––––––––––––––––––––––––––
Analyzed: Maria Muldaur / Yes We Can?
––––––––––––––––––––––––––––––––––––––––

DR Peak RMS Duration Track
––––––––––––––––––––––––––––––––––––––––
DR8 0.00 dB -9.83 dB 4:47 01-Make A Better World
DR7 0.00 dB -9.08 dB 5:57 02-Inner City Blues (Makes Me Wanna Holler)
DR7 -0.20 dB -8.87 dB 5:11 03-Yes We Can, Can
DR8 0.00 dB -8.83 dB 5:56 04-John Brown
DR7 -0.25 dB -8.88 dB 3:18 05-This Old World
DR7 0.00 dB -9.44 dB 5:25 06-War
DR7 -0.13 dB -8.57 dB 4:50 07-We Shall Be Free
DR8 -0.25 dB -10.32 dB 3:57 08-License To Kill
DR7 -0.15 dB -9.11 dB 6:01 09-Masters Of War
DR7 -0.15 dB -9.74 dB 5:58 10-Why Can't We Live Together
DR7 -0.17 dB -8.67 dB 4:30 11-Pray For The USA
DR7 -0.33 dB -8.47 dB 6:51 12-Down By The Riverside
DR8 -0.34 dB -9.26 dB 4:30 13-Everyone In The World
––––––––––––––––––––––––––––––––––––––––

Number of tracks: 13
Official DR value: DR7

Samplerate: 44100 Hz
Channels: 2
Bits per sample: 16
Bitrate: 855 kbps
Codec: Monkey's Audio
================================================================================

Maria Muldaur, Women's Voices For Peace Choir ‎- Yes We Can! (2008)

Maria Muldaur, Women's Voices For Peace Choir ‎- Yes We Can! (2008)