Tags
Language
Tags

Michael E - Flowers From My Garden (2020)

Posted By: gribovar
Michael E - Flowers From My Garden (2020)

Michael E - Flowers From My Garden (2020)
EAC Rip | FLAC (tracks+.cue+log) - 406 MB | MP3 CBR 320 kbps (LAME 3.93) - 169 MB | Covers - 15 MB
Genre: Chillout, Downtempo, Lounge | RAR 3% Rec. | Label: Self-released

Michael E Frith had piano lessons as a young child but was really turned on to music in big way when Motown hit him like a ton of bricks in the early sixties, he was smitten and from that time on he’s had a love affair with music. He joined various cover bands and toured the Euro/American Navy and Air force bases playing keyboards and percussion and enjoyed a short stint with U.S. vocal group Johnny Johnson and the Bandwagon, who had a massive hit worldwide with "Breaking Down The Walls Of Heartache."
Michael started to compose and was enabled to fully realise the music in his mind when the digital/software age arrived, this allowed him to create full arrangements. With this evolution, he was free to conjure up wonderful sounds, haunting melodies and explore so many musical landscapes. Michael was well and truly hooked and it was a new beginning for him.
The Café Del Mar compilations were another major influence, he was hearing electronica mixed with more organic sounds. The music he was drawn to on these compilations had it’s roots in soul, jazz, classical and soundtrack music.
In 2006, Michael E was finally in a position to dedicate his life fully to the pursuit of his musical dream. When the chance came along he grasped it wholeheartedly and he has never looked back. His first release in the chilled/lounge genre was in 2006 and ever since has simply made up for lost time and on the way has gathered a loyal fan base.
Tracklist:
01. Bring It Back (Feat. Tim Gelo)
02. Tropicalia (Feat. Ashley Slater)
03. It's Your Time
04. Conversations (Chill Mix)
05. True Love (Feat. Tim Gelo)
06. The Universe Is In Us
07. Precious Jewel
08. Turquoise (Feat. Tim Gelo Trumpet Mix)
09. Good Morning
10. Il Chiringo (Feat. Tim Gelo)
11. Her Beautiful Garden (With Rosie Danvers & Wired Strings)

Total time: 01:04:58

Exact Audio Copy V1.5 from 20. February 2020

Отчёт EAC об извлечении, выполненном 28. ноября 2020, 15:36

Michael E / Flowers From My Garden

Дисковод: PIONEER BD-RW BDR-211M Adapter: 1 ID: 0

Режим чтения : Достоверность
Использование точного потока : Да
Отключение кэша аудио : Да
Использование указателей C2 : Нет

Коррекция смещения при чтении : 667
Способность читать области Lead-in и Lead-out : Да
Заполнение пропущенных сэмплов тишиной : Да
Удаление блоков с тишиной в начале и конце : Нет
При вычислениях CRC использовались нулевые сэмплы : Да
Интерфейс : Встроенный Win32-интерфейс для Win NT/2000
Обработка зазоров : Не обнаружено, добавлено к предыдущему треку

Выходной формат : Пользовательский кодировщик
Выбранный битрейт : 1024 kBit/s
Качество : Высокий
Добавление ID3-тега : Нет
Утилита сжатия : N:\ПРОГРАММЫ\Exact Audio Copy\FLAC\FLAC.EXE
Дополнительные параметры : -6 -V -T "ARTIST=%artist%" -T "TITLE=%title%" -T "ALBUM=%albumtitle%" -T "DATE=%year%" -T "TRACKNUMBER=%tracknr%" -T "GENRE=%genre%" -T "COMMENT=%comment%" -T "BAND=%albuminterpret%" -T "ALBUMARTIST=%albuminterpret%" -T "COMPOSER=%composer%" %haslyrics%–tag-from-file=LYRICS="%lyricsfile%"%haslyrics% -T "DISCNUMBER=%cdnumber%" -T "TOTALDISCS=%totalcds%" -T "TOTALTRACKS=%numtracks%" %hascover%–picture="%coverfile%"%hascover% %source% -o %dest%


TOC извлечённого CD

Трек | Старт | Длительность | Начальный сектор | Конечный сектор
––––––––––––––––––––––––––––––––––-
1 | 0:00.00 | 4:33.22 | 0 | 20496
2 | 4:33.22 | 5:58.00 | 20497 | 47346
3 | 10:31.22 | 6:06.37 | 47347 | 74833
4 | 16:37.59 | 5:52.08 | 74834 | 101241
5 | 22:29.67 | 7:58.37 | 101242 | 137128
6 | 30:28.29 | 6:02.00 | 137129 | 164278
7 | 36:30.29 | 5:14.00 | 164279 | 187828
8 | 41:44.29 | 6:11.00 | 187829 | 215653
9 | 47:55.29 | 5:18.27 | 215654 | 239530
10 | 53:13.56 | 6:44.14 | 239531 | 269844
11 | 59:57.70 | 5:00.00 | 269845 | 292344


Трек 1

Имя файла N:\МУЗЫКА\Michael E\2020 - Flowers From My Garden\01 Bring It Back (Feat. Tim Gelo).wav

Пиковый уровень 98.8 %
Скорость извлечения 4.9 X
Качество трека 100.0 %
CRC теста CBC28891
CRC копии CBC28891
Трек не обнаружен в базе AccurateRip
Копирование… OK

Трек 2

Имя файла N:\МУЗЫКА\Michael E\2020 - Flowers From My Garden\02 Tropicalia (Feat. Ashley Slater).wav

Пиковый уровень 98.3 %
Скорость извлечения 5.6 X
Качество трека 100.0 %
CRC теста 2A2D35B8
CRC копии 2A2D35B8
Трек не обнаружен в базе AccurateRip
Копирование… OK

Трек 3

Имя файла N:\МУЗЫКА\Michael E\2020 - Flowers From My Garden\03 It's Your Time.wav

Пиковый уровень 95.6 %
Скорость извлечения 5.7 X
Качество трека 99.9 %
CRC теста 013B5DEC
CRC копии 013B5DEC
Трек не обнаружен в базе AccurateRip
Копирование… OK

Трек 4

Имя файла N:\МУЗЫКА\Michael E\2020 - Flowers From My Garden\04 Conversations (Chill Mix).wav

Пиковый уровень 96.5 %
Скорость извлечения 5.7 X
Качество трека 100.0 %
CRC теста EF4D72DF
CRC копии EF4D72DF
Трек не обнаружен в базе AccurateRip
Копирование… OK

Трек 5

Имя файла N:\МУЗЫКА\Michael E\2020 - Flowers From My Garden\05 True Love (Feat. Tim Gelo Trumpet Mix).wav

Пиковый уровень 95.6 %
Скорость извлечения 7.2 X
Качество трека 100.0 %
CRC теста 7728D477
CRC копии 7728D477
Трек не обнаружен в базе AccurateRip
Копирование… OK

Трек 6

Имя файла N:\МУЗЫКА\Michael E\2020 - Flowers From My Garden\06 The Universe Is In Us.wav

Пиковый уровень 98.3 %
Скорость извлечения 7.5 X
Качество трека 100.0 %
CRC теста AA8DB514
CRC копии AA8DB514
Трек не обнаружен в базе AccurateRip
Копирование… OK

Трек 7

Имя файла N:\МУЗЫКА\Michael E\2020 - Flowers From My Garden\07 Precious Jewel.wav

Пиковый уровень 98.8 %
Скорость извлечения 7.6 X
Качество трека 100.0 %
CRC теста 939241D6
CRC копии 939241D6
Трек не обнаружен в базе AccurateRip
Копирование… OK

Трек 8

Имя файла N:\МУЗЫКА\Michael E\2020 - Flowers From My Garden\08 Turquoise (Feat. Tim Gelo Trumpet Mix).wav

Пиковый уровень 98.8 %
Скорость извлечения 7.7 X
Качество трека 100.0 %
CRC теста DA36121B
CRC копии DA36121B
Трек не обнаружен в базе AccurateRip
Копирование… OK

Трек 9

Имя файла N:\МУЗЫКА\Michael E\2020 - Flowers From My Garden\09 Good Morning.wav

Пиковый уровень 98.8 %
Скорость извлечения 7.4 X
Качество трека 99.9 %
CRC теста F6AF8F03
CRC копии F6AF8F03
Трек не обнаружен в базе AccurateRip
Копирование… OK

Трек 10

Имя файла N:\МУЗЫКА\Michael E\2020 - Flowers From My Garden\10 Il Chiringo (Feat. Tim Gelo).wav

Пиковый уровень 93.1 %
Скорость извлечения 8.6 X
Качество трека 100.0 %
CRC теста E74347C8
CRC копии E74347C8
Трек не обнаружен в базе AccurateRip
Копирование… OK

Трек 11

Имя файла N:\МУЗЫКА\Michael E\2020 - Flowers From My Garden\11 Her Beautiful Garden (With Rosie Danvers & Wired Strings).wav

Пиковый уровень 86.6 %
Скорость извлечения 9.1 X
Качество трека 100.0 %
CRC теста 50CF5992
CRC копии 50CF5992
Трек не обнаружен в базе AccurateRip
Копирование… OK


Ни одного трека нет в базе AccurateRip

Ошибок не произошло

Конец отчёта

–– CUETools DB Plugin V2.1.6

[CTDB TOCID: Dpe.goDYaVzPdp0bZNoninfxUjI-] disk not present in database
Submit result: Dpe.goDYaVzPdp0bZNoninfxUjI- has been uploaded


==== Контрольная сумма отчёта 463EE2DBD568D152F2F9CD74E7A0FBB2BAD7FB6CD0B942E0658954E7E9952980 ====

[CUETools log; Date: 29.11.2020 13:46:11; Version: 2.1.4]
[CTDB TOCID: Dpe.goDYaVzPdp0bZNoninfxUjI-] found.
Track | CTDB Status
1 | (1/1) Accurately ripped
2 | (1/1) Accurately ripped
3 | (1/1) Accurately ripped
4 | (1/1) Accurately ripped
5 | (1/1) Accurately ripped
6 | (1/1) Accurately ripped
7 | (1/1) Accurately ripped
8 | (1/1) Accurately ripped
9 | (1/1) Accurately ripped
10 | (1/1) Accurately ripped
11 | (1/1) Accurately ripped
[AccurateRip ID: 001ab604-00e91a1c-ac0f390b] disk not present in database.

Track Peak [ CRC32 ] [W/O NULL] [ LOG ]
– 98,8 [F62E286A] [EDD58DDF]
01 98,8 [CBC28891] [8DEDD8B2] CRC32
02 98,3 [2A2D35B8] [B584696F] CRC32
03 95,6 [013B5DEC] [1540CDBC] CRC32
04 96,5 [EF4D72DF] [33FEC8DE] CRC32
05 95,6 [7728D477] [4A0453B4] CRC32
06 98,3 [AA8DB514] [C4C674A2] CRC32
07 98,8 [939241D6] [ACF6D6B9] CRC32
08 98,8 [DA36121B] [85E64FEA] CRC32
09 98,8 [F6AF8F03] [65D33F4A] CRC32
10 93,1 [E74347C8] [2920A83A] CRC32
11 86,6 [50CF5992] [5FC04FAD] CRC32

Thanks to Мурзичек

See also: