Subcategories
Tags
Language
Tags

Mink DeVille - Spanish Stroll 1977-1987 (1993)

Posted By: v3122
Mink DeVille - Spanish Stroll 1977-1987 (1993)

Mink DeVille - Spanish Stroll 1977-1987 (1993)
EAC | Flac(Image) + Cue + Log & MP3 CBR 320Kbps
Raven Records, RVCD-32 | ~ 476 or 187 Mb | Scans Included
Swamp Rock, Punk Rock, Cabaret Rock

Disky boils down the wild and varied career of Willy DeVille and concentrates on his legendary New York band, Mink DeVille, and their brand of no-nonsense, razor-blade Spanish stroll Jersey soul; it was a musical blend that had more in common with Phil Spector's 1960s than the CBGB '70s, but that's where it came from and it connected with the punks big time. This is roots rock with soul, swagger, and slither; it's a combination of catchy hooks, sweeping early rock crescendos, and DeVille's in-the-cut vocals that could melt the pants off a teenage girl at 50 paces – well, at least back in the day they could. The 14 tracks assembled here come from the band's self-titled debut album, Return to Magenta, and Chat Bleu, a record the band collaborated on with the legendary Doc Pomus, all recorded between 1977 and 1980. The band issued two more acclaimed recordings after this, but fell apart amidst the dance mania of the new wave '80s. Here are the classics from those three albums: "Venus of Avenue D," "Mixed-Up, Shook-Up Girl," the title track, "Just to Walk That Little Girl Home" (written with Pomus), "A Train Lady," "Guardian Angel," "This Must Be the Night," "Heaven Stood Still," and many others. This is the sound Lou Reed tried to emulate all his life after the Velvet Underground, the street tough who is possessed by the tenderness of a boy with a rusty nail carving a woman's name into his arm with black ink and a cigarette lighter. This is the sound of a street that will never disappear, the sound of music as it evaporates into the heart of the listener and echoes long after the music has stopped playing. This is Mink DeVille the cipher, the legend, the no-account rock band with a street gang's attitude and a soul-boy's croon.

by Thom Jurek, AMG
Mink DeVille - Spanish Stroll 1977-1987 (1993):

Mink DeVille - Spanish Stroll 1977-1987 (1993)

Tracklist:

01. Mixed Up, Shook Up Girl (03:43)
02. Little Girl (04:20)
03. Venus of Avenue D (05:00)
04. Spanish Stroll (03:38)
05. Cadillac Walk (03:15)
06. "A" Train Lady (03:23)
07. Just Your Friends (04:10)
08. I Broke That Promise (03:01)
09. Just to Walk That Little Girl Home (03:47)
10. This Must Be the Night (02:49)
11. Savoir Faire (03:12)
12. Just Give Me One Good Reason (03:15)
13. Maybe Tomorrow (02:56)
14. You Better Move On (02:59)
15. Each Word's a Beat of My Heart (03:24)
16. Italian Shoes (04:23)
17. Pride & Joy (03:29)
18. I Must Be Dreaming (04:23)
19. In the Heart of the City (03:21)
20. Could You Would You? (03:35)
21. Heart and Soul (04:06)

Converted to Image (CUETools 2.1.4)

Exact Audio Copy V1.0 beta 3 from 29. August 2011

EAC extraction logfile from 13. November 2014, 16:12

Mink DeVille / Spanish Stroll 1977-1987

Used drive : TSSTcorpDVD+-RW TS-H553A Adapter: 0 ID: 3

Read mode : Secure
Utilize accurate stream : Yes
Defeat audio cache : Yes
Make use of C2 pointers : No

Read offset correction : 6
Overread into Lead-In and Lead-Out : No
Fill up missing offset samples with silence : Yes
Delete leading and trailing silent blocks : No
Null samples used in CRC calculations : Yes
Used interface : Native Win32 interface for Win NT & 2000
Gap handling : Appended to previous track

Used output format : User Defined Encoder
Selected bitrate : 1024 kBit/s
Quality : High
Add ID3 tag : No
Command line compressor : C:\Program Files\Exact Audio Copy\FLAC\FLAC.EXE
Additional command line options : -8 -V -T "ARTIST=%artist%" -T "TITLE=%title%" -T "ALBUM=%albumtitle%" -T "DATE=%year%" -T "TRACKNUMBER=%tracknr%" -T "GENRE=%genre%" -T "PERFORMER=%albuminterpret%" -T "COMPOSER=%composer%" %haslyrics%–tag-from-file=LYRICS="%lyricsfile%"%haslyrics% -T "ALBUMARTIST=%albumartist%" -T "DISCNUMBER=%cdnumber%" -T "TOTALDISCS=%totalcds%" -T "TOTALTRACKS=%numtracks%" -T "COMMENT=%comment%" %source% -o %dest%


TOC of the extracted CD

Track | Start | Length | Start sector | End sector
––––––––––––––––––––––––––––-
1 | 0:00.33 | 3:42.67 | 33 | 16749
2 | 3:43.25 | 4:20.08 | 16750 | 36257
3 | 8:03.33 | 5:00.02 | 36258 | 58759
4 | 13:03.35 | 3:37.55 | 58760 | 75089
5 | 16:41.15 | 3:14.38 | 75090 | 89677
6 | 19:55.53 | 3:23.00 | 89678 | 104902
7 | 23:18.53 | 4:10.22 | 104903 | 123674
8 | 27:29.00 | 3:00.50 | 123675 | 137224
9 | 30:29.50 | 3:46.50 | 137225 | 154224
10 | 34:16.25 | 2:49.28 | 154225 | 166927
11 | 37:05.53 | 3:11.40 | 166928 | 181292
12 | 40:17.18 | 3:15.20 | 181293 | 195937
13 | 43:32.38 | 2:56.15 | 195938 | 209152
14 | 46:28.53 | 2:59.15 | 209153 | 222592
15 | 49:27.68 | 3:23.65 | 222593 | 237882
16 | 52:51.58 | 4:22.50 | 237883 | 257582
17 | 57:14.33 | 3:29.20 | 257583 | 273277
18 | 60:43.53 | 4:22.72 | 273278 | 292999
19 | 65:06.50 | 3:21.00 | 293000 | 308074
20 | 68:27.50 | 3:34.63 | 308075 | 324187
21 | 72:02.38 | 4:06.62 | 324188 | 342699


Track 1

Filename Z:\Mink DeVille - Spanish Stroll 1977-1987\Mink DeVille - Spanish Stroll 1977-1987 (1993) [FLAC] {Raven RVCD-32} NEW\01 - Mixed Up, Shook Up Girl.wav

Pre-gap length 0:00:02.33

Peak level 100.0 %
Extraction speed 1.9 X
Track quality 100.0 %
Test CRC 7204E69C
Copy CRC 7204E69C
Accurately ripped (confidence 7) [276AEC64] (AR v2)
Copy OK

Track 2

Filename Z:\Mink DeVille - Spanish Stroll 1977-1987\Mink DeVille - Spanish Stroll 1977-1987 (1993) [FLAC] {Raven RVCD-32} NEW\02 - Little Girl.wav

Pre-gap length 0:00:01.72

Peak level 83.5 %
Extraction speed 2.2 X
Track quality 100.0 %
Test CRC B8483416
Copy CRC B8483416
Accurately ripped (confidence 7) [4C5F91C4] (AR v2)
Copy OK

Track 3

Filename Z:\Mink DeVille - Spanish Stroll 1977-1987\Mink DeVille - Spanish Stroll 1977-1987 (1993) [FLAC] {Raven RVCD-32} NEW\03 - Venus Of Avenue D.wav

Pre-gap length 0:00:02.10

Peak level 99.1 %
Extraction speed 2.4 X
Track quality 100.0 %
Test CRC 23EB4929
Copy CRC 23EB4929
Accurately ripped (confidence 7) [0DE96B6D] (AR v2)
Copy OK

Track 4

Filename Z:\Mink DeVille - Spanish Stroll 1977-1987\Mink DeVille - Spanish Stroll 1977-1987 (1993) [FLAC] {Raven RVCD-32} NEW\04 - Spanish Stroll.wav

Pre-gap length 0:00:02.40

Peak level 97.4 %
Extraction speed 2.5 X
Track quality 100.0 %
Test CRC A0C10FD0
Copy CRC A0C10FD0
Accurately ripped (confidence 7) [2130DB50] (AR v2)
Copy OK

Track 5

Filename Z:\Mink DeVille - Spanish Stroll 1977-1987\Mink DeVille - Spanish Stroll 1977-1987 (1993) [FLAC] {Raven RVCD-32} NEW\05 - Cadillac Walk.wav

Pre-gap length 0:00:02.20

Peak level 93.1 %
Extraction speed 2.2 X
Track quality 99.9 %
Test CRC A612F94D
Copy CRC A612F94D
Accurately ripped (confidence 7) [906C2F88] (AR v2)
Copy OK

Track 6

Filename Z:\Mink DeVille - Spanish Stroll 1977-1987\Mink DeVille - Spanish Stroll 1977-1987 (1993) [FLAC] {Raven RVCD-32} NEW\06 - 'A' Train Lady.wav

Pre-gap length 0:00:02.10

Peak level 73.3 %
Extraction speed 2.7 X
Track quality 100.0 %
Test CRC 7F8C97E1
Copy CRC 7F8C97E1
Accurately ripped (confidence 7) [6B32DA8F] (AR v2)
Copy OK

Track 7

Filename Z:\Mink DeVille - Spanish Stroll 1977-1987\Mink DeVille - Spanish Stroll 1977-1987 (1993) [FLAC] {Raven RVCD-32} NEW\07 - Just Your Friends.wav

Pre-gap length 0:00:02.53

Peak level 94.1 %
Extraction speed 2.5 X
Track quality 99.9 %
Test CRC 5F838E27
Copy CRC 5F838E27
Accurately ripped (confidence 7) [8FDDCE22] (AR v2)
Copy OK

Track 8

Filename Z:\Mink DeVille - Spanish Stroll 1977-1987\Mink DeVille - Spanish Stroll 1977-1987 (1993) [FLAC] {Raven RVCD-32} NEW\08 - I Broke That Promise.wav

Pre-gap length 0:00:01.60

Peak level 94.1 %
Extraction speed 2.8 X
Track quality 100.0 %
Test CRC 94EB4321
Copy CRC 94EB4321
Accurately ripped (confidence 7) [DB87FCB3] (AR v2)
Copy OK

Track 9

Filename Z:\Mink DeVille - Spanish Stroll 1977-1987\Mink DeVille - Spanish Stroll 1977-1987 (1993) [FLAC] {Raven RVCD-32} NEW\09 - Just To Walk That Little Girl Home.wav

Pre-gap length 0:00:02.07

Peak level 100.0 %
Extraction speed 3.0 X
Track quality 100.0 %
Test CRC 07CA1D1A
Copy CRC 07CA1D1A
Accurately ripped (confidence 7) [E2E76F34] (AR v2)
Copy OK

Track 10

Filename Z:\Mink DeVille - Spanish Stroll 1977-1987\Mink DeVille - Spanish Stroll 1977-1987 (1993) [FLAC] {Raven RVCD-32} NEW\10 - This Must Be The Night.wav

Pre-gap length 0:00:03.32

Peak level 100.0 %
Extraction speed 3.0 X
Track quality 100.0 %
Test CRC B7F33B98
Copy CRC B7F33B98
Accurately ripped (confidence 7) [285520C9] (AR v2)
Copy OK

Track 11

Filename Z:\Mink DeVille - Spanish Stroll 1977-1987\Mink DeVille - Spanish Stroll 1977-1987 (1993) [FLAC] {Raven RVCD-32} NEW\11 - Savoir Faire.wav

Pre-gap length 0:00:01.60

Peak level 97.1 %
Extraction speed 2.6 X
Track quality 99.9 %
Test CRC 64495B1B
Copy CRC 64495B1B
Accurately ripped (confidence 7) [04C7AEAF] (AR v2)
Copy OK

Track 12

Filename Z:\Mink DeVille - Spanish Stroll 1977-1987\Mink DeVille - Spanish Stroll 1977-1987 (1993) [FLAC] {Raven RVCD-32} NEW\12 - Just Give Me One Good Reason.wav

Pre-gap length 0:00:02.38

Peak level 83.1 %
Extraction speed 3.2 X
Track quality 100.0 %
Test CRC ABB63022
Copy CRC ABB63022
Accurately ripped (confidence 7) [C8D3E797] (AR v2)
Copy OK

Track 13

Filename Z:\Mink DeVille - Spanish Stroll 1977-1987\Mink DeVille - Spanish Stroll 1977-1987 (1993) [FLAC] {Raven RVCD-32} NEW\13 - Maybe Tomorrow.wav

Pre-gap length 0:00:01.63

Peak level 100.0 %
Extraction speed 3.2 X
Track quality 100.0 %
Test CRC D4A44BBD
Copy CRC D4A44BBD
Accurately ripped (confidence 7) [986A9558] (AR v2)
Copy OK

Track 14

Filename Z:\Mink DeVille - Spanish Stroll 1977-1987\Mink DeVille - Spanish Stroll 1977-1987 (1993) [FLAC] {Raven RVCD-32} NEW\14 - You Better Move On.wav

Pre-gap length 0:00:02.15

Peak level 73.5 %
Extraction speed 3.3 X
Track quality 100.0 %
Test CRC 201E38E1
Copy CRC 201E38E1
Accurately ripped (confidence 7) [0A1179A4] (AR v2)
Copy OK

Track 15

Filename Z:\Mink DeVille - Spanish Stroll 1977-1987\Mink DeVille - Spanish Stroll 1977-1987 (1993) [FLAC] {Raven RVCD-32} NEW\15 - Each Word's A Beat Of My Heart.wav

Pre-gap length 0:00:02.23

Peak level 100.0 %
Extraction speed 3.0 X
Track quality 99.9 %
Test CRC 0127CD27
Copy CRC 0127CD27
Accurately ripped (confidence 7) [9D161201] (AR v2)
Copy OK

Track 16

Filename Z:\Mink DeVille - Spanish Stroll 1977-1987\Mink DeVille - Spanish Stroll 1977-1987 (1993) [FLAC] {Raven RVCD-32} NEW\16 - Italian Shoes.wav

Pre-gap length 0:00:02.05

Peak level 89.4 %
Extraction speed 3.6 X
Track quality 100.0 %
Test CRC 5E6C953B
Copy CRC 5E6C953B
Accurately ripped (confidence 7) [BE939A79] (AR v2)
Copy OK

Track 17

Filename Z:\Mink DeVille - Spanish Stroll 1977-1987\Mink DeVille - Spanish Stroll 1977-1987 (1993) [FLAC] {Raven RVCD-32} NEW\17 - Pride & Joy.wav

Pre-gap length 0:00:02.43

Peak level 70.9 %
Extraction speed 3.6 X
Track quality 100.0 %
Test CRC 8950EA98
Copy CRC 8950EA98
Accurately ripped (confidence 7) [5FAE38E9] (AR v2)
Copy OK

Track 18

Filename Z:\Mink DeVille - Spanish Stroll 1977-1987\Mink DeVille - Spanish Stroll 1977-1987 (1993) [FLAC] {Raven RVCD-32} NEW\18 - I Must Be Dreaming.wav

Pre-gap length 0:00:02.25

Peak level 85.8 %
Extraction speed 3.4 X
Track quality 99.9 %
Test CRC 523D966F
Copy CRC 523D966F
Accurately ripped (confidence 7) [E311C49B] (AR v2)
Copy OK

Track 19

Filename Z:\Mink DeVille - Spanish Stroll 1977-1987\Mink DeVille - Spanish Stroll 1977-1987 (1993) [FLAC] {Raven RVCD-32} NEW\19 - In The Heart Of The City.wav

Pre-gap length 0:00:03.17

Peak level 97.5 %
Extraction speed 3.7 X
Track quality 100.0 %
Test CRC 5F3BD96D
Copy CRC 5F3BD96D
Accurately ripped (confidence 7) [D6F428F5] (AR v2)
Copy OK

Track 20

Filename Z:\Mink DeVille - Spanish Stroll 1977-1987\Mink DeVille - Spanish Stroll 1977-1987 (1993) [FLAC] {Raven RVCD-32} NEW\20 - Could You Would You.wav

Pre-gap length 0:00:02.15

Peak level 100.0 %
Extraction speed 3.9 X
Track quality 100.0 %
Test CRC AB7B3C09
Copy CRC AB7B3C09
Accurately ripped (confidence 7) [EF197EF3] (AR v2)
Copy OK

Track 21

Filename Z:\Mink DeVille - Spanish Stroll 1977-1987\Mink DeVille - Spanish Stroll 1977-1987 (1993) [FLAC] {Raven RVCD-32} NEW\21 - Heart And Soul.wav

Pre-gap length 0:00:04.10

Peak level 94.5 %
Extraction speed 4.0 X
Track quality 100.0 %
Test CRC A7D17C91
Copy CRC A7D17C91
Accurately ripped (confidence 6) [582E83FA] (AR v2)
Copy OK


All tracks accurately ripped

No errors occurred

End of status report

–– CUETools DB Plugin V2.1.4

[CTDB TOCID: 7e2iEpCIjLPD_wBTEaKbpbdBQ9k-] disk not present in database
Submit result: 7e2iEpCIjLPD_wBTEaKbpbdBQ9k- has been uploaded


==== Log checksum C634A261C3FC11C9835DB4B9BB842CAB857E46F2B050A7D16A4B3EEA86A16A98 ====

foobar2000 1.2.9 / Dynamic Range Meter 1.1.1
log date: 2016-07-09 17:35:09

––––––––––––––––––––––––––––––––––––––––
Analyzed: Mink DeVille / Spanish Stroll 1977-1987
––––––––––––––––––––––––––––––––––––––––

DR Peak RMS Duration Track
––––––––––––––––––––––––––––––––––––––––
DR13 0.00 dB -16.61 dB 3:43 01-Mixed Up, Shook Up Girl
DR14 -1.56 dB -17.88 dB 4:20 02-Little Girl
DR13 -0.07 dB -16.94 dB 5:00 03-Venus Of Avenue D
DR15 -0.22 dB -17.37 dB 3:38 04-Spanish Stroll
DR13 -0.61 dB -16.02 dB 3:15 05-Cadillac Walk
DR14 -2.70 dB -19.57 dB 3:23 06-'A' Train Lady
DR15 -0.52 dB -17.33 dB 4:10 07-Just Your Friends
DR13 -0.53 dB -16.56 dB 3:01 08-I Broke That Promise
DR14 0.00 dB -18.17 dB 3:47 09-Just To Walk That Little Girl Home
DR11 0.00 dB -14.87 dB 2:49 10-This Must Be The Night
DR13 -0.25 dB -15.45 dB 3:12 11-Savoir Faire
DR12 -1.60 dB -14.96 dB 3:15 12-Just Give Me One Good Reason
DR13 0.00 dB -15.16 dB 2:56 13-Maybe Tomorrow
DR15 -2.67 dB -19.95 dB 2:59 14-You Better Move On
DR15 0.00 dB -16.59 dB 3:24 15-Each Word's A Beat Of My Heart
DR15 -0.96 dB -18.62 dB 4:23 16-Italian Shoes
DR12 -2.98 dB -16.29 dB 3:29 17-Pride & Joy
DR13 -1.32 dB -16.81 dB 4:23 18-I Must Be Dreaming
DR14 -0.22 dB -18.08 dB 3:21 19-In The Heart Of The City
DR13 0.00 dB -14.55 dB 3:35 20-Could You Would You?
DR13 -0.49 dB -16.87 dB 4:07 21-Heart And Soul
––––––––––––––––––––––––––––––––––––––––

Number of tracks: 21
Official DR value: DR13

Samplerate: 44100 Hz
Channels: 2
Bits per sample: 16
Bitrate: 835 kbps
Codec: FLAC

[CUETools log; Date: 09.07.2016 17:34:55; Version: 2.1.4]
Pregap length 00:00:33.
[CTDB TOCID: 7e2iEpCIjLPD_wBTEaKbpbdBQ9k-] found.
Track | CTDB Status
1 | (6/6) Accurately ripped
2 | (5/6) Accurately ripped
3 | (5/6) Accurately ripped
4 | (6/6) Accurately ripped
5 | (6/6) Accurately ripped
6 | (5/6) Accurately ripped
7 | (5/6) Accurately ripped
8 | (6/6) Accurately ripped
9 | (6/6) Accurately ripped
10 | (6/6) Accurately ripped
11 | (6/6) Accurately ripped
12 | (6/6) Accurately ripped
13 | (6/6) Accurately ripped
14 | (6/6) Accurately ripped
15 | (6/6) Accurately ripped
16 | (6/6) Accurately ripped
17 | (5/6) Accurately ripped
18 | (5/6) Accurately ripped
19 | (5/6) Accurately ripped
20 | (5/6) Accurately ripped
21 | (5/6) Accurately ripped
[AccurateRip ID: 003a1fb9-0371ec4b-2a11d915] found.
Track [ CRC | V2 ] Status
01 [006247f2|276aec64] (08+09/24) Accurately ripped
02 [81a6636d|4c5f91c4] (07+09/23) Accurately ripped
03 [6c9b713f|0de96b6d] (08+09/25) Accurately ripped
04 [8e363bed|2130db50] (08+09/25) Accurately ripped
05 [0df6d983|906c2f88] (08+09/24) Accurately ripped
06 [38447996|6b32da8f] (08+09/24) Accurately ripped
07 [a6d4f1a3|8fddce22] (08+09/24) Accurately ripped
08 [35ca4290|db87fcb3] (07+09/23) Accurately ripped
09 [5d36ad5c|e2e76f34] (07+09/23) Accurately ripped
10 [3f8a3c0d|285520c9] (07+09/21) Accurately ripped
11 [b0e366a4|04c7aeaf] (07+09/23) Accurately ripped
12 [24ad59d3|c8d3e797] (07+09/25) Accurately ripped
13 [6f1d1633|986a9558] (08+09/24) Accurately ripped
14 [16166e01|0a1179a4] (08+10/25) Accurately ripped
15 [b2c0f58c|9d161201] (07+09/23) Accurately ripped
16 [bd79bbbd|be939a79] (07+09/23) Accurately ripped
17 [4b182b83|5fae38e9] (08+09/24) Accurately ripped
18 [fbf6f31c|e311c49b] (07+09/23) Accurately ripped
19 [4eb5fa7c|d6f428f5] (07+09/23) Accurately ripped
20 [049885e5|ef197ef3] (06+09/22) Accurately ripped
21 [4e6ee296|582e83fa] (06+09/22) Accurately ripped
Offsetted by -681:
01 [c9b70966] (03/24) Accurately ripped
02 [459b50e4] (03/23) Accurately ripped
03 [e7a3bd9e] (03/25) Accurately ripped
04 [3fce753c] (03/25) Accurately ripped
05 [a2fb9b59] (03/24) Accurately ripped
06 [775d75a6] (03/24) Accurately ripped
07 [f589065b] (03/24) Accurately ripped
08 [719e9574] (03/23) Accurately ripped
09 [cd71cccf] (03/23) Accurately ripped
10 [f424d19a] (03/21) Accurately ripped
11 [f6f5b7a2] (03/23) Accurately ripped
12 [5fc7b7a0] (03/25) Accurately ripped
13 [7ed54282] (03/24) Accurately ripped
14 [83649ca0] (03/25) Accurately ripped
15 [63e96337] (03/23) Accurately ripped
16 [c7e4fd27] (03/23) Accurately ripped
17 [8e545425] (03/24) Accurately ripped
18 [c4b4479f] (03/23) Accurately ripped
19 [b3a36b83] (03/23) Accurately ripped
20 [30585ef8] (03/22) Accurately ripped
21 [15a6bf77] (03/22) Accurately ripped
Offsetted by -664:
01 [c6f1d1d2] (02/24) Accurately ripped
02 [d0a01016] (02/23) Accurately ripped
03 [f00f32b8] (03/25) Accurately ripped
04 [4b72f3bd] (03/25) Accurately ripped
05 [543628b8] (02/24) Accurately ripped
06 [b135bdcc] (02/24) Accurately ripped
07 [bd965b21] (02/24) Accurately ripped
08 [3f48a360] (02/23) Accurately ripped
09 [4d11962d] (02/23) Accurately ripped
10 [646e7b4f] (00/21) No match (V2 was not tested)
11 [6893d872] (02/23) Accurately ripped
12 [2d546322] (03/25) Accurately ripped
13 [b4c678bc] (02/24) Accurately ripped
14 [85ad1805] (02/25) Accurately ripped
15 [0b63ca97] (02/23) Accurately ripped
16 [c464af2c] (02/23) Accurately ripped
17 [9deb3c99] (02/24) Accurately ripped
18 [617879fd] (02/23) Accurately ripped
19 [9ec34220] (02/23) Accurately ripped
20 [041f05cb] (02/22) Accurately ripped
21 [4b1d369b] (02/22) Accurately ripped

Track Peak [ CRC32 ] [W/O NULL] [ LOG ]
– 100,0 [2582268A] [3C162B61]
01 100,0 [7204E69C] [850FB019] CRC32
02 83,5 [B8483416] [FE5376C3] CRC32
03 99,1 [23EB4929] [DCB535A2] CRC32
04 97,4 [A0C10FD0] [F74DB64F] CRC32
05 93,1 [A612F94D] [772CB9EB] CRC32
06 73,3 [7F8C97E1] [4C50B450] CRC32
07 94,1 [5F838E27] [472C66B5] CRC32
08 94,1 [94EB4321] [D6BDC3FA] CRC32
09 100,0 [07CA1D1A] [18159B28] CRC32
10 100,0 [B7F33B98] [B9A9DE07] CRC32
11 97,1 [64495B1B] [D554156E] CRC32
12 83,1 [ABB63022] [69B92666] CRC32
13 100,0 [D4A44BBD] [CA04EB44] CRC32
14 73,5 [201E38E1] [CB2925DF] CRC32
15 100,0 [0127CD27] [B78E2D17] CRC32
16 89,4 [5E6C953B] [855C3987] CRC32
17 70,9 [8950EA98] [3E25EB44] CRC32
18 85,8 [523D966F] [0E0A43B4] CRC32
19 97,5 [5F3BD96D] [73280CF4] CRC32
20 100,0 [AB7B3C09] [F6AD0CDD] CRC32
21 94,5 [A7D17C91] [E680C056] CRC32

Mink DeVille - Spanish Stroll 1977-1987 (1993)

All thanks go to the original releaser

Download Mink DeVille - Spanish Stroll 1977-1987 (1993):