Subcategories

Naked City - Torture Garden (1990) {Shimmy Disc}

Posted By: TestTickles
Naked City - Torture Garden (1990) {Shimmy Disc}

Naked City - Torture Garden (1990) {Shimmy Disc}
EAC Rip | FLAC with CUE and LOG | scans | 183 mb
MP3 CBR 320 kbps | RAR | 60 mb
Genre: noise rock, jazz noise

Torture Garden is the 1990 album by Naked City, the band that features John Zorn and Yamatsuka Eye of Japanese band Boredoms. While nine of the songs here appeared on Zorn's Naked City album, the remainder appeared on Naked City's own Grand Guidnol. This was released by the Shimmy Disc label.

Naked City - Torture Garden (1990) {Shimmy Disc}

01. Blood Is Thin
02. Demon Sanctuary
03. Thrash Jazz Assassin
04. Dead Spot
05. Bonehead
06. Speedball
07. Blood Duster
08. Pile Driver
09. Shangkuan Ling-feng
10. Numbskull
11. Perfume Of A Critic's Burning Flesh
12. Jazz Snob Eat Shit
13. The Prestidigitator
14. No Reason To Believe
15. Hellraiser
16. Torture Garden
17. Slan
18. Hammerhead
19. The Ways Of Pain
20. The Noose
21. Sack Of Shit
22. Blunt Instrument
23. Osaka Bondage
24. Igneous Ejaculation
25. Shallow Grave
26. Ujaku
27. Kaoru
28. Dead Dread
29. Billy Liar
30. Victims Of Torture
31. Speedfreaks
32. New Jersey Scum Swamp
33. S & M Sniper
34. Pigfucker
35. Cairo Chop Shop
36. Fuck The Facts
37. Obeah Man
38. Facelifter
39. N.Y. Flat Top Box
40. Whiplash
41. The Blade
42. Gob Of Spit

John Zorn-alto saxophone, vocals
Bill Frisell-guitar
Fred Frith-bass
Wayne Horvitz-keyboards
Joey Baron-drums
Yamatsuka Eye-vocals

Produced by John Zorn
Recorded by Martin Bisi, Roger Moutenot & Seigen Ono
Mixed by Roger Moutenot
Mastered by Bob Ludwig

Exact Audio Copy V1.3 from 2. September 2016

EAC extraction logfile from 20. December 2017, 16:28

Naked City / Torture Garden

Used drive : ATAPI iHAS122 F Adapter: 1 ID: 0

Read mode : Secure
Utilize accurate stream : Yes
Defeat audio cache : Yes
Make use of C2 pointers : No

Read offset correction : 6
Overread into Lead-In and Lead-Out : No
Fill up missing offset samples with silence : Yes
Delete leading and trailing silent blocks : No
Null samples used in CRC calculations : Yes
Used interface : Native Win32 interface for Win NT & 2000
Gap handling : Appended to previous track

Used output format : User Defined Encoder
Selected bitrate : 128 kBit/s
Quality : High
Add ID3 tag : No
Command line compressor : C:\Program Files (x86)\Exact Audio Copy\Flac\flac.exe
Additional command line options : -V -8 -T "Genre=%genre%" -T "Artist=%artist%" -T "Title=%title%" -T "Album=%albumtitle%" -T "Date=%year%" -T "Tracknumber=%tracknr%" -T "Comment=%comment%" %source%


TOC of the extracted CD

Track | Start | Length | Start sector | End sector
––––––––––––––––––––––––––––-
1 | 0:00.00 | 1:03.62 | 0 | 4786
2 | 1:03.62 | 0:42.25 | 4787 | 7961
3 | 1:46.12 | 0:48.58 | 7962 | 11619
4 | 2:34.70 | 0:35.20 | 11620 | 14264
5 | 3:10.15 | 0:56.07 | 14265 | 18471
6 | 4:06.22 | 0:39.63 | 18472 | 21459
7 | 4:46.10 | 0:17.45 | 21460 | 22779
8 | 5:03.55 | 0:37.47 | 22780 | 25601
9 | 5:41.27 | 1:18.53 | 25602 | 31504
10 | 7:00.05 | 0:32.00 | 31505 | 33904
11 | 7:32.05 | 0:28.30 | 33905 | 36034
12 | 8:00.35 | 0:27.40 | 36035 | 38099
13 | 8:28.00 | 0:48.22 | 38100 | 41721
14 | 9:16.22 | 0:27.40 | 41722 | 43786
15 | 9:43.62 | 0:42.20 | 43787 | 46956
16 | 10:26.07 | 0:39.43 | 46957 | 49924
17 | 11:05.50 | 0:26.05 | 49925 | 51879
18 | 11:31.55 | 0:12.09 | 51880 | 52788
19 | 11:43.64 | 0:35.73 | 52789 | 55486
20 | 12:19.62 | 0:12.48 | 55487 | 56434
21 | 12:32.35 | 0:48.07 | 56435 | 60041
22 | 13:20.42 | 0:55.70 | 60042 | 64236
23 | 14:16.37 | 1:17.73 | 64237 | 70084
24 | 15:34.35 | 0:25.00 | 70085 | 71959
25 | 15:59.35 | 0:43.02 | 71960 | 75186
26 | 16:42.37 | 0:31.35 | 75187 | 77546
27 | 17:13.72 | 0:54.70 | 77547 | 81666
28 | 18:08.67 | 0:49.10 | 81667 | 85351
29 | 18:58.02 | 0:15.35 | 85352 | 86511
30 | 19:13.37 | 0:26.28 | 86512 | 88489
31 | 19:39.65 | 0:52.12 | 88490 | 92401
32 | 20:32.02 | 0:43.60 | 92402 | 95686
33 | 21:15.62 | 0:16.48 | 95687 | 96934
34 | 21:32.35 | 0:26.72 | 96935 | 98956
35 | 21:59.32 | 0:26.20 | 98957 | 100926
36 | 22:25.52 | 0:15.02 | 100927 | 102053
37 | 22:40.54 | 0:21.08 | 102054 | 103636
38 | 23:01.62 | 0:59.30 | 103637 | 108091
39 | 24:01.17 | 0:45.60 | 108092 | 111526
40 | 24:47.02 | 0:23.35 | 111527 | 113286
41 | 25:10.37 | 0:43.17 | 113287 | 116528
42 | 25:53.54 | 0:20.11 | 116529 | 118039


Track 1

Filename C:\cuntfist\FLAC\Naked City - Torture Garden (1990) [FLAC] [Shimmy Disc}\01 - Blood Is Thin.wav

Pre-gap length 0:00:02.00

Peak level 97.2 %
Extraction speed 3.6 X
Track quality 100.0 %
Test CRC 17ABEB4E
Copy CRC 17ABEB4E
Accurately ripped (confidence 6) [6608B114] (AR v2)
Copy OK

Track 2

Filename C:\cuntfist\FLAC\Naked City - Torture Garden (1990) [FLAC] [Shimmy Disc}\02 - Demon Sanctuary.wav

Pre-gap length 0:00:02.05

Peak level 97.2 %
Extraction speed 3.1 X
Track quality 100.0 %
Test CRC BED6E49C
Copy CRC BED6E49C
Accurately ripped (confidence 6) [25D013AD] (AR v2)
Copy OK

Track 3

Filename C:\cuntfist\FLAC\Naked City - Torture Garden (1990) [FLAC] [Shimmy Disc}\03 - Thrash Jazz Assassin.wav

Peak level 97.2 %
Extraction speed 2.4 X
Track quality 99.7 %
Test CRC 34EEB8A6
Copy CRC 34EEB8A6
Accurately ripped (confidence 6) [9969DBD1] (AR v2)
Copy OK

Track 4

Filename C:\cuntfist\FLAC\Naked City - Torture Garden (1990) [FLAC] [Shimmy Disc}\04 - Dead Spot.wav

Peak level 97.2 %
Extraction speed 2.9 X
Track quality 100.0 %
Test CRC 919F6504
Copy CRC 919F6504
Accurately ripped (confidence 6) [5E195EE8] (AR v2)
Copy OK

Track 5

Filename C:\cuntfist\FLAC\Naked City - Torture Garden (1990) [FLAC] [Shimmy Disc}\05 - Bonehead.wav

Pre-gap length 0:00:01.45

Peak level 98.8 %
Extraction speed 2.7 X
Track quality 99.8 %
Test CRC 873735E1
Copy CRC 873735E1
Accurately ripped (confidence 6) [C0326158] (AR v2)
Copy OK

Track 6

Filename C:\cuntfist\FLAC\Naked City - Torture Garden (1990) [FLAC] [Shimmy Disc}\06 - Speedball.wav

Pre-gap length 0:00:01.25

Peak level 97.2 %
Extraction speed 2.3 X
Track quality 99.7 %
Test CRC C814B6EC
Copy CRC C814B6EC
Accurately ripped (confidence 6) [500C06B8] (AR v2)
Copy OK

Track 7

Filename C:\cuntfist\FLAC\Naked City - Torture Garden (1990) [FLAC] [Shimmy Disc}\07 - Blood Duster.wav

Peak level 97.2 %
Extraction speed 1.2 X
Track quality 99.3 %
Test CRC C1F8447D
Copy CRC C1F8447D
Accurately ripped (confidence 6) [2A5E762B] (AR v2)
Copy OK

Track 8

Filename C:\cuntfist\FLAC\Naked City - Torture Garden (1990) [FLAC] [Shimmy Disc}\08 - Pile Driver.wav

Peak level 97.2 %
Extraction speed 3.3 X
Track quality 100.0 %
Test CRC B44DD655
Copy CRC B44DD655
Accurately ripped (confidence 6) [22E57C45] (AR v2)
Copy OK

Track 9

Filename C:\cuntfist\FLAC\Naked City - Torture Garden (1990) [FLAC] [Shimmy Disc}\09 - Shangkuan Ling-Feng.wav

Pre-gap length 0:00:01.25

Peak level 97.2 %
Extraction speed 3.5 X
Track quality 99.8 %
Test CRC 8900A67E
Copy CRC 8900A67E
Accurately ripped (confidence 6) [A3D549B2] (AR v2)
Copy OK

Track 10

Filename C:\cuntfist\FLAC\Naked City - Torture Garden (1990) [FLAC] [Shimmy Disc}\10 - Numbskull.wav

Pre-gap length 0:00:01.70

Peak level 97.2 %
Extraction speed 3.1 X
Track quality 100.0 %
Test CRC D30E67B1
Copy CRC D30E67B1
Accurately ripped (confidence 6) [E1286073] (AR v2)
Copy OK

Track 11

Filename C:\cuntfist\FLAC\Naked City - Torture Garden (1990) [FLAC] [Shimmy Disc}\11 - Perfume Of A Critic's Burning Flesh.wav

Pre-gap length 0:00:01.03

Peak level 97.2 %
Extraction speed 2.9 X
Track quality 100.0 %
Test CRC D16C2F02
Copy CRC D16C2F02
Accurately ripped (confidence 6) [08D4BA64] (AR v2)
Copy OK

Track 12

Filename C:\cuntfist\FLAC\Naked City - Torture Garden (1990) [FLAC] [Shimmy Disc}\12 - Jazz Snob Eat Shit.wav

Pre-gap length 0:00:01.18

Peak level 97.2 %
Extraction speed 1.9 X
Track quality 99.6 %
Test CRC 863E88AC
Copy CRC 863E88AC
Accurately ripped (confidence 6) [31F55DDC] (AR v2)
Copy OK

Track 13

Filename C:\cuntfist\FLAC\Naked City - Torture Garden (1990) [FLAC] [Shimmy Disc}\13 - The Prestidigitator.wav

Peak level 97.2 %
Extraction speed 3.9 X
Track quality 100.0 %
Test CRC 69554BAF
Copy CRC 69554BAF
Accurately ripped (confidence 6) [C785C9EF] (AR v2)
Copy OK

Track 14

Filename C:\cuntfist\FLAC\Naked City - Torture Garden (1990) [FLAC] [Shimmy Disc}\14 - No Reason To Believe.wav

Peak level 97.2 %
Extraction speed 1.9 X
Track quality 99.6 %
Test CRC A3A8D464
Copy CRC A3A8D464
Accurately ripped (confidence 6) [39C024EB] (AR v2)
Copy OK

Track 15

Filename C:\cuntfist\FLAC\Naked City - Torture Garden (1990) [FLAC] [Shimmy Disc}\15 - Hellraiser.wav

Peak level 97.2 %
Extraction speed 3.8 X
Track quality 100.0 %
Test CRC 5827A761
Copy CRC 5827A761
Accurately ripped (confidence 6) [7F8A16A2] (AR v2)
Copy OK

Track 16

Filename C:\cuntfist\FLAC\Naked City - Torture Garden (1990) [FLAC] [Shimmy Disc}\16 - Torture Garden.wav

Peak level 97.2 %
Extraction speed 3.8 X
Track quality 100.0 %
Test CRC 2BED8013
Copy CRC 2BED8013
Accurately ripped (confidence 6) [92DF5604] (AR v2)
Copy OK

Track 17

Filename C:\cuntfist\FLAC\Naked City - Torture Garden (1990) [FLAC] [Shimmy Disc}\17 - Slan.wav

Pre-gap length 0:00:01.30

Peak level 97.2 %
Extraction speed 3.1 X
Track quality 100.0 %
Test CRC 67619D80
Copy CRC 67619D80
Accurately ripped (confidence 6) [C968FC33] (AR v2)
Copy OK

Track 18

Filename C:\cuntfist\FLAC\Naked City - Torture Garden (1990) [FLAC] [Shimmy Disc}\18 - Hammerhead.wav

Peak level 97.2 %
Extraction speed 1.8 X
Track quality 100.0 %
Test CRC 54DAFF8F
Copy CRC 54DAFF8F
Accurately ripped (confidence 6) [FB762B56] (AR v2)
Copy OK

Track 19

Filename C:\cuntfist\FLAC\Naked City - Torture Garden (1990) [FLAC] [Shimmy Disc}\19 - The Ways Of Pain.wav

Peak level 97.2 %
Extraction speed 3.7 X
Track quality 100.0 %
Test CRC F49E68F9
Copy CRC F49E68F9
Accurately ripped (confidence 6) [CB6DDBBE] (AR v2)
Copy OK

Track 20

Filename C:\cuntfist\FLAC\Naked City - Torture Garden (1990) [FLAC] [Shimmy Disc}\20 - The Noose.wav

Pre-gap length 0:00:01.27

Peak level 97.2 %
Extraction speed 1.1 X
Track quality 99.1 %
Test CRC C11C434C
Copy CRC C11C434C
Accurately ripped (confidence 6) [8F4E5C18] (AR v2)
Copy OK

Track 21

Filename C:\cuntfist\FLAC\Naked City - Torture Garden (1990) [FLAC] [Shimmy Disc}\21 - Sack Of Shit.wav

Peak level 97.2 %
Extraction speed 3.0 X
Track quality 99.7 %
Test CRC D835BE71
Copy CRC D835BE71
Accurately ripped (confidence 6) [1DE8DB81] (AR v2)
Copy OK

Track 22

Filename C:\cuntfist\FLAC\Naked City - Torture Garden (1990) [FLAC] [Shimmy Disc}\22 - Blunt Instrument.wav

Pre-gap length 0:00:01.22

Peak level 97.2 %
Extraction speed 4.6 X
Track quality 100.0 %
Test CRC B897E8AD
Copy CRC B897E8AD
Accurately ripped (confidence 6) [31C4967D] (AR v2)
Copy OK

Track 23

Filename C:\cuntfist\FLAC\Naked City - Torture Garden (1990) [FLAC] [Shimmy Disc}\23 - Osaka Bondage.wav

Peak level 97.2 %
Extraction speed 5.3 X
Track quality 100.0 %
Test CRC EB3A912A
Copy CRC EB3A912A
Accurately ripped (confidence 6) [BA9B2D5D] (AR v2)
Copy OK

Track 24

Filename C:\cuntfist\FLAC\Naked City - Torture Garden (1990) [FLAC] [Shimmy Disc}\24 - Igneous Ejaculation.wav

Pre-gap length 0:00:01.60

Peak level 97.2 %
Extraction speed 3.2 X
Track quality 100.0 %
Test CRC F0BA7F40
Copy CRC F0BA7F40
Accurately ripped (confidence 6) [B0E1A136] (AR v2)
Copy OK

Track 25

Filename C:\cuntfist\FLAC\Naked City - Torture Garden (1990) [FLAC] [Shimmy Disc}\25 - Shallow Grave.wav

Peak level 97.2 %
Extraction speed 4.3 X
Track quality 100.0 %
Test CRC 1666DB25
Copy CRC 1666DB25
Accurately ripped (confidence 6) [16C80B2A] (AR v2)
Copy OK

Track 26

Filename C:\cuntfist\FLAC\Naked City - Torture Garden (1990) [FLAC] [Shimmy Disc}\26 - Ujaku.wav

Peak level 97.2 %
Extraction speed 3.7 X
Track quality 100.0 %
Test CRC A35CAB66
Copy CRC A35CAB66
Accurately ripped (confidence 6) [C1A36BA2] (AR v2)
Copy OK

Track 27

Filename C:\cuntfist\FLAC\Naked City - Torture Garden (1990) [FLAC] [Shimmy Disc}\27 - Kaoru.wav

Peak level 97.2 %
Extraction speed 4.9 X
Track quality 100.0 %
Test CRC 352BE88A
Copy CRC 352BE88A
Accurately ripped (confidence 6) [424C54DD] (AR v2)
Copy OK

Track 28

Filename C:\cuntfist\FLAC\Naked City - Torture Garden (1990) [FLAC] [Shimmy Disc}\28 - Dead Dread.wav

Pre-gap length 0:00:01.55

Peak level 97.2 %
Extraction speed 3.3 X
Track quality 99.7 %
Test CRC 4A82E361
Copy CRC 4A82E361
Accurately ripped (confidence 6) [B7128077] (AR v2)
Copy OK

Track 29

Filename C:\cuntfist\FLAC\Naked City - Torture Garden (1990) [FLAC] [Shimmy Disc}\29 - Billy Liar.wav

Peak level 97.2 %
Extraction speed 2.4 X
Track quality 100.0 %
Test CRC 022B72D8
Copy CRC 022B72D8
Accurately ripped (confidence 6) [ECC32758] (AR v2)
Copy OK

Track 30

Filename C:\cuntfist\FLAC\Naked City - Torture Garden (1990) [FLAC] [Shimmy Disc}\30 - Victims Of Torture.wav

Pre-gap length 0:00:01.62

Peak level 97.2 %
Extraction speed 3.5 X
Track quality 100.0 %
Test CRC 5CF1C9D5
Copy CRC 5CF1C9D5
Accurately ripped (confidence 6) [3F112D51] (AR v2)
Copy OK

Track 31

Filename C:\cuntfist\FLAC\Naked City - Torture Garden (1990) [FLAC] [Shimmy Disc}\31 - Speedfreaks.wav

Peak level 97.2 %
Extraction speed 4.8 X
Track quality 100.0 %
Test CRC 9A5D9B0B
Copy CRC 9A5D9B0B
Accurately ripped (confidence 6) [EC5E6C80] (AR v2)
Copy OK

Track 32

Filename C:\cuntfist\FLAC\Naked City - Torture Garden (1990) [FLAC] [Shimmy Disc}\32 - New Jersey Scum Swamp.wav

Peak level 97.2 %
Extraction speed 3.2 X
Track quality 99.7 %
Test CRC 1AB97E91
Copy CRC 1AB97E91
Accurately ripped (confidence 6) [B8FE327E] (AR v2)
Copy OK

Track 33

Filename C:\cuntfist\FLAC\Naked City - Torture Garden (1990) [FLAC] [Shimmy Disc}\33 - S & M Sniper.wav

Peak level 97.2 %
Extraction speed 2.6 X
Track quality 100.0 %
Test CRC 5A0F16C7
Copy CRC 5A0F16C7
Accurately ripped (confidence 6) [93A401AD] (AR v2)
Copy OK

Track 34

Filename C:\cuntfist\FLAC\Naked City - Torture Garden (1990) [FLAC] [Shimmy Disc}\34 - Pigfucker.wav

Peak level 97.2 %
Extraction speed 3.6 X
Track quality 100.0 %
Test CRC FD4461EB
Copy CRC FD4461EB
Accurately ripped (confidence 6) [98BB8E6D] (AR v2)
Copy OK

Track 35

Filename C:\cuntfist\FLAC\Naked City - Torture Garden (1990) [FLAC] [Shimmy Disc}\35 - Cairo Chop Shop.wav

Pre-gap length 0:00:01.30

Peak level 97.2 %
Extraction speed 3.5 X
Track quality 100.0 %
Test CRC ABCC3538
Copy CRC ABCC3538
Accurately ripped (confidence 6) [617779D8] (AR v2)
Copy OK

Track 36

Filename C:\cuntfist\FLAC\Naked City - Torture Garden (1990) [FLAC] [Shimmy Disc}\36 - Fuck The Facts.wav

Pre-gap length 0:00:01.25

Peak level 97.2 %
Extraction speed 2.5 X
Track quality 100.0 %
Test CRC 0458AD27
Copy CRC 0458AD27
Accurately ripped (confidence 6) [245AD204] (AR v2)
Copy OK

Track 37

Filename C:\cuntfist\FLAC\Naked City - Torture Garden (1990) [FLAC] [Shimmy Disc}\37 - Obeah Man.wav

Pre-gap length 0:00:01.27

Peak level 97.2 %
Extraction speed 3.1 X
Track quality 100.0 %
Test CRC 72B757DE
Copy CRC 72B757DE
Accurately ripped (confidence 6) [938F42AD] (AR v2)
Copy OK

Track 38

Filename C:\cuntfist\FLAC\Naked City - Torture Garden (1990) [FLAC] [Shimmy Disc}\38 - Facelifter.wav

Peak level 98.8 %
Extraction speed 4.0 X
Track quality 99.8 %
Test CRC F9451006
Copy CRC F9451006
Accurately ripped (confidence 6) [0044CBC7] (AR v2)
Copy OK

Track 39

Filename C:\cuntfist\FLAC\Naked City - Torture Garden (1990) [FLAC] [Shimmy Disc}\39 - N.Y. Flat Top Box.wav

Pre-gap length 0:00:02.60

Peak level 97.2 %
Extraction speed 3.5 X
Track quality 99.7 %
Test CRC 0D035D47
Copy CRC 0D035D47
Accurately ripped (confidence 6) [3282983F] (AR v2)
Copy OK

Track 40

Filename C:\cuntfist\FLAC\Naked City - Torture Garden (1990) [FLAC] [Shimmy Disc}\40 - Whiplash.wav

Peak level 97.2 %
Extraction speed 3.5 X
Track quality 100.0 %
Test CRC E7E52214
Copy CRC E7E52214
Accurately ripped (confidence 6) [0A77C025] (AR v2)
Copy OK

Track 41

Filename C:\cuntfist\FLAC\Naked City - Torture Garden (1990) [FLAC] [Shimmy Disc}\41 - The Blade.wav

Peak level 97.2 %
Extraction speed 4.9 X
Track quality 100.0 %
Test CRC 9384F4F3
Copy CRC 9384F4F3
Accurately ripped (confidence 6) [307437FF] (AR v2)
Copy OK

Track 42

Filename C:\cuntfist\FLAC\Naked City - Torture Garden (1990) [FLAC] [Shimmy Disc}\42 - Gob Of Spit.wav

Pre-gap length 0:00:03.54

Peak level 98.8 %
Extraction speed 3.2 X
Track quality 100.0 %
Test CRC 38684194
Copy CRC 38684194
Accurately ripped (confidence 6) [4F9B1BD0] (AR v2)
Copy OK


All tracks accurately ripped

No errors occurred

End of status report

–– CUETools DB Plugin V2.1.6

[CTDB TOCID: 5KKCUg_S31zHmzQz.9IMdAsJ9uA-] found
Submit result: 5KKCUg_S31zHmzQz.9IMdAsJ9uA- has been confirmed
Track | CTDB Status
1 | (13/20) Accurately ripped
2 | (20/20) Accurately ripped
3 | (20/20) Accurately ripped
4 | (13/20) Accurately ripped
5 | (20/20) Accurately ripped
6 | (20/20) Accurately ripped
7 | (20/20) Accurately ripped
8 | (13/20) Accurately ripped
9 | (13/20) Accurately ripped
10 | (12/20) Accurately ripped
11 | (12/20) Accurately ripped
12 | (20/20) Accurately ripped
13 | (20/20) Accurately ripped
14 | (20/20) Accurately ripped
15 | (20/20) Accurately ripped
16 | (13/20) Accurately ripped
17 | (20/20) Accurately ripped
18 | (20/20) Accurately ripped
19 | (13/20) Accurately ripped
20 | (20/20) Accurately ripped
21 | (13/20) Accurately ripped
22 | (20/20) Accurately ripped
23 | (20/20) Accurately ripped
24 | (20/20) Accurately ripped
25 | (20/20) Accurately ripped
26 | (20/20) Accurately ripped
27 | (13/20) Accurately ripped
28 | (20/20) Accurately ripped
29 | (13/20) Accurately ripped
30 | (20/20) Accurately ripped
31 | (20/20) Accurately ripped
32 | (20/20) Accurately ripped
33 | (20/20) Accurately ripped
34 | (13/20) Accurately ripped
35 | (13/20) Accurately ripped
36 | (13/20) Accurately ripped
37 | (20/20) Accurately ripped
38 | (13/20) Accurately ripped
39 | (20/20) Accurately ripped
40 | (20/20) Accurately ripped
41 | (13/20) Accurately ripped
42 | (20/20) Accurately ripped


==== Log checksum BAACE424723D10E55386BB7B23762B64129E0728F6CDAF73DC0D4AD1A619BBAA ====


Naked City - Torture Garden (1990) {Shimmy Disc}


Thank you to the original uploader.