Subcategories
Tags
Language
Tags

Nat "King" Cole - 1947-1949 (2000)

Posted By: gribovar
Nat "King" Cole - 1947-1949 (2000)

Nat "King" Cole - 1947-1949 (2000)
EAC Rip | FLAC (tracks+.cue+log) - 133 MB | Covers (4 MB) included
Genre: Vocal Jazz | RAR 3% Rec. | Label: Classics Records (CLASSICS1155)

Nat King Cole could charm most listeners by simply singing a few lines from the phone book. His delivery is so intoxicating that even less-than-stellar material doesn't cause so much as a blink of the eye. This is true with Classics' collection of some of his 1947-1949 cuts, where hardly a classic standard or hit is in sight. What one does get, though, is a generous dose of Nat Cole and the trio's slow-riffin' best . While ranging from the ballad perfection of "How Lonely Can You Get" and "Lost April" to svelte blues sides like "My Mother Told Me," Cole, guitarist Irving Ashby, and bassist Johnny Miller show how they perfected the piano trio template forged by the singer's first group with guitarist Oscar Moore and bassist Wesley Prince. The disc also includes two boppish instrumentals: "Leap Here" and "Metronome Riff," featuring Cole with large combos stuffed with likes of Dizzy Gillespie, Buddy DeFranco, Bob Cooper, Art Pepper, Bill Harris, and Shelly Manne. Also included are two takes of "Portrait of Jennie," an early strings affair that nicely foreshadows Cole's symphonic run of hits in the '50s.
Tracklist:
01. Put 'Em in a Box, Tie 'Em with a Ribbon
02. Blue and Sentimental
03. I've Got a Way with Women
04. My Fair Lady
05. I Wish I Had the Blues Again
06. Didn't I Tell You So?
07. Lost April
08. Lost April
09. Lillette
10. Monday Again
11. Lulubelle
12. It's So Hard to Laugh
13. Leap Here
14. Metronome Riff
15. Portrait of Jennie
16. It Only Happens Once
17. My Mother Told Me
18. Bang Bang Boogie
19. Portrait of Jennie
20. Don't Cry, Cry Baby
21. An Old Piano Plays the Blues
22. How Lonely Can You Get

Total time: 01:04:54

Exact Audio Copy V1.3 from 2. September 2016

EAC extraction logfile from 18. August 2017, 19:39

Nat "King" Cole / 1947-1948 (The Chronological Classics 1155)

Used drive : HL-DT-STDVDRAM GH24NS95 Adapter: 1 ID: 0

Read mode : Secure
Utilize accurate stream : Yes
Defeat audio cache : Yes
Make use of C2 pointers : No

Read offset correction : 6
Overread into Lead-In and Lead-Out : No
Fill up missing offset samples with silence : Yes
Delete leading and trailing silent blocks : No
Null samples used in CRC calculations : Yes
Used interface : Native Win32 interface for Win NT & 2000
Gap handling : Appended to previous track

Used output format : User Defined Encoder
Selected bitrate : 128 kBit/s
Quality : High
Add ID3 tag : No
Command line compressor : C:\Program Files (x86)\Exact Audio Copy\Flac\flac.exe
Additional command line options : -8 -e -p -V -T "ARTIST=%artist%" -T "TITLE=%title%" -T "ALBUM=%albumtitle%" -T "DATE=%year%" -T "TRACKNUMBER=%tracknr%" -T "GENRE=%genre%" -T "PERFORMER=%albuminterpret%" -T "COMPOSER=%composer%" %haslyrics%–tag-from-file=LYRICS="%lyricsfile%"%haslyrics% -T "ALBUMARTIST=%albumartist%" -T "DISCNUMBER=%cdnumber%" -T "TOTALDISCS=%totalcds%" -T "TOTALTRACKS=%numtracks%" -T "COMMENT=%comment%" %source% -o %dest%


TOC of the extracted CD

Track | Start | Length | Start sector | End sector
––––––––––––––––––––––––––––-
1 | 0:00.32 | 2:42.01 | 32 | 12182
2 | 2:42.33 | 2:34.39 | 12183 | 23771
3 | 5:16.72 | 2:46.26 | 23772 | 36247
4 | 8:03.23 | 3:08.45 | 36248 | 50392
5 | 11:11.68 | 3:07.32 | 50393 | 64449
6 | 14:19.25 | 2:37.69 | 64450 | 76293
7 | 16:57.19 | 3:02.59 | 76294 | 90002
8 | 20:00.03 | 2:58.23 | 90003 | 103375
9 | 22:58.26 | 3:02.11 | 103376 | 117036
10 | 26:00.37 | 3:13.02 | 117037 | 131513
11 | 29:13.39 | 2:14.01 | 131514 | 141564
12 | 31:27.40 | 3:04.32 | 141565 | 155396
13 | 34:31.72 | 3:24.31 | 155397 | 170727
14 | 37:56.28 | 2:44.09 | 170728 | 183036
15 | 40:40.37 | 3:00.26 | 183037 | 196562
16 | 43:40.63 | 3:07.56 | 196563 | 210643
17 | 46:48.44 | 2:42.67 | 210644 | 222860
18 | 49:31.36 | 2:44.32 | 222861 | 235192
19 | 52:15.68 | 3:08.23 | 235193 | 249315
20 | 55:24.16 | 3:07.52 | 249316 | 263392
21 | 58:31.68 | 3:22.23 | 263393 | 278565
22 | 61:54.16 | 3:00.45 | 278566 | 292110


Track 1

Filename C:\1947-1949 (The Chronological Classics 1155)\01 - Put Em In A Box, Tie Em With A Ribbon.wav

Pre-gap length 0:00:02.42

Peak level 100.0 %
Extraction speed 0.8 X
Track quality 99.9 %
Test CRC 828D392B
Copy CRC 828D392B
Accurately ripped (confidence 2) [E07752EB] (AR v2)
Copy OK

Track 2

Filename C:\1947-1949 (The Chronological Classics 1155)\02 - Blue And Sentimental.wav

Pre-gap length 0:00:01.60

Peak level 86.5 %
Extraction speed 1.0 X
Track quality 100.0 %
Test CRC C39FADFF
Copy CRC C39FADFF
Accurately ripped (confidence 2) [7DA455C8] (AR v2)
Copy OK

Track 3

Filename C:\1947-1949 (The Chronological Classics 1155)\03 - I've Got A Way With Women.wav

Pre-gap length 0:00:01.60

Peak level 99.2 %
Extraction speed 0.9 X
Track quality 99.9 %
Test CRC 99342704
Copy CRC 99342704
Accurately ripped (confidence 2) [37FB1944] (AR v2)
Copy OK

Track 4

Filename C:\1947-1949 (The Chronological Classics 1155)\04 - My Fair Lady.wav

Pre-gap length 0:00:01.60

Peak level 100.0 %
Extraction speed 1.2 X
Track quality 100.0 %
Test CRC CE07A677
Copy CRC CE07A677
Accurately ripped (confidence 2) [8B60E13B] (AR v2)
Copy OK

Track 5

Filename C:\1947-1949 (The Chronological Classics 1155)\05 - I Wish I Had The Blues Again.wav

Pre-gap length 0:00:01.60

Peak level 88.4 %
Extraction speed 1.2 X
Track quality 100.0 %
Test CRC F64931A4
Copy CRC F64931A4
Accurately ripped (confidence 2) [25E6E9E8] (AR v2)
Copy OK

Track 6

Filename C:\1947-1949 (The Chronological Classics 1155)\06 - Didn't I Tell You So.wav

Pre-gap length 0:00:01.60

Peak level 93.8 %
Extraction speed 1.2 X
Track quality 100.0 %
Test CRC B400A95B
Copy CRC B400A95B
Accurately ripped (confidence 2) [6A730AEE] (AR v2)
Copy OK

Track 7

Filename C:\1947-1949 (The Chronological Classics 1155)\07 - Lost April (1).wav

Pre-gap length 0:00:01.60

Peak level 97.2 %
Extraction speed 1.3 X
Track quality 100.0 %
Test CRC 5E4211E3
Copy CRC 5E4211E3
Accurately ripped (confidence 2) [6030B24F] (AR v2)
Copy OK

Track 8

Filename C:\1947-1949 (The Chronological Classics 1155)\08 - Lost April (2).wav

Pre-gap length 0:00:01.60

Peak level 85.0 %
Extraction speed 1.2 X
Track quality 99.9 %
Test CRC 1F5CEC17
Copy CRC 1F5CEC17
Accurately ripped (confidence 2) [AF6493B7] (AR v2)
Copy OK

Track 9

Filename C:\1947-1949 (The Chronological Classics 1155)\09 - Lillette.wav

Pre-gap length 0:00:01.60

Peak level 86.7 %
Extraction speed 1.4 X
Track quality 100.0 %
Test CRC 22E80549
Copy CRC 22E80549
Accurately ripped (confidence 2) [98732E64] (AR v2)
Copy OK

Track 10

Filename C:\1947-1949 (The Chronological Classics 1155)\10 - Monday Again.wav

Pre-gap length 0:00:01.60

Peak level 83.6 %
Extraction speed 1.5 X
Track quality 100.0 %
Test CRC E95737E8
Copy CRC E95737E8
Accurately ripped (confidence 2) [EC35BF82] (AR v2)
Copy OK

Track 11

Filename C:\1947-1949 (The Chronological Classics 1155)\11 - Lulubelle.wav

Pre-gap length 0:00:01.60

Peak level 80.8 %
Extraction speed 1.4 X
Track quality 100.0 %
Test CRC D188943B
Copy CRC D188943B
Accurately ripped (confidence 2) [2E84F566] (AR v2)
Copy OK

Track 12

Filename C:\1947-1949 (The Chronological Classics 1155)\12 - It's So Hard To Laugh.wav

Pre-gap length 0:00:01.60

Peak level 97.2 %
Extraction speed 1.6 X
Track quality 100.0 %
Test CRC 7151398B
Copy CRC 7151398B
Accurately ripped (confidence 2) [8D35558A] (AR v2)
Copy OK

Track 13

Filename C:\1947-1949 (The Chronological Classics 1155)\13 - Leap Here.wav

Pre-gap length 0:00:01.60

Peak level 85.8 %
Extraction speed 1.7 X
Track quality 100.0 %
Test CRC A71180C1
Copy CRC A71180C1
Accurately ripped (confidence 2) [A451BABB] (AR v2)
Copy OK

Track 14

Filename C:\1947-1949 (The Chronological Classics 1155)\14 - Metronome Riff.wav

Pre-gap length 0:00:01.60

Peak level 100.0 %
Extraction speed 1.7 X
Track quality 100.0 %
Test CRC 07C5820E
Copy CRC 07C5820E
Accurately ripped (confidence 2) [A86B4AF3] (AR v2)
Copy OK

Track 15

Filename C:\1947-1949 (The Chronological Classics 1155)\15 - Portrait Of Jennie (1).wav

Pre-gap length 0:00:01.60

Peak level 87.5 %
Extraction speed 1.8 X
Track quality 100.0 %
Test CRC 5614FF50
Copy CRC 5614FF50
Accurately ripped (confidence 2) [686A9976] (AR v2)
Copy OK

Track 16

Filename C:\1947-1949 (The Chronological Classics 1155)\16 - It Only Happens Once.wav

Pre-gap length 0:00:01.60

Peak level 84.0 %
Extraction speed 1.8 X
Track quality 100.0 %
Test CRC B73A6B6F
Copy CRC B73A6B6F
Accurately ripped (confidence 2) [2C92D68A] (AR v2)
Copy OK

Track 17

Filename C:\1947-1949 (The Chronological Classics 1155)\17 - My Mother Told Me.wav

Pre-gap length 0:00:01.60

Peak level 78.9 %
Extraction speed 1.8 X
Track quality 100.0 %
Test CRC BF5C5EA5
Copy CRC BF5C5EA5
Accurately ripped (confidence 2) [2F2A38A4] (AR v2)
Copy OK

Track 18

Filename C:\1947-1949 (The Chronological Classics 1155)\18 - Bang Bang boogie.wav

Pre-gap length 0:00:01.60

Peak level 100.0 %
Extraction speed 1.9 X
Track quality 100.0 %
Test CRC 26570D0C
Copy CRC 26570D0C
Accurately ripped (confidence 2) [84E9055E] (AR v2)
Copy OK

Track 19

Filename C:\1947-1949 (The Chronological Classics 1155)\19 - Portrait Of Jennie (2).wav

Pre-gap length 0:00:01.60

Peak level 88.2 %
Extraction speed 1.9 X
Track quality 100.0 %
Test CRC CC1F4707
Copy CRC CC1F4707
Accurately ripped (confidence 2) [C8F54650] (AR v2)
Copy OK

Track 20

Filename C:\1947-1949 (The Chronological Classics 1155)\20 - Don't Cry Cry Baby.wav

Pre-gap length 0:00:01.60

Peak level 93.9 %
Extraction speed 2.0 X
Track quality 100.0 %
Test CRC C5C946C7
Copy CRC C5C946C7
Accurately ripped (confidence 1) [1A1ED267] (AR v2)
Copy OK

Track 21

Filename C:\1947-1949 (The Chronological Classics 1155)\21 - An Old Piano Plays The Blues.wav

Pre-gap length 0:00:01.60

Peak level 86.3 %
Extraction speed 2.0 X
Track quality 100.0 %
Test CRC 621EA0CF
Copy CRC 621EA0CF
Accurately ripped (confidence 2) [CC8591F9] (AR v2)
Copy OK

Track 22

Filename C:\1947-1949 (The Chronological Classics 1155)\22 - How Lonely Can You Get.wav

Pre-gap length 0:00:01.60

Peak level 100.0 %
Extraction speed 1.7 X
Track quality 99.9 %
Test CRC 67C46B05
Copy CRC 67C46B05
Accurately ripped (confidence 2) [1B698EC2] (AR v2)
Copy OK


All tracks accurately ripped

No errors occurred

End of status report

–– CUETools DB Plugin V2.1.6

[CTDB TOCID: DU2rYNmqmeAZ1ght7WPGgcYpnUk-] found
Submit result: DU2rYNmqmeAZ1ght7WPGgcYpnUk- has been confirmed
Track | CTDB Status
1 | (3/3) Accurately ripped
2 | (3/3) Accurately ripped
3 | (3/3) Accurately ripped
4 | (3/3) Accurately ripped
5 | (3/3) Accurately ripped
6 | (3/3) Accurately ripped
7 | (3/3) Accurately ripped
8 | (3/3) Accurately ripped
9 | (3/3) Accurately ripped
10 | (3/3) Accurately ripped
11 | (3/3) Accurately ripped
12 | (3/3) Accurately ripped
13 | (3/3) Accurately ripped
14 | (3/3) Accurately ripped
15 | (3/3) Accurately ripped
16 | (3/3) Accurately ripped
17 | (3/3) Accurately ripped
18 | (3/3) Accurately ripped
19 | (3/3) Accurately ripped
20 | (3/3) Accurately ripped
21 | (3/3) Accurately ripped
22 | (3/3) Accurately ripped


==== Log checksum 45C28EA2ABF62F35055FC23B7154C517246C1CB8F337119FF59882A6AFD035F4 ====

[CUETools log; Date: 15.02.2021 15:53:58; Version: 2.1.4]
Pregap length 00:00:32.
[CTDB TOCID: DU2rYNmqmeAZ1ght7WPGgcYpnUk-] found.
Track | CTDB Status
1 | (4/4) Accurately ripped
2 | (4/4) Accurately ripped
3 | (4/4) Accurately ripped
4 | (4/4) Accurately ripped
5 | (4/4) Accurately ripped
6 | (4/4) Accurately ripped
7 | (4/4) Accurately ripped
8 | (4/4) Accurately ripped
9 | (4/4) Accurately ripped
10 | (4/4) Accurately ripped
11 | (4/4) Accurately ripped
12 | (4/4) Accurately ripped
13 | (4/4) Accurately ripped
14 | (4/4) Accurately ripped
15 | (4/4) Accurately ripped
16 | (4/4) Accurately ripped
17 | (4/4) Accurately ripped
18 | (4/4) Accurately ripped
19 | (4/4) Accurately ripped
20 | (4/4) Accurately ripped
21 | (4/4) Accurately ripped
22 | (4/4) Accurately ripped
[AccurateRip ID: 00326ce4-032a5648-300f3616] found.
Track [ CRC | V2 ] Status
01 [ef3da24c|e07752eb] (0+2/2) Accurately ripped
02 [0e178acd|7da455c8] (0+2/2) Accurately ripped
03 [d84bade5|37fb1944] (0+2/2) Accurately ripped
04 [adcc9601|8b60e13b] (0+2/2) Accurately ripped
05 [e091db75|25e6e9e8] (0+2/2) Accurately ripped
06 [822fcebb|6a730aee] (0+2/2) Accurately ripped
07 [08ed33f4|6030b24f] (0+2/2) Accurately ripped
08 [a846bd3f|af6493b7] (0+2/2) Accurately ripped
09 [4f9fd4fa|98732e64] (0+2/2) Accurately ripped
10 [24247d9e|ec35bf82] (0+2/2) Accurately ripped
11 [771ba4de|2e84f566] (0+2/2) Accurately ripped
12 [adf8ea28|8d35558a] (0+2/2) Accurately ripped
13 [6cbeb99b|a451babb] (0+2/2) Accurately ripped
14 [51942d2e|a86b4af3] (0+2/2) Accurately ripped
15 [882ef5ad|686a9976] (0+2/2) Accurately ripped
16 [4d9cd432|2c92d68a] (0+2/2) Accurately ripped
17 [9c71198e|2f2a38a4] (0+2/2) Accurately ripped
18 [72144fee|84e9055e] (0+2/2) Accurately ripped
19 [2912764c|c8f54650] (0+2/2) Accurately ripped
20 [63aff9a3|1a1ed267] (0+1/3) Accurately ripped
21 [8feb7fb5|cc8591f9] (0+2/2) Accurately ripped
22 [b7c3c0bf|1b698ec2] (0+2/2) Accurately ripped

Track Peak [ CRC32 ] [W/O NULL] [ LOG ]
– 100,0 [E8C44E89] [1583F5DF]
01 100,0 [828D392B] [00405AD0] CRC32
02 86,5 [C39FADFF] [4C2B139C] CRC32
03 99,2 [99342704] [40DB6EB8] CRC32
04 100,0 [CE07A677] [57FBA2FC] CRC32
05 88,4 [F64931A4] [7F8D052E] CRC32
06 93,8 [B400A95B] [0F83DF16] CRC32
07 97,2 [5E4211E3] [74C33C64] CRC32
08 85,0 [1F5CEC17] [780CC336] CRC32
09 86,7 [22E80549] [6BF2DE9E] CRC32
10 83,6 [E95737E8] [DD49B4E9] CRC32
11 80,8 [D188943B] [6DBDCCE4] CRC32
12 97,2 [7151398B] [DA25FB4E] CRC32
13 85,8 [A71180C1] [525C75F2] CRC32
14 100,0 [07C5820E] [E994A103] CRC32
15 87,5 [5614FF50] [356A95D0] CRC32
16 84,0 [B73A6B6F] [96374D02] CRC32
17 78,9 [BF5C5EA5] [8A105240] CRC32
18 100,0 [26570D0C] [2F4E1D87] CRC32
19 88,2 [CC1F4707] [6AF17BBB] CRC32
20 93,9 [C5C946C7] [B62BD12B] CRC32
21 86,3 [621EA0CF] [A223ABB3] CRC32
22 100,0 [67C46B05] [1B5EE332] CRC32

Thanks to sushi

See also: