Tags
Language
Tags

VA - Now That's What I Call Punk & New Wave (2022)

Posted By: Rtax
VA - Now That's What I Call Punk & New Wave (2022)

VA - Now That's What I Call Punk & New Wave (2022)
EAC Rip | FLAC (tracks, cue, log) - 2.08 GB | MP3 CBR 320 kbps - 679 MB
4:56:46 | Rock, New Wave, Punk | Label: Now Music

NOW Music proudly presents NOW That’s What I Call Punk & New Wave - a collection encapsulating the spirit of the times, and of the movement that changed the course of mainstream pop music.
89 tracks across 4 CDs, present the era’s most iconic artists, including The Clash, Blondie, Ramones, U2, Buzzcocks, Siouxsie And The Banshees, Adam & The Ants, The Jam and The Cure.
‘London Calling’ by The Clash, The Undertones’ breakthrough hit ‘Teenage Kicks’, and Buzzcocks ‘Ever Fallen In Love (With Someone You Shouldn't've)’, kick off the first disc - alongside classics from The Stranglers, Siouxsie And The Banshees and Ramones.

The late 70s and early 80s saw an explosion of punk and new wave groups and artists moving from the underground to mainstream chart success. No.1s from The Jam with ‘Going Underground’, ‘Brass In Pocket’ by Pretenders, The Boomtown Rats’ ‘Rat Trap’, Dexys Midnight Runners’ ‘Geno’, and Ian Dury & The Blockheads’ ‘Hit Me With Your Rhythm Stick’ are all here, as well as top 5 hits from Squeeze, Lene Lovich, Joe Jackson and Patti Smith.

The genre also gave the first crossover success for bands that became the biggest acts in music during the late 70s and early 80s, including The Police, U2, The Cure, Blondie, all featured – along with two tracks from Adam & The Ants’ breakthrough album ‘Kings Of The Wild Frontier’, with the title track and ‘Dog Eat Dog’.

True unique masterpieces of song-writing and performance that sound as fresh today as they did then include Iggy Pop’s ‘Lust For Life’, The Members’ ‘Sound Of The Suburbs’, Joy Division’s ‘Love Will Tear Us Apart’, and ‘Rock Lobster’ from The B-52’s.

Brilliant covers flooded the charts – bringing new arrangements and different perspectives to established tracks, including The Slits’ cover of the Motown classic 'I Heard It Through The Grapevine’, ‘Money’ by The Flying Lizards, Blondie’s ‘Hanging On The Telephone’ and ‘Denis’, and ‘I Only Want To Be With You’ by The Tourists.

A fantastic collection of unique tracks that summarize an incredible time for music.

Tracklist
CD1
01. The Clash - London Calling (3:20)
02. The Undertones - Teenage Kicks (2:26)
03. Buzzcocks - Ever Fallen In Love (With Someone You Shouldn’t’ve) (2:41)
04. The Stranglers - No More Heroes (3:28)
05. Siouxsie & The Banshees - Hong Kong Garden (2:54)
06. The Rezillos - Top Of The Pops (3:20)
07. Ramones - Sheena Is A Punk Rocker (2:50)
08. Iggy Pop - Lust For Life (3:04)
09. Jonathan Richman & The Modern Lovers - Roadrunner (4:05)
10. X-Ray Spex - Germ Free Adolescents (3:12)
11. The Damned - Love Song (2:22)
12. Skids - Into The Valley (3:14)
13. XTC - Making Plans For Nigel (4:12)
14. Squeeze - Cool For Cats (3:13)
15. Tom Robinson Band - 2-4-6-8 Motorway (3:16)
16. Elvis Costello - Watching The Detectives (3:45)
17. Joe Jackson - Is She Really Going Out With Him? (3:35)
18. The Jags - Back Of My Hand (3:16)
19. Secret Affair - Time For Action (2:43)
20. The Motors - Airport (4:29)
21. The Cars - My Best Friend's Girl (3:42)
22. Patti Smith - Because The Night (3:23)

CD2
01. The Jam - Going Underground (2:55)
02. The Police - Can’t Stand Losing You (3:00)
03. The Boomtown Rats - Rat Trap (5:08)
04. Blondie - Hanging On The Telephone (2:21)
05. The Pretenders - Brass In Pocket (3:05)
06. Dexys Midnight Runners - Geno (3:27)
07. Ian Dury And The Blockheads - Hit Me With Your Rhythm Stick (3:43)
08. Lene Lovich - Lucky Number (2:48)
09. Toyah - Ieya (5:10)
10. Adam And The Ants - Dog Eat Dog (3:09)
11. Bow Wow Wow - Go Wild In The Country (2:59)
12. Hazel O'Connor - Eighth Day (3:11)
13. Tenpole Tudor - Swords Of A Thousand Men (2:53)
14. Generation X - King Rocker (2:17)
15. Dr. Feelgood - Milk And Alcohol (2:49)
16. The Barracudas - Summer Fun (3:13)
17. The Piranhas - Tom Hark (2:43)
18. Sham 69 - If The Kids Are United (3:45)
19. The Vibrators - Automatic Lover (2:25)
20. Department S - Is Vic There? (3:05)
21. The Only Ones - Another Girl, Another Planet (3:01)
22. Mink DeVille - Spanish Stroll (3:38)
23. Yellow Dog - Just One More Night (3:29)

CD3
01. The B-52's - Rock Lobster (6:50)
02. Devo - Whip It (2:38)
03. The Flying Lizards - Money (2:31)
04. Martha And The Muffins - Echo Beach (3:32)
05. The Cure - A Forest (4:54)
06. Joy Division - Love Will Tear Us Apart (3:24)
07. Joe Jackson - It’s Different For Girls (3:43)
08. The Regents - 7 Teen (3:23)
09. Squeeze - Up The Junction (3:08)
10. The Tourists - I Only Want To Be With You (2:23)
11. Split Enz - I Got You (3:25)
12. The Psychedelic Furs - Pretty In Pink (3:59)
13. Simple Minds - Love Song (3:52)
14. Ultravox - Rockwrok (3:33)
15. Marianne Faithfull - Broken English (4:33)
16. Grace Jones - Private Life (5:11)
17. The Slits - I Heard It Through The Grapevine (3:59)
18. Ian Dury And The Blockheads - What A Waste (3:25)
19. Rich Kids - Rich Kids (2:57)
20. Sham 69 - Angels With Dirty Faces (2:32)
21. The Dickies - Banana Splits (1:54)
22. Jilted John - Jilted John (2:55)

CD4
01. U2 - I Will Follow (3:36)
02. The Members - Sound Of The Suburbs (3:54)
03. The Ruts - Babylon’s Burning (2:35)
04. The Boomtown Rats - She’s So Modern (2:58)
05. X-Ray Spex - Identity (2:23)
06. Siouxsie & The Banshees - Christine (3:00)
07. The Jam - Down In The Tube Station At Midnight (4:00)
08. Ramones - Baby, I Love You (3:48)
09. Blondie - Denis (2:16)
10. The Pretenders - Kid (3:05)
11. The Stranglers - Duchess (2:29)
12. The Teardrop Explodes - Reward (2:42)
13. Adam And The Ants - Kings Of The Wild Frontier (3:56)
14. Bow Wow Wow - C30 C60 C90 Go (3:01)
15. Public Image Limited - Public Image (2:58)
16. Magazine - Shot By Both Sides (3:58)
17. The Runaways - Cherry Bomb (2:18)
18. The Knack - My Sharona (4:00)
19. Eddie And The Hot Rods - Do Anything You Wanna Do (4:02)
20. Skids - Working For The Yankee Dollar (3:39)
21. The Vapors - Turning Japanese (3:43)
22. Toy Dolls - Nellie The Elephant (3:00)
Exact Audio Copy V1.6 from 23. October 2020

EAC extraction logfile from 20. March 2022, 11:42

Various Artists / Now That’s What I Call Punk & New Wave

Used drive : hp BDDVDRW CH28N Adapter: 1 ID: 0

Read mode : Secure
Utilize accurate stream : Yes
Defeat audio cache : Yes
Make use of C2 pointers : No

Read offset correction : 667
Overread into Lead-In and Lead-Out : No
Fill up missing offset samples with silence : Yes
Delete leading and trailing silent blocks : No
Null samples used in CRC calculations : Yes
Used interface : Native Win32 interface for Win NT & 2000
Gap handling : Appended to previous track

Used output format : User Defined Encoder
Selected bitrate : 1024 kBit/s
Quality : High
Add ID3 tag : No
Command line compressor : C:\Program Files (x86)\Exact Audio Copy\Flac\flac.exe
Additional command line options : -8 -V -T "ARTIST=%artist%" -T "TITLE=%title%" -T "ALBUM=%albumtitle%" -T "DATE=%year%" -T "TRACKNUMBER=%tracknr%" -T "GENRE=%genre%" -T "PERFORMER=%albuminterpret%" -T "COMPOSER=%composer%" %haslyrics%–tag-from-file=LYRICS="%lyricsfile%"%haslyrics% -T "ALBUMARTIST=%albumartist%" -T "DISCNUMBER=%cdnumber%" -T "TOTALDISCS=%totalcds%" -T "TOTALTRACKS=%numtracks%" -T "COMMENT=%comment%" %source% -o %dest%


TOC of the extracted CD

Track | Start | Length | Start sector | End sector
––––––––––––––––––––––––––––-
1 | 0:00.00 | 3:20.24 | 0 | 15023
2 | 3:20.24 | 2:25.49 | 15024 | 25947
3 | 5:45.73 | 2:40.51 | 25948 | 37998
4 | 8:26.49 | 3:27.54 | 37999 | 53577
5 | 11:54.28 | 2:53.51 | 53578 | 66603
6 | 14:48.04 | 3:19.60 | 66604 | 81588
7 | 18:07.64 | 2:50.05 | 81589 | 94343
8 | 20:57.69 | 3:04.29 | 94344 | 108172
9 | 24:02.23 | 4:04.61 | 108173 | 126533
10 | 28:07.09 | 3:12.12 | 126534 | 140945
11 | 31:19.21 | 2:22.26 | 140946 | 151621
12 | 33:41.47 | 3:14.06 | 151622 | 166177
13 | 36:55.53 | 4:12.05 | 166178 | 185082
14 | 41:07.58 | 3:13.12 | 185083 | 199569
15 | 44:20.70 | 3:16.27 | 199570 | 214296
16 | 47:37.22 | 3:45.20 | 214297 | 231191
17 | 51:22.42 | 3:34.65 | 231192 | 247306
18 | 54:57.32 | 3:15.54 | 247307 | 261985
19 | 58:13.11 | 2:42.39 | 261986 | 274174
20 | 60:55.50 | 4:29.01 | 274175 | 294350
21 | 65:24.51 | 3:42.22 | 294351 | 311022
22 | 69:06.73 | 3:22.70 | 311023 | 326242


Track 1

Filename G:\03 MUSIC - TORRENTS\VA - Now That's What I Call Punk & New Wave (2022) [FLAC]\CD1\01 - Track01.wav

Pre-gap length 0:00:02.00

Peak level 97.7 %
Extraction speed 1.9 X
Track quality 100.0 %
Test CRC 3F7659CB
Copy CRC 3F7659CB
Accurately ripped (confidence 5) [5954DCCA] (AR v2)
Copy OK

Track 2

Filename G:\03 MUSIC - TORRENTS\VA - Now That's What I Call Punk & New Wave (2022) [FLAC]\CD1\02 - Track02.wav

Peak level 97.7 %
Extraction speed 1.9 X
Track quality 100.0 %
Test CRC DD09749E
Copy CRC DD09749E
Accurately ripped (confidence 5) [14BB40EE] (AR v2)
Copy OK

Track 3

Filename G:\03 MUSIC - TORRENTS\VA - Now That's What I Call Punk & New Wave (2022) [FLAC]\CD1\03 - Track03.wav

Peak level 97.7 %
Extraction speed 1.7 X
Track quality 99.9 %
Test CRC B9C8D460
Copy CRC B9C8D460
Accurately ripped (confidence 5) [441788D5] (AR v2)
Copy OK

Track 4

Filename G:\03 MUSIC - TORRENTS\VA - Now That's What I Call Punk & New Wave (2022) [FLAC]\CD1\04 - Track04.wav

Peak level 97.7 %
Extraction speed 2.3 X
Track quality 100.0 %
Test CRC 0DC645DA
Copy CRC 0DC645DA
Accurately ripped (confidence 5) [123687C4] (AR v2)
Copy OK

Track 5

Filename G:\03 MUSIC - TORRENTS\VA - Now That's What I Call Punk & New Wave (2022) [FLAC]\CD1\05 - Track05.wav

Peak level 97.7 %
Extraction speed 2.3 X
Track quality 100.0 %
Test CRC D95322DA
Copy CRC D95322DA
Accurately ripped (confidence 5) [079B3B83] (AR v2)
Copy OK

Track 6

Filename G:\03 MUSIC - TORRENTS\VA - Now That's What I Call Punk & New Wave (2022) [FLAC]\CD1\06 - Track06.wav

Peak level 97.7 %
Extraction speed 2.5 X
Track quality 100.0 %
Test CRC AE7180EB
Copy CRC AE7180EB
Accurately ripped (confidence 5) [6C765D60] (AR v2)
Copy OK

Track 7

Filename G:\03 MUSIC - TORRENTS\VA - Now That's What I Call Punk & New Wave (2022) [FLAC]\CD1\07 - Track07.wav

Peak level 97.7 %
Extraction speed 2.6 X
Track quality 100.0 %
Test CRC F270A80E
Copy CRC F270A80E
Accurately ripped (confidence 5) [A9309C4A] (AR v2)
Copy OK

Track 8

Filename G:\03 MUSIC - TORRENTS\VA - Now That's What I Call Punk & New Wave (2022) [FLAC]\CD1\08 - Track08.wav

Peak level 97.7 %
Extraction speed 2.7 X
Track quality 100.0 %
Test CRC 2B1FDB3F
Copy CRC 2B1FDB3F
Accurately ripped (confidence 5) [A9D155A2] (AR v2)
Copy OK

Track 9

Filename G:\03 MUSIC - TORRENTS\VA - Now That's What I Call Punk & New Wave (2022) [FLAC]\CD1\09 - Track09.wav

Peak level 97.7 %
Extraction speed 3.0 X
Track quality 100.0 %
Test CRC 57AF647C
Copy CRC 57AF647C
Accurately ripped (confidence 5) [82DE4C62] (AR v2)
Copy OK

Track 10

Filename G:\03 MUSIC - TORRENTS\VA - Now That's What I Call Punk & New Wave (2022) [FLAC]\CD1\10 - Track10.wav

Peak level 97.7 %
Extraction speed 3.0 X
Track quality 100.0 %
Test CRC EC68825F
Copy CRC EC68825F
Accurately ripped (confidence 5) [3F934A8B] (AR v2)
Copy OK

Track 11

Filename G:\03 MUSIC - TORRENTS\VA - Now That's What I Call Punk & New Wave (2022) [FLAC]\CD1\11 - Track11.wav

Peak level 97.7 %
Extraction speed 2.9 X
Track quality 100.0 %
Test CRC A69F243C
Copy CRC A69F243C
Accurately ripped (confidence 5) [2E61FB6D] (AR v2)
Copy OK

Track 12

Filename G:\03 MUSIC - TORRENTS\VA - Now That's What I Call Punk & New Wave (2022) [FLAC]\CD1\12 - Track12.wav

Peak level 97.7 %
Extraction speed 3.1 X
Track quality 100.0 %
Test CRC E4FF756F
Copy CRC E4FF756F
Accurately ripped (confidence 5) [0865B95D] (AR v2)
Copy OK

Track 13

Filename G:\03 MUSIC - TORRENTS\VA - Now That's What I Call Punk & New Wave (2022) [FLAC]\CD1\13 - Track13.wav

Peak level 97.7 %
Extraction speed 3.4 X
Track quality 100.0 %
Test CRC 94D0D00A
Copy CRC 94D0D00A
Accurately ripped (confidence 5) [18425086] (AR v2)
Copy OK

Track 14

Filename G:\03 MUSIC - TORRENTS\VA - Now That's What I Call Punk & New Wave (2022) [FLAC]\CD1\14 - Track14.wav

Peak level 97.7 %
Extraction speed 3.3 X
Track quality 100.0 %
Test CRC BC15FA61
Copy CRC BC15FA61
Accurately ripped (confidence 5) [CF03240E] (AR v2)
Copy OK

Track 15

Filename G:\03 MUSIC - TORRENTS\VA - Now That's What I Call Punk & New Wave (2022) [FLAC]\CD1\15 - Track15.wav

Peak level 97.7 %
Extraction speed 3.4 X
Track quality 100.0 %
Test CRC 4E8E5FCF
Copy CRC 4E8E5FCF
Accurately ripped (confidence 5) [533DC46A] (AR v2)
Copy OK

Track 16

Filename G:\03 MUSIC - TORRENTS\VA - Now That's What I Call Punk & New Wave (2022) [FLAC]\CD1\16 - Track16.wav

Peak level 97.7 %
Extraction speed 3.6 X
Track quality 100.0 %
Test CRC DA954C14
Copy CRC DA954C14
Accurately ripped (confidence 5) [813565F4] (AR v2)
Copy OK

Track 17

Filename G:\03 MUSIC - TORRENTS\VA - Now That's What I Call Punk & New Wave (2022) [FLAC]\CD1\17 - Track17.wav

Peak level 97.7 %
Extraction speed 3.7 X
Track quality 100.0 %
Test CRC 00DB2EFB
Copy CRC 00DB2EFB
Accurately ripped (confidence 5) [DBBFEB7D] (AR v2)
Copy OK

Track 18

Filename G:\03 MUSIC - TORRENTS\VA - Now That's What I Call Punk & New Wave (2022) [FLAC]\CD1\18 - Track18.wav

Peak level 97.7 %
Extraction speed 3.7 X
Track quality 100.0 %
Test CRC 18BE32DF
Copy CRC 18BE32DF
Accurately ripped (confidence 5) [6EB7F01F] (AR v2)
Copy OK

Track 19

Filename G:\03 MUSIC - TORRENTS\VA - Now That's What I Call Punk & New Wave (2022) [FLAC]\CD1\19 - Track19.wav

Peak level 97.7 %
Extraction speed 3.6 X
Track quality 100.0 %
Test CRC B13CF0DE
Copy CRC B13CF0DE
Accurately ripped (confidence 5) [0608AF3D] (AR v2)
Copy OK

Track 20

Filename G:\03 MUSIC - TORRENTS\VA - Now That's What I Call Punk & New Wave (2022) [FLAC]\CD1\20 - Track20.wav

Peak level 97.7 %
Extraction speed 4.0 X
Track quality 100.0 %
Test CRC A63AE910
Copy CRC A63AE910
Accurately ripped (confidence 5) [1D14D7FB] (AR v2)
Copy OK

Track 21

Filename G:\03 MUSIC - TORRENTS\VA - Now That's What I Call Punk & New Wave (2022) [FLAC]\CD1\21 - Track21.wav

Peak level 97.7 %
Extraction speed 4.0 X
Track quality 100.0 %
Test CRC 33E6A9D3
Copy CRC 33E6A9D3
Accurately ripped (confidence 5) [C920DEDC] (AR v2)
Copy OK

Track 22

Filename G:\03 MUSIC - TORRENTS\VA - Now That's What I Call Punk & New Wave (2022) [FLAC]\CD1\22 - Track22.wav

Peak level 97.7 %
Extraction speed 4.0 X
Track quality 100.0 %
Test CRC 4A33B44C
Copy CRC 4A33B44C
Accurately ripped (confidence 5) [76CAFE0F] (AR v2)
Copy OK


All tracks accurately ripped

No errors occurred

End of status report

–– CUETools DB Plugin V2.1.6

[CTDB TOCID: jmyfYrY_Rf31nIdpGNcVhOOV3Sg-] found
Submit result: jmyfYrY_Rf31nIdpGNcVhOOV3Sg- has been confirmed
Track | CTDB Status
1 | (19/19) Accurately ripped
2 | (19/19) Accurately ripped
3 | (19/19) Accurately ripped
4 | (19/19) Accurately ripped
5 | (19/19) Accurately ripped
6 | (19/19) Accurately ripped
7 | (19/19) Accurately ripped
8 | (19/19) Accurately ripped
9 | (19/19) Accurately ripped
10 | (19/19) Accurately ripped
11 | (19/19) Accurately ripped
12 | (19/19) Accurately ripped
13 | (19/19) Accurately ripped
14 | (19/19) Accurately ripped
15 | (19/19) Accurately ripped
16 | (19/19) Accurately ripped
17 | (19/19) Accurately ripped
18 | (19/19) Accurately ripped
19 | (19/19) Accurately ripped
20 | (19/19) Accurately ripped
21 | (19/19) Accurately ripped
22 | (19/19) Accurately ripped


==== Log checksum 0A620D3A95A75F781DD9764292D48B716E03F7B1AE8C8B40B9D045221D1D2224 ====


Exact Audio Copy V1.6 from 23. October 2020

EAC extraction logfile from 20. March 2022, 15:19

Various Artists / Now That’s What I Call Punk & New Wave

Used drive : hp BDDVDRW CH28N Adapter: 1 ID: 0

Read mode : Secure
Utilize accurate stream : Yes
Defeat audio cache : Yes
Make use of C2 pointers : No

Read offset correction : 667
Overread into Lead-In and Lead-Out : No
Fill up missing offset samples with silence : Yes
Delete leading and trailing silent blocks : No
Null samples used in CRC calculations : Yes
Used interface : Native Win32 interface for Win NT & 2000
Gap handling : Appended to previous track

Used output format : User Defined Encoder
Selected bitrate : 1024 kBit/s
Quality : High
Add ID3 tag : No
Command line compressor : C:\Program Files (x86)\Exact Audio Copy\Flac\flac.exe
Additional command line options : -8 -V -T "ARTIST=%artist%" -T "TITLE=%title%" -T "ALBUM=%albumtitle%" -T "DATE=%year%" -T "TRACKNUMBER=%tracknr%" -T "GENRE=%genre%" -T "PERFORMER=%albuminterpret%" -T "COMPOSER=%composer%" %haslyrics%–tag-from-file=LYRICS="%lyricsfile%"%haslyrics% -T "ALBUMARTIST=%albumartist%" -T "DISCNUMBER=%cdnumber%" -T "TOTALDISCS=%totalcds%" -T "TOTALTRACKS=%numtracks%" -T "COMMENT=%comment%" %source% -o %dest%


TOC of the extracted CD

Track | Start | Length | Start sector | End sector
––––––––––––––––––––––––––––-
1 | 0:00.00 | 2:55.03 | 0 | 13127
2 | 2:55.03 | 2:59.56 | 13128 | 26608
3 | 5:54.59 | 5:08.06 | 26609 | 49714
4 | 11:02.65 | 2:21.13 | 49715 | 60302
5 | 13:24.03 | 3:05.19 | 60303 | 74196
6 | 16:29.22 | 3:27.18 | 74197 | 89739
7 | 19:56.40 | 3:43.22 | 89740 | 106486
8 | 23:39.62 | 2:48.25 | 106487 | 119111
9 | 26:28.12 | 5:10.21 | 119112 | 142382
10 | 31:38.33 | 3:08.63 | 142383 | 156545
11 | 34:47.21 | 2:59.18 | 156546 | 169988
12 | 37:46.39 | 3:10.45 | 169989 | 184283
13 | 40:57.09 | 2:53.21 | 184284 | 197279
14 | 43:50.30 | 2:17.09 | 197280 | 207563
15 | 46:07.39 | 2:48.52 | 207564 | 220215
16 | 48:56.16 | 3:12.44 | 220216 | 234659
17 | 52:08.60 | 2:43.32 | 234660 | 246916
18 | 54:52.17 | 3:44.54 | 246917 | 263770
19 | 58:36.71 | 2:25.28 | 263771 | 274673
20 | 61:02.24 | 3:04.50 | 274674 | 288523
21 | 64:06.74 | 3:01.15 | 288524 | 302113
22 | 67:08.14 | 3:37.47 | 302114 | 318435
23 | 70:45.61 | 3:28.68 | 318436 | 334103


Track 1

Filename G:\03 MUSIC - TORRENTS\VA - Now That's What I Call Punk & New Wave (2022) [FLAC]\CD2\01 - Track01.wav

Pre-gap length 0:00:02.00

Peak level 97.7 %
Extraction speed 1.8 X
Track quality 100.0 %
Test CRC E2D2C1FA
Copy CRC E2D2C1FA
Accurately ripped (confidence 4) [39953176] (AR v2)
Copy OK

Track 2

Filename G:\03 MUSIC - TORRENTS\VA - Now That's What I Call Punk & New Wave (2022) [FLAC]\CD2\02 - Track02.wav

Peak level 97.7 %
Extraction speed 2.0 X
Track quality 100.0 %
Test CRC 1E8D25FA
Copy CRC 1E8D25FA
Accurately ripped (confidence 4) [7D29EF83] (AR v2)
Copy OK

Track 3

Filename G:\03 MUSIC - TORRENTS\VA - Now That's What I Call Punk & New Wave (2022) [FLAC]\CD2\03 - Track03.wav

Peak level 97.7 %
Extraction speed 2.1 X
Track quality 99.9 %
Test CRC 3964BE85
Copy CRC 3964BE85
Accurately ripped (confidence 4) [616EEA52] (AR v2)
Copy OK

Track 4

Filename G:\03 MUSIC - TORRENTS\VA - Now That's What I Call Punk & New Wave (2022) [FLAC]\CD2\04 - Track04.wav

Peak level 97.7 %
Extraction speed 2.2 X
Track quality 100.0 %
Test CRC 8C88D5FD
Copy CRC 8C88D5FD
Accurately ripped (confidence 4) [DA165430] (AR v2)
Copy OK

Track 5

Filename G:\03 MUSIC - TORRENTS\VA - Now That's What I Call Punk & New Wave (2022) [FLAC]\CD2\05 - Track05.wav

Peak level 97.7 %
Extraction speed 2.1 X
Track quality 99.9 %
Test CRC 03ED3314
Copy CRC 03ED3314
Accurately ripped (confidence 4) [FEA23764] (AR v2)
Copy OK

Track 6

Filename G:\03 MUSIC - TORRENTS\VA - Now That's What I Call Punk & New Wave (2022) [FLAC]\CD2\06 - Track06.wav

Peak level 97.7 %
Extraction speed 2.6 X
Track quality 100.0 %
Test CRC AF703EF9
Copy CRC AF703EF9
Accurately ripped (confidence 4) [76AF0A4C] (AR v2)
Copy OK

Track 7

Filename G:\03 MUSIC - TORRENTS\VA - Now That's What I Call Punk & New Wave (2022) [FLAC]\CD2\07 - Track07.wav

Peak level 97.7 %
Extraction speed 2.8 X
Track quality 100.0 %
Test CRC C5B9B5DD
Copy CRC C5B9B5DD
Accurately ripped (confidence 4) [672FD981] (AR v2)
Copy OK

Track 8

Filename G:\03 MUSIC - TORRENTS\VA - Now That's What I Call Punk & New Wave (2022) [FLAC]\CD2\08 - Track08.wav

Peak level 97.7 %
Extraction speed 2.3 X
Track quality 99.9 %
Test CRC 4D2FDB5E
Copy CRC 4D2FDB5E
Accurately ripped (confidence 4) [15A75863] (AR v2)
Copy OK

Track 9

Filename G:\03 MUSIC - TORRENTS\VA - Now That's What I Call Punk & New Wave (2022) [FLAC]\CD2\09 - Track09.wav

Peak level 97.7 %
Extraction speed 3.1 X
Track quality 100.0 %
Test CRC 4A6CA03F
Copy CRC 4A6CA03F
Accurately ripped (confidence 4) [7F02407A] (AR v2)
Copy OK

Track 10

Filename G:\03 MUSIC - TORRENTS\VA - Now That's What I Call Punk & New Wave (2022) [FLAC]\CD2\10 - Track10.wav

Peak level 97.7 %
Extraction speed 3.1 X
Track quality 100.0 %
Test CRC 42C42942
Copy CRC 42C42942
Accurately ripped (confidence 4) [2D303170] (AR v2)
Copy OK

Track 11

Filename G:\03 MUSIC - TORRENTS\VA - Now That's What I Call Punk & New Wave (2022) [FLAC]\CD2\11 - Track11.wav

Peak level 97.7 %
Extraction speed 3.1 X
Track quality 100.0 %
Test CRC 2F77C5EE
Copy CRC 2F77C5EE
Accurately ripped (confidence 4) [76794530] (AR v2)
Copy OK

Track 12

Filename G:\03 MUSIC - TORRENTS\VA - Now That's What I Call Punk & New Wave (2022) [FLAC]\CD2\12 - Track12.wav

Peak level 97.7 %
Extraction speed 3.2 X
Track quality 100.0 %
Test CRC 4A0F772A
Copy CRC 4A0F772A
Accurately ripped (confidence 4) [A62C5AA6] (AR v2)
Copy OK

Track 13

Filename G:\03 MUSIC - TORRENTS\VA - Now That's What I Call Punk & New Wave (2022) [FLAC]\CD2\13 - Track13.wav

Peak level 97.7 %
Extraction speed 2.8 X
Track quality 99.9 %
Test CRC F3910094
Copy CRC F3910094
Accurately ripped (confidence 4) [7D2FDF42] (AR v2)
Copy OK

Track 14

Filename G:\03 MUSIC - TORRENTS\VA - Now That's What I Call Punk & New Wave (2022) [FLAC]\CD2\14 - Track14.wav

Peak level 97.7 %
Extraction speed 2.6 X
Track quality 99.9 %
Test CRC 9A2559C0
Copy CRC 9A2559C0
Accurately ripped (confidence 4) [526CBF8F] (AR v2)
Copy OK

Track 15

Filename G:\03 MUSIC - TORRENTS\VA - Now That's What I Call Punk & New Wave (2022) [FLAC]\CD2\15 - Track15.wav

Peak level 97.7 %
Extraction speed 3.3 X
Track quality 100.0 %
Test CRC E0790EC7
Copy CRC E0790EC7
Accurately ripped (confidence 4) [86474FDD] (AR v2)
Copy OK

Track 16

Filename G:\03 MUSIC - TORRENTS\VA - Now That's What I Call Punk & New Wave (2022) [FLAC]\CD2\16 - Track16.wav

Peak level 97.7 %
Extraction speed 3.6 X
Track quality 100.0 %
Test CRC A642867F
Copy CRC A642867F
Accurately ripped (confidence 4) [E9A613B7] (AR v2)
Copy OK

Track 17

Filename G:\03 MUSIC - TORRENTS\VA - Now That's What I Call Punk & New Wave (2022) [FLAC]\CD2\17 - Track17.wav

Peak level 97.7 %
Extraction speed 3.5 X
Track quality 100.0 %
Test CRC 7D496B6A
Copy CRC 7D496B6A
Accurately ripped (confidence 4) [FF25BBB3] (AR v2)
Copy OK

Track 18

Filename G:\03 MUSIC - TORRENTS\VA - Now That's What I Call Punk & New Wave (2022) [FLAC]\CD2\18 - Track18.wav

Peak level 86.0 %
Extraction speed 3.8 X
Track quality 100.0 %
Test CRC 2E97D5C6
Copy CRC 2E97D5C6
Accurately ripped (confidence 4) [43EEBBA4] (AR v2)
Copy OK

Track 19

Filename G:\03 MUSIC - TORRENTS\VA - Now That's What I Call Punk & New Wave (2022) [FLAC]\CD2\19 - Track19.wav

Peak level 97.7 %
Extraction speed 3.6 X
Track quality 100.0 %
Test CRC 3784A104
Copy CRC 3784A104
Accurately ripped (confidence 4) [9B33D130] (AR v2)
Copy OK

Track 20

Filename G:\03 MUSIC - TORRENTS\VA - Now That's What I Call Punk & New Wave (2022) [FLAC]\CD2\20 - Track20.wav

Peak level 97.7 %
Extraction speed 3.8 X
Track quality 100.0 %
Test CRC 6AEB5B55
Copy CRC 6AEB5B55
Accurately ripped (confidence 4) [E4EC85AF] (AR v2)
Copy OK

Track 21

Filename G:\03 MUSIC - TORRENTS\VA - Now That's What I Call Punk & New Wave (2022) [FLAC]\CD2\21 - Track21.wav

Peak level 97.7 %
Extraction speed 3.9 X
Track quality 100.0 %
Test CRC 4BA957C5
Copy CRC 4BA957C5
Accurately ripped (confidence 4) [4FD3D10C] (AR v2)
Copy OK

Track 22

Filename G:\03 MUSIC - TORRENTS\VA - Now That's What I Call Punk & New Wave (2022) [FLAC]\CD2\22 - Track22.wav

Peak level 97.7 %
Extraction speed 4.0 X
Track quality 100.0 %
Test CRC 1387051D
Copy CRC 1387051D
Accurately ripped (confidence 4) [C9F05BA4] (AR v2)
Copy OK

Track 23

Filename G:\03 MUSIC - TORRENTS\VA - Now That's What I Call Punk & New Wave (2022) [FLAC]\CD2\23 - Track23.wav

Peak level 97.7 %
Extraction speed 4.1 X
Track quality 100.0 %
Test CRC 580CD670
Copy CRC 580CD670
Accurately ripped (confidence 4) [C839911D] (AR v2)
Copy OK


All tracks accurately ripped

No errors occurred

End of status report

–– CUETools DB Plugin V2.1.6

[CTDB TOCID: d1iUmQRzHMXb0l8fwGc.BjSKa0k-] found
Submit result: d1iUmQRzHMXb0l8fwGc.BjSKa0k- has been confirmed
Track | CTDB Status
1 | (24/24) Accurately ripped
2 | (24/24) Accurately ripped
3 | (24/24) Accurately ripped
4 | (24/24) Accurately ripped
5 | (24/24) Accurately ripped
6 | (24/24) Accurately ripped
7 | (24/24) Accurately ripped
8 | (24/24) Accurately ripped
9 | (24/24) Accurately ripped
10 | (24/24) Accurately ripped
11 | (24/24) Accurately ripped
12 | (24/24) Accurately ripped
13 | (24/24) Accurately ripped
14 | (24/24) Accurately ripped
15 | (24/24) Accurately ripped
16 | (24/24) Accurately ripped
17 | (24/24) Accurately ripped
18 | (24/24) Accurately ripped
19 | (24/24) Accurately ripped
20 | (24/24) Accurately ripped
21 | (24/24) Accurately ripped
22 | (24/24) Accurately ripped
23 | (24/24) Accurately ripped


==== Log checksum B365AAB004CDFF6BBF3F22075EAC6BF2ACCF5BFDD07886566396445F0C333B4B ====