Subcategories

Ofra Haza - Greatest Hits (2000) 3 CD Box Set [Re-Up]

Posted By: Designol
Ofra Haza - Greatest Hits (2000) 3 CD Box Set [Re-Up]

Ofra Haza - Greatest Hits (2000)
EAC | FLAC | Image (Cue&Log) ~ 1.46 Gb | Mp3 (CBR320) ~ 514 Mb | Scans ~ 540 Mb
Genre: Ethnic Pop, Worldbeat | Label: Hed-Arzi | # 64027 | Time: 03:45:05

This triple CD set came out on the heels of Ofra Haza's tragic death. It contains all her greatest hits in Hebrew, Yemenite/Arabic and English, and also songs that have never before appeared on an album. This is the ultimate collection of one of Israel's most beloved performers.

Ofra Haza Greatest Hits, Volume One, is a beautiful and excellent 3 CD collection of 59 songs. This set along with Greatest Hits Volume Two offer a great compilation of most of Ofra Haza's best songs, as well as songs previously released only as 45 singles. Both volumes contain some great previously unreleased songs. Volume Two, another 3 CD set, contains an entire previously unreleased album, the excellent "Queen in Exile." Volume One is very worthwhile and satisfying even for those fans who already have all or most of her previously released material. Although I have all of her post 1977 albums except "Shirey Moledet Two", until this collection I have never heard the beautiful songs "Forty," "Listen to the Waves," "Jerusalem of Gold," "Haven't Talked About Love Yet," "The Golden Apple," "Sailor Boys," and "This Year inshalla." "Forty" is the best song here of the ones not previously released on album or CD. At least six of the previously released songs are alternate takes that I have never heard before. And for those unfamiliar with her, this set is a great introduction to Ofra Haza's music. The artwork, photos, the inserts, and the packaging are all tastefully and pleasingly done. You will not be disappointed. A highly recommended collection.

Review by MusicMan, Amazon.com



Ofra Haza - Greatest Hits (2000) 3 CD Box Set [Re-Up]



Tracklist:

CD1:

01. Amen for Words (02:56)
02. Mutual Destiny (03:27)
03. Prayer (02:43)
04. Alive (Chai) (03:09)
05. Gabriel (03:07)
06. The Freecha Song (02:27)
07. You Call Me (03:16)
08. Like a Bird (04:00)
09. A Love Song to a Soldier (03:53)
10. Keep Walking (03:47)
11. Lover's Signs (03:03)
12. Flash Gordon (03:26)
13. Magic Queen (02:42)
14. Superstar (03:36)
15. Hand in Hand (04:28)
16. Help Me (03:32)
17. With You Tonight (02:32)
18. After the Holidays (03:01)
19. Sailor Boys (04:04)
20. Eyes (03:31)
21. A Ballad for a King (02:11)
22. Revival (03:41)

CD2:

01. Earth (04:16)
02. Home Sweet Home (03:24)
03. A New Year Starts Every Day (03:07)
04. Summertime (02:50)
05. Now (03:07)
06. All the Cards Are on the Table (03:37)
07. Lady (03:27)
08. Come and Play Me (04:14)
09. Forty (03:42)
10. This Year Inshalla (03:36)
11. Rachamim (03:28)
12. Galbi (04:13)
13. I'm Nin'Alu (03:28)
14. Wish Me Luck (04:08)
15. Yaba Yaba Ya (05:06)
16. Daw Da Hiya (04:54)
17. Show Me (04:12)
18. Fatamorgana (04:59)
19. Shadai (05:39)

CD3:

01. Along the sea (04:52)
02. Giving (05:32)
03. Gentle hand (05:23)
04. Jerusalem of gold (05:45)
05. Sixth Sense (04:11)
06. You've Got a Friend (05:16)
07. The rain (03:31)
08. Love letter (02:57)
09. Melody of the heart (02:51)
10. Suburban boy (03:46)
11. Tell me where my friends are (02:51)
12. Havent talked about love yet (03:40)
13. The golden apple (04:18)
14. This pain (05:14)
15. End of summer (04:08)
16. Still waiting for the one (03:37)
17. Listen to the waves (03:50)
18. Someone always walks with me (03:45)


Exact Audio Copy V0.99 prebeta 4 from 23. January 2008

EAC Auslese-Logdatei vom 8. April 2012, 0:08

Ofra Haza / Ofra Haza - Greatest Hits Disk 1

Benutztes Laufwerk : HL-DT-STDVDRAM GSA-H42N Adapter: 0 ID: 0

Lesemodus : Sicher
Benutze Accurate Stream : Ja
Audio Puffer abgeschaltet : Ja
Benutze C2 Fehlerinformationen : Nein

Leseoffset Korrektur : 667
Ьberlesen in das Lead-In und Lead-Out : Nein
Fьlle fehlende Offsetsample mit Stille auf : Ja
Lцsche fьhrende und nachfolgende stille Blцcke : Nein
Null Samples gehen in CRC Berechnungen ein : Ja
Benutzte Schnittstelle : Installierte externe ASPI Schnittstelle

Benutztes Ausgabeformat : Interne WAV Routinen
Sampleformat : 44.100 Hz; 16 Bit; Stereo


TOC der ausgelesenen CD

Track | Start | Lдnge | Startsektor | Endsektor
–––––––––––––––––––––––––––-
1 | 0:00.00 | 2:57.13 | 0 | 13287
2 | 2:57.13 | 3:28.02 | 13288 | 28889
3 | 6:25.15 | 2:44.51 | 28890 | 41240
4 | 9:09.66 | 3:10.21 | 41241 | 55511
5 | 12:20.12 | 3:08.53 | 55512 | 69664
6 | 15:28.65 | 2:28.05 | 69665 | 80769
7 | 17:56.70 | 3:17.03 | 80770 | 95547
8 | 21:13.73 | 4:01.23 | 95548 | 113645
9 | 25:15.21 | 3:54.22 | 113646 | 131217
10 | 29:09.43 | 3:48.35 | 131218 | 148352
11 | 32:58.03 | 3:04.09 | 148353 | 162161
12 | 36:02.12 | 3:27.13 | 162162 | 177699
13 | 39:29.25 | 2:43.32 | 177700 | 189956
14 | 42:12.57 | 3:37.11 | 189957 | 206242
15 | 45:49.68 | 4:29.19 | 206243 | 226436
16 | 50:19.12 | 3:33.03 | 226437 | 242414
17 | 53:52.15 | 2:33.08 | 242415 | 253897
18 | 56:25.23 | 3:02.03 | 253898 | 267550
19 | 59:27.26 | 4:05.23 | 267551 | 285948
20 | 63:32.49 | 3:32.06 | 285949 | 301854
21 | 67:04.55 | 2:12.56 | 301855 | 311810
22 | 69:17.36 | 3:41.15 | 311811 | 328400


Bereichsstatus und Fehler

Gewдhlter Bereich

Dateiname L:\Audio\Pop\Ofra Haza\Ofra Haza - Ofra Haza - Greatest Hits Disk 1.wav

Spitzenpegel 100.0 %
Bereichsqualitдt 100.0 %
Kopie CRC B6F7672E
Kopie OK

Keine Fehler aufgetreten


AccurateRip Ьbersicht

Track 1 akkurat gelesen (Zuversicht 3) [C43EBC0A]
Track 2 akkurat gelesen (Zuversicht 3) [211F158D]
Track 3 akkurat gelesen (Zuversicht 3) [15FFFDC1]
Track 4 akkurat gelesen (Zuversicht 3) [A1C5BB90]
Track 5 akkurat gelesen (Zuversicht 3) [F63B5151]
Track 6 akkurat gelesen (Zuversicht 3) [8BEB9038]
Track 7 akkurat gelesen (Zuversicht 3) [638D0AC4]
Track 8 akkurat gelesen (Zuversicht 3) [7C628307]
Track 9 akkurat gelesen (Zuversicht 3) [B22CB0A4]
Track 10 akkurat gelesen (Zuversicht 3) [A0AEA5C0]
Track 11 akkurat gelesen (Zuversicht 3) [F26599F1]
Track 12 akkurat gelesen (Zuversicht 3) [530E1623]
Track 13 akkurat gelesen (Zuversicht 3) [8586379B]
Track 14 akkurat gelesen (Zuversicht 3) [BB34E88C]
Track 15 akkurat gelesen (Zuversicht 3) [7C1C8736]
Track 16 akkurat gelesen (Zuversicht 3) [0409D823]
Track 17 akkurat gelesen (Zuversicht 3) [5F1E49A1]
Track 18 akkurat gelesen (Zuversicht 3) [33739CCA]
Track 19 akkurat gelesen (Zuversicht 3) [988936EB]
Track 20 akkurat gelesen (Zuversicht 3) [0B4840AE]
Track 21 akkurat gelesen (Zuversicht 3) [6813BAB0]
Track 22 akkurat gelesen (Zuversicht 3) [BA4DDE4E]

Alle Tracks wurden akkurat gelesen

Ende des Statusreports

foobar2000 1.2 / Dynamic Range Meter 1.1.1
log date: 2014-06-15 15:49:27

––––––––––––––––––––––––––––––––––––––––
Analyzed: Ofra Haza / Ofra Haza - Greatest Hits Disk 1
––––––––––––––––––––––––––––––––––––––––

DR Peak RMS Duration Track
––––––––––––––––––––––––––––––––––––––––
DR7 -0.90 dB -10.31 dB 2:57 01-Amen for Words
DR9 -0.10 dB -11.14 dB 3:28 02-Mutual Destiny
DR8 -0.10 dB -10.37 dB 2:45 03-Prayer
DR7 -0.60 dB -9.42 dB 3:10 04-Alive (Chai)
DR8 -0.10 dB -9.37 dB 3:09 05-Gabriel
DR8 0.00 dB -11.34 dB 2:28 06-The Freecha Song
DR8 -0.10 dB -9.23 dB 3:17 07-You Call Me
DR8 -0.10 dB -10.40 dB 4:01 08-Like a Bird
DR8 -0.10 dB -10.17 dB 3:54 09-A Love Song to a Soldier
DR10 -0.10 dB -11.98 dB 3:48 10-Keep Walking
DR9 -0.10 dB -10.34 dB 3:04 11-Lover's Signs
DR9 -0.10 dB -10.30 dB 3:27 12-Flash Gordon
DR10 -0.10 dB -11.21 dB 2:43 13-Magic Queen
DR9 -0.40 dB -11.25 dB 3:37 14-Superstar
DR9 -0.10 dB -10.86 dB 4:29 15-Hand in Hand
DR9 -0.07 dB -10.78 dB 3:33 16-Help Me
DR7 -0.40 dB -9.83 dB 2:33 17-With You Tonight
DR10 -0.21 dB -11.48 dB 3:02 18-After the Holidays
DR10 -1.41 dB -12.90 dB 4:05 19-Sailor Boys
DR7 0.00 dB -9.52 dB 3:32 20-Eyes
DR10 -0.30 dB -11.71 dB 2:13 21-A Ballad for a King
DR9 -0.10 dB -11.46 dB 3:41 22-Revival
––––––––––––––––––––––––––––––––––––––––

Number of tracks: 22
Official DR value: DR9

Samplerate: 44100 Hz
Channels: 2
Bits per sample: 16
Bitrate: 945 kbps
Codec: FLAC
================================================================================


Exact Audio Copy V0.99 prebeta 4 from 23. January 2008

EAC Auslese-Logdatei vom 4. April 2012, 22:13

Ofra Haza / Ofra Haza - Greatest Hits Disk 2

Benutztes Laufwerk : HL-DT-STDVD-ROM GDR-H30N Adapter: 0 ID: 1

Lesemodus : Sicher
Benutze Accurate Stream : Ja
Audio Puffer abgeschaltet : Ja
Benutze C2 Fehlerinformationen : Nein

Leseoffset Korrektur : 6
Ьberlesen in das Lead-In und Lead-Out : Nein
Fьlle fehlende Offsetsample mit Stille auf : Ja
Lцsche fьhrende und nachfolgende stille Blцcke : Nein
Null Samples gehen in CRC Berechnungen ein : Ja
Benutzte Schnittstelle : Installierte externe ASPI Schnittstelle

Benutztes Ausgabeformat : Interne WAV Routinen
Sampleformat : 44.100 Hz; 16 Bit; Stereo


TOC der ausgelesenen CD

Track | Start | Lдnge | Startsektor | Endsektor
–––––––––––––––––––––––––––-
1 | 0:00.00 | 4:18.59 | 0 | 19408
2 | 4:18.59 | 3:26.14 | 19409 | 34872
3 | 7:44.73 | 3:09.25 | 34873 | 49072
4 | 10:54.23 | 2:52.68 | 49073 | 62040
5 | 13:47.16 | 3:09.39 | 62041 | 76254
6 | 16:56.55 | 3:39.11 | 76255 | 92690
7 | 20:35.66 | 3:29.64 | 92691 | 108429
8 | 24:05.55 | 4:16.55 | 108430 | 127684
9 | 28:22.35 | 3:44.40 | 127685 | 144524
10 | 32:07.00 | 3:38.20 | 144525 | 160894
11 | 35:45.20 | 3:30.35 | 160895 | 176679
12 | 39:15.55 | 4:15.44 | 176680 | 195848
13 | 43:31.24 | 3:30.37 | 195849 | 211635
14 | 47:01.61 | 4:10.41 | 211636 | 230426
15 | 51:12.27 | 5:08.57 | 230427 | 253583
16 | 56:21.09 | 4:56.45 | 253584 | 275828
17 | 61:17.54 | 4:14.37 | 275829 | 294915
18 | 65:32.16 | 5:01.37 | 294916 | 317527
19 | 70:33.53 | 5:39.34 | 317528 | 342986


Bereichsstatus und Fehler

Gewдhlter Bereich

Dateiname L:\Audio\Pop\Ofra Haza\2000 - Greatest Hits (3 CD)\Ofra Haza - Ofra Haza - Greatest Hits Disk 2.wav

Spitzenpegel 100.0 %
Bereichsqualitдt 100.0 %
Kopie CRC BE33BE8C
Kopie OK

Keine Fehler aufgetreten


AccurateRip Ьbersicht

Track 1 akkurat gelesen (Zuversicht 3) [040E1569]
Track 2 akkurat gelesen (Zuversicht 3) [919D7883]
Track 3 akkurat gelesen (Zuversicht 3) [C53088E0]
Track 4 akkurat gelesen (Zuversicht 3) [0CC44C97]
Track 5 akkurat gelesen (Zuversicht 3) [02AF4AC1]
Track 6 akkurat gelesen (Zuversicht 3) [14784842]
Track 7 akkurat gelesen (Zuversicht 3) [F0104761]
Track 8 akkurat gelesen (Zuversicht 3) [EFCACE0E]
Track 9 akkurat gelesen (Zuversicht 3) [02FE1270]
Track 10 akkurat gelesen (Zuversicht 3) [DF3BC925]
Track 11 akkurat gelesen (Zuversicht 3) [9F3C02B8]
Track 12 akkurat gelesen (Zuversicht 3) [6B8C757B]
Track 13 akkurat gelesen (Zuversicht 3) [29D50427]
Track 14 akkurat gelesen (Zuversicht 3) [F39986E7]
Track 15 akkurat gelesen (Zuversicht 3) [83D5224E]
Track 16 akkurat gelesen (Zuversicht 3) [7758FFD9]
Track 17 akkurat gelesen (Zuversicht 3) [3FCD8F1B]
Track 18 akkurat gelesen (Zuversicht 3) [C4640C52]
Track 19 akkurat gelesen (Zuversicht 3) [42A07AAA]

Alle Tracks wurden akkurat gelesen

Ende des Statusreports

foobar2000 1.2 / Dynamic Range Meter 1.1.1
log date: 2014-06-15 15:49:53

––––––––––––––––––––––––––––––––––––––––
Analyzed: Ofra Haza / Ofra Haza - Greatest Hits Disk 2
––––––––––––––––––––––––––––––––––––––––

DR Peak RMS Duration Track
––––––––––––––––––––––––––––––––––––––––
DR8 -0.90 dB -11.07 dB 4:19 01-Earth
DR8 -1.00 dB -11.16 dB 3:26 02-Home Sweet Home
DR8 -0.20 dB -9.75 dB 3:09 03-A New Year Starts Every Day
DR9 0.00 dB -9.95 dB 2:53 04-Summertime
DR8 -0.20 dB -9.47 dB 3:10 05-Now
DR9 -0.20 dB -10.64 dB 3:39 06-All the Cards Are on the Table
DR8 0.00 dB -9.29 dB 3:30 07-Lady
DR9 -0.21 dB -10.61 dB 4:17 08-Come and Play Me
DR8 -0.50 dB -10.80 dB 3:45 09-Forty
DR8 0.00 dB -10.27 dB 3:38 10-This Year Inshalla
DR11 0.00 dB -12.53 dB 3:30 11-Rachamim
DR10 -0.10 dB -11.87 dB 4:16 12-Galbi
DR9 -0.10 dB -12.34 dB 3:30 13-I'm Nin'Alu
DR10 -0.10 dB -11.14 dB 4:11 14-Wish Me Luck
DR9 0.00 dB -10.59 dB 5:09 15-Yaba Yaba Ya
DR9 -0.10 dB -11.19 dB 4:57 16-Daw Da Hiya
DR9 -0.50 dB -11.28 dB 4:14 17-Show Me
DR10 -0.10 dB -11.89 dB 5:01 18-Fatamorgana
DR11 -0.10 dB -13.05 dB 5:39 19-Shadai
––––––––––––––––––––––––––––––––––––––––

Number of tracks: 19
Official DR value: DR9

Samplerate: 44100 Hz
Channels: 2
Bits per sample: 16
Bitrate: 967 kbps
Codec: FLAC
================================================================================


Exact Audio Copy V0.99 prebeta 4 from 23. January 2008

EAC Auslese-Logdatei vom 4. April 2012, 22:23

Ofra Haza / Ofra Haza - Greatest Hits Disk 3

Benutztes Laufwerk : HL-DT-STDVD-ROM GDR-H30N Adapter: 0 ID: 1

Lesemodus : Sicher
Benutze Accurate Stream : Ja
Audio Puffer abgeschaltet : Ja
Benutze C2 Fehlerinformationen : Nein

Leseoffset Korrektur : 6
Ьberlesen in das Lead-In und Lead-Out : Nein
Fьlle fehlende Offsetsample mit Stille auf : Ja
Lцsche fьhrende und nachfolgende stille Blцcke : Nein
Null Samples gehen in CRC Berechnungen ein : Ja
Benutzte Schnittstelle : Installierte externe ASPI Schnittstelle

Benutztes Ausgabeformat : Interne WAV Routinen
Sampleformat : 44.100 Hz; 16 Bit; Stereo


TOC der ausgelesenen CD

Track | Start | Lдnge | Startsektor | Endsektor
–––––––––––––––––––––––––––-
1 | 0:00.00 | 4:53.13 | 0 | 21987
2 | 4:53.13 | 5:33.59 | 21988 | 47021
3 | 10:26.72 | 5:24.57 | 47022 | 71378
4 | 15:51.54 | 5:46.67 | 71379 | 97395
5 | 21:38.46 | 4:12.57 | 97396 | 116352
6 | 25:51.28 | 5:17.35 | 116353 | 140162
7 | 31:08.63 | 3:32.05 | 140163 | 156067
8 | 34:40.68 | 2:58.10 | 156068 | 169427
9 | 37:39.03 | 2:52.46 | 169428 | 182373
10 | 40:31.49 | 3:47.68 | 182374 | 199466
11 | 44:19.42 | 2:52.02 | 199467 | 212368
12 | 47:11.44 | 3:41.50 | 212369 | 228993
13 | 50:53.19 | 4:19.32 | 228994 | 248450
14 | 55:12.51 | 5:15.05 | 248451 | 272080
15 | 60:27.56 | 4:09.28 | 272081 | 290783
16 | 64:37.09 | 3:38.54 | 290784 | 307187
17 | 68:15.63 | 3:51.54 | 307188 | 324566
18 | 72:07.42 | 3:45.45 | 324567 | 341486


Bereichsstatus und Fehler

Gewдhlter Bereich

Dateiname L:\Audio\Pop\Ofra Haza\2000 - Greatest Hits (3 CD)\Ofra Haza - Ofra Haza - Greatest Hits Disk 3.wav

Spitzenpegel 100.0 %
Bereichsqualitдt 100.0 %
Kopie CRC 62A7C83A
Kopie OK

Keine Fehler aufgetreten


AccurateRip Ьbersicht

Track 1 akkurat gelesen (Zuversicht 2) [A8B5580E]
Track 2 akkurat gelesen (Zuversicht 2) [6099C91F]
Track 3 akkurat gelesen (Zuversicht 2) [7CC5490A]
Track 4 akkurat gelesen (Zuversicht 2) [7397B08C]
Track 5 akkurat gelesen (Zuversicht 2) [C7C5189C]
Track 6 akkurat gelesen (Zuversicht 2) [F9B6BDDC]
Track 7 akkurat gelesen (Zuversicht 2) [825BAA38]
Track 8 akkurat gelesen (Zuversicht 2) [CD426062]
Track 9 akkurat gelesen (Zuversicht 2) [BC841FA3]
Track 10 akkurat gelesen (Zuversicht 2) [C75D771C]
Track 11 akkurat gelesen (Zuversicht 2) [5B1C369E]
Track 12 akkurat gelesen (Zuversicht 2) [785AF6F7]
Track 13 akkurat gelesen (Zuversicht 2) [634E8705]
Track 14 akkurat gelesen (Zuversicht 2) [60A583B7]
Track 15 akkurat gelesen (Zuversicht 2) [EE4A4BAB]
Track 16 akkurat gelesen (Zuversicht 2) [AA1C6AB2]
Track 17 akkurat gelesen (Zuversicht 2) [641EF61F]
Track 18 akkurat gelesen (Zuversicht 2) [BBB08B18]

Alle Tracks wurden akkurat gelesen

Ende des Statusreports

foobar2000 1.2 / Dynamic Range Meter 1.1.1
log date: 2014-06-15 15:50:21

––––––––––––––––––––––––––––––––––––––––
Analyzed: Ofra Haza / Ofra Haza - Greatest Hits Disk 3
––––––––––––––––––––––––––––––––––––––––

DR Peak RMS Duration Track
––––––––––––––––––––––––––––––––––––––––
DR9 -0.51 dB -12.98 dB 4:53 01-Along the sea
DR7 -0.10 dB -11.57 dB 5:34 02-Giving
DR10 -0.10 dB -12.68 dB 5:25 03-Gentle hand
DR8 0.00 dB -10.57 dB 5:47 04-Jerusalem of gold
DR9 -0.40 dB -10.41 dB 4:13 05-Sixth Sense
DR10 -0.70 dB -12.00 dB 5:17 06-You've Got a Friend
DR10 -0.01 dB -11.02 dB 3:32 07-The rain
DR8 -0.60 dB -10.75 dB 2:58 08-Love letter
DR8 -0.90 dB -12.10 dB 2:53 09-Melody of the heart
DR9 0.00 dB -11.33 dB 3:48 10-Suburban boy
DR10 0.00 dB -10.84 dB 2:52 11-Tell me where my friends are
DR10 -0.01 dB -11.90 dB 3:42 12-Havent talked about love yet
DR8 -0.16 dB -11.52 dB 4:19 13-The golden apple
DR10 -0.52 dB -13.44 dB 5:15 14-This pain
DR9 0.00 dB -10.78 dB 4:09 15-End of summer
DR11 -0.61 dB -14.23 dB 3:39 16-Still waiting for the one
DR9 0.00 dB -12.27 dB 3:52 17-Listen to the waves
DR11 0.00 dB -13.41 dB 3:46 18-Someone always walks with me
––––––––––––––––––––––––––––––––––––––––

Number of tracks: 18
Official DR value: DR9

Samplerate: 44100 Hz
Channels: 2
Bits per sample: 16
Bitrate: 880 kbps
Codec: FLAC
================================================================================

Ofra Haza - Greatest Hits (2000) 3 CD Box Set [Re-Up]

Ofra Haza - Greatest Hits (2000) 3 CD Box Set [Re-Up]