Subcategories

Philippe Jaroussky - Passion Jaroussky [3CDs] (2019)

Posted By: ArlegZ
Philippe Jaroussky - Passion Jaroussky [3CDs] (2019)

Philippe Jaroussky - Passion Jaroussky [3CDs] (2019)
EAC | FLAC | Image (Cue & Log) ~ 0,97 Gb | Total time: 76:19+80:21+75:30 | Scans included
Classical | Label: Erato | # 9029537555 | Recorded: 2000

Passion Jaroussky marks 20 years since Philippe Jaroussky made his professional debut and commenced his rapid ascent to stardom. As the French countertenor says, “Even after all these years, my passion for music is undimmed.” Ranging musically from the 16th to the 21st century, the triple album comprises both new recordings and highlights from recent albums, and it also showcases Jaroussky’s collaborations with a host of major singers – from the worlds of both classical music and pop – instrumentalists, conductors and orchestras.

Performer:
Philippe Jaroussky, countertenor

Track List & Cast:
CD1:
Antonio Vivaldi (1678-1741)
01. Filiae maestae Jerusalem, RV 638: II. Sileant Zephyri
Francesco Cavalli (1602-1676)
02. L'Ormindo, Act 2: "Che città" (Nerillo)
Artaserse
Josef Mysliveček (1737-1781)
03. Olimpiade, Act 1: "Mentre Dormi" (Licida)
Nicola Porpora (1686-1768)
04. Arianna e Teseo: "Mira in cielo" (Alceste)
05. Semiramide riconosciuta, Act 2: "Se pietoso il tuo labbro" (Mirteo)
Venice Baroque Orchestra / Andrea Marcon
Antonio Vivaldi (1678-1741)
06. Giustino, RV 717, Act 1: "Vedrò con mio diletto" (Anastasio)
Ensemble Matheus / Jean-Christophe Spinosi
Francesco Cavalli (1602-1676)
07. Xerse, Act 1: "Ombra mai fu" (Xerse)
Artaserse
Agostino Steffani (1653-1728)
08. Niobe, regina di Tebe, Act 1: "Sfere amiche" (Anfione)
Boston Early Music Festival Orchestra / Stephen Stubbs & Paul O'Dette
Francesco Cavalli (1602-1676)
09. Gli amori d'Apollo e di Dafne, Act 3: "Misero Apollo" (Apollo)
Antonio Vivaldi (1678-1741)
10. Stabat Mater, RV621: I. "Stabat Mater dolorosa"
11. Stabat Mater, RV621: VII. "Eia Mater"
Artaserse
Giovanni Battista Pergolesi (1710-1736)
12. Confitebor tibi Domine, P. 66: V. "Sanctum et terribile nomen ejus"
I Barocchisti / Diego Fasolis
Francesco Cavalli (1602-1676)
13. Erismena, Act 2: "Uscitemi dal cor, lacrime amare" (Idraspe)
Artaserse
Giovanni Battista Pergolesi (1710-1736)
14. Pergolesi: Stabat Mater, P. 77: X. "Fac ut portem Christi mortem"
I Barocchisti / Diego Fasolis
Antonio Vivaldi (1678-1741)
15. Longe mala, umbrae, terrores, RV 629: I. "Longe mala, umbrae, terrores"
Artaserse
16. Nisi Dominus, RV 608: "Cum dederit"
Ensemble Mattheus / Jean-Christophe Spinosi
CD2:
John Dowland (1563-1626)
01. Flow my teares (Lacrimæ)
Thibaut Garcia, guitar
Henry Purcell (1659-1695)
02. Welcome to All the Pleasures, Z. 339: III. "Here the deities approve" (arr. Ch.Pluhar)
03. O solitude, my sweetest choice, Z406
L'Arpeggiata / Christina Pluhar
George Frideric Handel (1685-1759)
04. Radamisto, HWV 12, Act 3: "Qual nave smarrita" (Radamisto)
Artaserse / Philippe Jaroussky
05. Partenope, HWV 27, Act 2: "Furibondo spira il vento" (Arsace)
06. Partenope, HWV 27, Act 3: "Ch'io parta?" (Arsace)
Il Pomo d'Oro / Riccardo Minasi
07. Serse, HWV 40, Act 1: "Frondi tenere … Ombra mai fu" (Xerse)
I Barrochisti / Diego Fasolis
08. Flavio, re de' Longobardi, HWV 16, Act 2: "Rompo i lacci" (Guido)
Artaserse
Johann Sebastian Bach (1685-1750)
09. Ich habe genug, BWV 82: I. "Ich habe genug"
Freiburger Barockorchester / Petra Müllejans
10. "Komm, süsser Tod, komm, sel'ge Ruh", BWV 478
L'Arpeggiata / Christina Pluhar
Georg Philipp Telemann (1681-1767)
11. Jesus liegt in letzten Zügen, TWV 1:983: III. "Mein liebster Heiland"
Freiburger Barockorchester / Petra Müllejans
Claudio Monteverdi (1567-1643)
12. L'Orfeo, SV 318, Act 1: "Rosa del Ciel" (Euridice, Orfeo)
Emöke Baráth, soprano
I Barocchisti / Diego Fasolis
Christoph Willibald Gluck (1714-1787)
13. Orfeo ed Euridice, Wq. 30, Act 3: "Che farò senza Euridice" (Orfeo)
I Barocchisti / Diego Fasolis
Franz Schubert (1797-1828)
14. Du bist die Ruh D776
15. Ständchen 'Leise flehen meine Lieder', D957 No. 4
Jérôme Ducros, piano
Emmanuel Chabrier (1841-1894)
16. Fisch-Ton-Kan, D. 23: "Qui je suis, qui je suis" (Fisch-Ton-Kan)
Quatuor Ebène
Male Choir
Jérôme Ducros, piano
Léo Ferré (1916-1993)
17. Colloque sentimental
Quatuor Ebène
Jérôme Ducros, piano
Joseph Kosma (1905-1969) / Jacques Prévert (1900-1977)
18. Les feuilles mortes
Thibaut Garcia, guitar
CD3:
Nicola Porpora (1686-1768)
01. Polifemo, Act 2: "Placidetti zeffiretti" (Galatea, Polifemo)
Cecilia Bartoli, mezzo-soprano
Venice Baroque Orchestra / Andrea Marcon
Giovanni Battista Pergolesi (1710-1736)
02. Stabat Mater: I. Stabat Mater dolorosa
Julia Lezhneva, soprano
I Barocchisti / Diego Fasolis
Antonio Sartorio (1630-1680)
03. L'Orfeo, Act 1: "Cara e amabile catena" (Euridice, Orfeo)
Emöke Baráth, soprano
I Barocchisti / Diego Fasolis
George Frideric Handel (1685-1759)
04. Giulio Cesare in Egitto, HWV 17, Act 1: "Son nata a lagrimar" (Cornelia, Sesto)
Anne Sofie von Otter, mezzo-soprano
Le Concert d’Astrée / Emmanuelle Haïm
Alessandro Grandi (1586-1630)
05. Motetti a due, tre et quattro voci, Libro 3: No. 21, "O intemerata"
Marie-Nicole Lemieux, contralto
George Frideric Handel (1685-1759)
06. Faramondo, HWV 39, Act 3: "Caro, cara, tu m'accendi" (Clotilde, Adolfo)
Sophie Karthäuser, soprano
I Barocchisti / Diego Fasolis
Christoph Willibald Gluck (1714-1787)
07. Orfeo ed Euridice, Wq. 30, Act 3: "Vieni, appaga il tuo consorte … Grande, o Numi" (Orfeo, Euridice)
Amanda Forsythe, soprano
I Barocchisti / Diego Fasolis
Benedetto Giacomo Marcello (1686-1739)
08. Marcello, B: Tirsi e Fileno, S. 475: "Veggio Fille … Parlo a Clori" (Tirsi, Fileno)
Max Emanuel Cenčić, countertenor
Les Arts Florissants / William Christie
Agostino Steffani (1653-1728)
09. Niobe, regina di Tebe, Act 1: "Mia fiamma, mio ardore" (Anfione, Niobe)
Karina Gauvin, soprano
Boston Early Music Festival Orchestra / Stephen Stubbs & Paul O'Dette
Francesco Cavalli (1602-1676)
10. Eritrea, Act 1: "O luci belle" (Laodicea, Theramene)
Emöke Baráth, soprano
Johann Sebastian Bach (1685-1750)
11. Magnificat in D Major, BWV 243: VI. "Et misericordia"
Toby Spence, tenor
Le Concert d'Astrée / Emmanuelle Haïm
Claudio Monteverdi (1567-1643)
12. L'Incoronazione di Poppea, Act 3: Pur ti miro (Nerone, Poppea)
Nuria Rial, soprano
L'Arpeggiata / Christina Pluhar
Jules Massenet (1842-1912)
13. Rêvons c'est l'heure
Nathalie Stutzmann, contralto
Jérôme Ducros, piano
14. Elégie
Gautier Capuçon, cello
Jérôme Ducros, piano
Camille Saint-Saëns (1835-1921)
15. Violons dans le soir
Renaud Capuçon, violin
Jérôme Ducros, piano
André Caplet (1878-1925)
16. Viens, une flûte invisible soupire
Emmanuel Pahud, flute
Jérôme Ducros, piano
Charles Trenet (1913-2001)
17. Chanson d'automne
Quatuor Ebène
Jérôme Ducros, piano
- M - (b.1971)
18. Cet Air
Matthieu Chedid, voice & guitar
John Lennon (1940-1980) / Yoko Ono (b.1933)
19. Oh my love
Rosemary Sandley, voice
Dom La Nena, cello


Exact Audio Copy V1.3 from 2. September 2016

EAC extraction logfile from 22. February 2020, 10:38

Philippe Jaroussky / Passion Jaroussky CD1

Used drive : PIONEER DVD-RW DVR-218L Adapter: 1 ID: 0

Read mode : Secure
Utilize accurate stream : Yes
Defeat audio cache : Yes
Make use of C2 pointers : No

Read offset correction : 6
Overread into Lead-In and Lead-Out : No
Fill up missing offset samples with silence : Yes
Delete leading and trailing silent blocks : No
Null samples used in CRC calculations : Yes
Used interface : Native Win32 interface for Win NT & 2000

Used output format : User Defined Encoder
Selected bitrate : 128 kBit/s
Quality : High
Add ID3 tag : No
Command line compressor : C:\Program Files\Exact Audio Copy\FLAC\FLAC.EXE
Additional command line options : -V -8 -T "Date=%year%" -T "Genre=%genre%" %source%


TOC of the extracted CD

Track | Start | Length | Start sector | End sector
––––––––––––––––––––––––––––-
1 | 0:00.00 | 6:30.44 | 0 | 29293
2 | 6:30.44 | 3:22.69 | 29294 | 44512
3 | 9:53.38 | 4:10.58 | 44513 | 63320
4 | 14:04.21 | 5:48.21 | 63321 | 89441
5 | 19:52.42 | 8:00.05 | 89442 | 125446
6 | 27:52.47 | 5:12.66 | 125447 | 148912
7 | 33:05.38 | 3:23.00 | 148913 | 164137
8 | 36:28.38 | 4:54.70 | 164138 | 186257
9 | 41:23.33 | 4:24.06 | 186258 | 206063
10 | 45:47.39 | 3:07.30 | 206064 | 220118
11 | 48:54.69 | 3:32.04 | 220119 | 236022
12 | 52:26.73 | 3:58.62 | 236023 | 253934
13 | 56:25.60 | 5:49.38 | 253935 | 280147
14 | 62:15.23 | 3:44.51 | 280148 | 296998
15 | 65:59.74 | 5:08.44 | 296999 | 320142
16 | 71:08.43 | 5:09.04 | 320143 | 343321


Range status and errors

Selected range

Filename C:\ArlegZ\Passion Jaroussky CD1.wav

Peak level 95.7 %
Extraction speed 2.1 X
Range quality 99.9 %
Test CRC 68ECCDC5
Copy CRC 68ECCDC5
Copy OK

No errors occurred


AccurateRip summary

Track 1 not present in database
Track 2 not present in database
Track 3 not present in database
Track 4 not present in database
Track 5 not present in database
Track 6 not present in database
Track 7 not present in database
Track 8 not present in database
Track 9 not present in database
Track 10 not present in database
Track 11 not present in database
Track 12 not present in database
Track 13 not present in database
Track 14 not present in database
Track 15 not present in database
Track 16 not present in database

None of the tracks are present in the AccurateRip database

End of status report

==== Log checksum DBCAED10E2C80C1A516726FC050C93F71E33B3F2C345CE06CA72B03CB1A77230 ====


Exact Audio Copy V1.3 from 2. September 2016

EAC extraction logfile from 22. February 2020, 12:24

Philippe Jaroussky / Passion Jaroussky CD2

Used drive : PIONEER DVD-RW DVR-218L Adapter: 1 ID: 0

Read mode : Secure
Utilize accurate stream : Yes
Defeat audio cache : Yes
Make use of C2 pointers : No

Read offset correction : 6
Overread into Lead-In and Lead-Out : No
Fill up missing offset samples with silence : Yes
Delete leading and trailing silent blocks : No
Null samples used in CRC calculations : Yes
Used interface : Native Win32 interface for Win NT & 2000

Used output format : User Defined Encoder
Selected bitrate : 128 kBit/s
Quality : High
Add ID3 tag : No
Command line compressor : C:\Program Files\Exact Audio Copy\FLAC\FLAC.EXE
Additional command line options : -V -8 -T "Date=%year%" -T "Genre=%genre%" %source%


TOC of the extracted CD

Track | Start | Length | Start sector | End sector
––––––––––––––––––––––––––––-
1 | 0:00.00 | 4:04.69 | 0 | 18368
2 | 4:04.69 | 4:46.23 | 18369 | 39841
3 | 8:51.17 | 5:23.67 | 39842 | 64133
4 | 14:15.09 | 6:12.17 | 64134 | 92050
5 | 20:27.26 | 4:03.55 | 92051 | 110330
6 | 24:31.06 | 4:09.18 | 110331 | 129023
7 | 28:40.24 | 4:14.00 | 129024 | 148073
8 | 32:54.24 | 5:20.56 | 148074 | 172129
9 | 38:15.05 | 7:31.36 | 172130 | 205990
10 | 45:46.41 | 2:22.03 | 205991 | 216643
11 | 48:08.44 | 5:00.48 | 216644 | 239191
12 | 53:09.17 | 2:56.37 | 239192 | 252428
13 | 56:05.54 | 3:54.08 | 252429 | 269986
14 | 59:59.62 | 4:27.49 | 269987 | 290060
15 | 64:27.36 | 3:58.04 | 290061 | 307914
16 | 68:25.40 | 2:38.46 | 307915 | 319810
17 | 71:04.11 | 3:29.28 | 319811 | 335513
18 | 74:33.39 | 5:45.72 | 335514 | 361460


Range status and errors

Selected range

Filename C:\ArlegZ\Passion Jaroussky CD2.wav

Peak level 96.4 %
Extraction speed 2.2 X
Range quality 100.0 %
Test CRC A377FABA
Copy CRC A377FABA
Copy OK

No errors occurred


AccurateRip summary

Track 1 not present in database
Track 2 not present in database
Track 3 not present in database
Track 4 not present in database
Track 5 not present in database
Track 6 not present in database
Track 7 not present in database
Track 8 not present in database
Track 9 not present in database
Track 10 not present in database
Track 11 not present in database
Track 12 not present in database
Track 13 not present in database
Track 14 not present in database
Track 15 not present in database
Track 16 not present in database
Track 17 not present in database
Track 18 not present in database

None of the tracks are present in the AccurateRip database

End of status report

==== Log checksum 0AD8089AA153B5DCE1E8E5DF61622CF92171A056FBF03C01446CA0A7488B6F6E ====


Exact Audio Copy V1.3 from 2. September 2016

EAC extraction logfile from 22. February 2020, 14:09

Philippe Jaroussky / Passion Jaroussky CD3

Used drive : PIONEER DVD-RW DVR-218L Adapter: 1 ID: 0

Read mode : Secure
Utilize accurate stream : Yes
Defeat audio cache : Yes
Make use of C2 pointers : No

Read offset correction : 6
Overread into Lead-In and Lead-Out : No
Fill up missing offset samples with silence : Yes
Delete leading and trailing silent blocks : No
Null samples used in CRC calculations : Yes
Used interface : Native Win32 interface for Win NT & 2000

Used output format : User Defined Encoder
Selected bitrate : 128 kBit/s
Quality : High
Add ID3 tag : No
Command line compressor : C:\Program Files\Exact Audio Copy\FLAC\FLAC.EXE
Additional command line options : -V -8 -T "Date=%year%" -T "Genre=%genre%" %source%


TOC of the extracted CD

Track | Start | Length | Start sector | End sector
––––––––––––––––––––––––––––-
1 | 0:00.00 | 2:55.43 | 0 | 13167
2 | 2:55.43 | 4:31.33 | 13168 | 33525
3 | 7:27.01 | 2:21.29 | 33526 | 44129
4 | 9:48.30 | 8:06.54 | 44130 | 80633
5 | 17:55.09 | 3:10.56 | 80634 | 94939
6 | 21:05.65 | 5:55.51 | 94940 | 121615
7 | 27:01.41 | 5:04.59 | 121616 | 144474
8 | 32:06.25 | 7:01.15 | 144475 | 176064
9 | 39:07.40 | 2:16.45 | 176065 | 186309
10 | 41:24.10 | 2:33.14 | 186310 | 197798
11 | 43:57.24 | 3:26.30 | 197799 | 213278
12 | 47:23.54 | 4:13.26 | 213279 | 232279
13 | 51:37.05 | 3:46.32 | 232280 | 249261
14 | 55:23.37 | 3:14.00 | 249262 | 263811
15 | 58:37.37 | 5:16.57 | 263812 | 287568
16 | 63:54.19 | 2:49.47 | 287569 | 300290
17 | 66:43.66 | 2:54.24 | 300291 | 313364
18 | 69:38.15 | 3:15.71 | 313365 | 328060
19 | 72:54.11 | 2:34.36 | 328061 | 339646


Range status and errors

Selected range

Filename C:\ArlegZ\Passion Jaroussky CD3.wav

Peak level 85.4 %
Extraction speed 2.1 X
Range quality 100.0 %
Test CRC 8AEE0612
Copy CRC 8AEE0612
Copy OK

No errors occurred


AccurateRip summary

Track 1 not present in database
Track 2 not present in database
Track 3 not present in database
Track 4 not present in database
Track 5 not present in database
Track 6 not present in database
Track 7 not present in database
Track 8 not present in database
Track 9 not present in database
Track 10 not present in database
Track 11 not present in database
Track 12 not present in database
Track 13 not present in database
Track 14 not present in database
Track 15 not present in database
Track 16 not present in database
Track 17 not present in database
Track 18 not present in database
Track 19 not present in database

None of the tracks are present in the AccurateRip database

End of status report

==== Log checksum B33A4AC0D98757E7E9764DF7DF25341AD44208041379EA4D78A13AED92BAAE2C ====

Philippe Jaroussky - Passion Jaroussky [3CDs] (2019)

Thanks to the original releaser