Subcategories

Pierre-Laurent Aimard: The Warner Recordings (2012) 6 CD Box Set [Repost]

Posted By: Designol
Pierre-Laurent Aimard: The Warner Recordings (2012) 6 CD Box Set [Repost]

Pierre-Laurent Aimard: The Warner Recordings (2012) 6 CD Box Set
Debussy, Ravel, Boulez, Berg, Ives, Messiaen, Ligeti, Carter, Beethoven, Liszt

EAC | FLAC | Image (Cue&Log) ~ 1.2 Gb | Mp3 (CBR320) ~ 978 Mb | Scans included
Genre: Classical | Label: Warner Classics | # 2564 66044-8 | Time: 07:03:59

Released between 1991 and 2005, the selections in The Warner Recordings encapsulate the period when Pierre-Laurent Aimard was signed to Erato and Teldec, performing mostly 20th-century fare and some music from the 19th century. Aimard is famous for his contributions to the modernist catalog, and his performances of works by Pierre Boulez, Elliott Carter, György Ligeti, and Olivier Messiaen are regarded as scrupulously executed and authoritatively interpreted. Aimard also recorded early 20th century pieces by Charles Ives, Alban Berg, Maurice Ravel, and Claude Debussy, as well as Romantic masterpieces of Beethoven and Liszt. A pianist's pianist, Aimard is well-rounded in his repertoire and a true master of keyboard technique, yet he has received considerably less fanfare than many of his flashier colleagues. Yet connoisseurs of piano recordings know that Aimard is indispensible, especially for his special feeling for French music, and his recordings are important documents that serious students and newcomers should appreciate. This trimline box set consists of six CDs, four of which were issued as albums separately, with the exception of the second and fifth discs, which have been compiled from different releases.

Review by Blair Sanderson, Allmusic.com

Pierre-Laurent Aimard: The Warner Recordings (2012) 6 CD Box Set [Repost]

Pierre-Laurent Aimard: The Warner Recordings (2012) 6 CD Box Set [Repost]



Tracklist:

CD1 (1:15:02)

Claude Debussy (1862-1918)

Images 1re série
01. I. Reflets dans l'eau (4:49)
02. II. Hommage a Rameau (6:14)
03. III. Mouvement (3:23)

Images 2e série
04. I. Cloches a travers les feuilles (4:26)
05. II. Et la lune descend sur le temple qui fut (5:04)
06. III. Poissons d'or (4:12)

Études
Livre I
07. I. Pour les cinq droits, d'apres Czerny (3:11)
08. II. Pour les Tierces (4:32)
09. III. Pour les Quartes (5:13)
10. IV. Pour les Sixtes (4:38)
11. V. Pour les Octaves (2:25)
12. VI. Pour les huit doigts (1:33)
Livre II
13. VII. Pour les degres chromatiques (2:12)
14. VIII. Pour les agrements (4:43)
15. IX. Pour les notes repetees (3:17)
16. X. Pour les Sonorites opposees (5:37)
17. XI. Pour les Arpeges composes (4:43)
18. XII. Pour les accords (4:51)


CD2 (1:17:47)

Charles Ives (1874-1954)

Piano Sonata No.2, "Concord, Mass., 1840-60"
01. I. 'Emerson' (17:09)
02. II. 'Hawthorne' (12:29)
03. III. 'The Alcotts' (6:22)
04. IV. 'Thoreau' (12:05)
with
Tabea Zimmermann, viola
Emmanuel Pahud, flute

Three Quarter-tone Pieces for two pianos
05. I. Largo (3:54)
06. II. Allegro (3:28)
07. III. Choral (4:34)
with
Alexei Lubimov, piano 2

György Ligeti (1923-2006)

Études pour piano
08. IV. Fanfares (3:31)
09. VIII. Fem (3:07)
10. XII. Entrelacs (3:05)
11. XVI. Pour Irina (4:04)
12. XVII. A bout de souffle (2:25)
13. XVIII. Canon (1:32)


CD3 (51:14)

Olivier Messiaen (1908-1992)

Vingt Regards sur l'Enfant-Jésus
01. I. Regard du Pere - Extremement lent. Mysterieux, avec amour (6:10)
02. II. Regard de l'Etoile - Modere (3:15)
03. III. L'exchange - Bien modere (2:58)
04. IV. Regard de la Vierge - Bien modere (5:16)
05. V. Regard du Fil sur le Fils - Tres lent (5:24)
06. VI. Par Lui tout a ete fait - Modere, presque vif (10:57)
07. VII. Regard de la Croix - Bien modere (3:34)
08. VIII. Regard des Hauteurs - Vif (2:17)
09. IX. Regard du Temps - Modere (3:12)
10. X. Regard de l'Esprit de joie: Presque vif (8:11)


CD4 (1:04:41)

Olivier Messiaen
Vingt Regards sur l'Enfant-Jésus
01. XI. Premiere communion de la Vierge - Tres lent (6:23)
02. XII. La Parole toute-puissante - Un peu vif (2:23)
03. XIII. Noel - Tres vif, joyeux (4:01)
04. XIV. Regard des Anges - Tres vif (4:55)
05. XV. La Baiser de l'enfant Jesus - Tres lent, calme (10:04)
06. XVI. Regard des prophetes, des bergers et des Mages - Modere (3:10)
07. XVII. Regard du silence - Tres modere (5:12)
08. XVIII. Regard de l'Onction terrible - Modere (6:26)
09. XIX.. Je dors, mais mon coeur veille - Lent (10:08)
10. XX. Regard de l'Eglise d'amour - Presque vif (11:59)


CD5 (1:19:31)

Maurice Ravel (1875-1937)
Gaspard de la nuit
01. I. Ondine (6:48)
02. II. Le Gibet (7:10)
03. III. Scarbo (9:22)

Elliott Carter (1908-2012)
04. Night Fantasies (22:23)
05. Two Diversions - I (4:19)
06. Two Diversions - II (3:26)
07. 90+ (5:33)

Pierre Boulez (1925-2016)
08. Sonatine for flute and piano (11:37)
Piano Sonata No.1
09. I. Lent (4:15)
10. II. Assez large - Rapide (4:37)


CD6 (1:15:45) - Aimard at Carnegie Hall

Alban Berg (1885-1935)
01. Klaviersonate, Op.1 (11:36)

Ludwig van Beethoven (1770-1827)
Sonata No.23 in F minor, Op.57 'Appassionata'
02. I. Allegro assai (10:24)
03. II. Andante con moto (6:20)
04. III. Allegro ma non troppo (8:35)

Franz Liszt (1811-1886)
05. Legendes, No.2 - St.Francois de Paule marchant sur les flots (9:43)

Claude Debussy
06. Images - 1re serie - I. Reflets dans l'eau (5:05)
07. Images - 2e serie - III. Poissons d'or (4:25)

György Ligeti
Études pour piano
08. II. Cordes a vide (3:00)
09. VI. Automne a Varsovie (4:44)
10. X. Der Zauberlehrling (2:27)

Olivier Messiaen
Vingt Regards sur l'Enfant Jesus
11. XI. Premiere communion de la Vierge (7:15)

Claude Debussy
12. Etudes - Livre I - VI. Pour les huit doigts (2:12)


Exact Audio Copy V1.0 beta 3 from 29. August 2011

EAC extraction logfile from 17. August 2012, 2:39

Pierre-Laurent Aimard / Aimard - The Warner Recordings - CD1 - Debussy

Used drive : HL-DT-STDVDRAM GSA-4083N Adapter: 1 ID: 0

Read mode : Secure
Utilize accurate stream : Yes
Defeat audio cache : Yes
Make use of C2 pointers : No

Read offset correction : 667
Overread into Lead-In and Lead-Out : No
Fill up missing offset samples with silence : Yes
Delete leading and trailing silent blocks : No
Null samples used in CRC calculations : Yes
Used interface : Native Win32 interface for Win NT & 2000

Used output format : User Defined Encoder
Selected bitrate : 896 kBit/s
Quality : High
Add ID3 tag : No
Command line compressor : C:\Program Files\Exact Audio Copy\Flac\flac.exe
Additional command line options : -V -8 %source%


TOC of the extracted CD

Track | Start | Length | Start sector | End sector
––––––––––––––––––––––––––––-
1 | 0:00.00 | 4:48.66 | 0 | 21665
2 | 4:48.66 | 6:14.01 | 21666 | 49716
3 | 11:02.67 | 3:22.57 | 49717 | 64923
4 | 14:25.49 | 4:25.40 | 64924 | 84838
5 | 18:51.14 | 5:03.64 | 84839 | 107627
6 | 23:55.03 | 4:11.38 | 107628 | 126490
7 | 28:06.41 | 3:11.31 | 126491 | 140846
8 | 31:17.72 | 4:32.23 | 140847 | 161269
9 | 35:50.20 | 5:12.70 | 161270 | 184739
10 | 41:03.15 | 4:37.63 | 184740 | 205577
11 | 45:41.03 | 2:24.64 | 205578 | 216441
12 | 48:05.67 | 1:33.10 | 216442 | 223426
13 | 49:39.02 | 2:11.54 | 223427 | 233305
14 | 51:50.56 | 4:43.20 | 233306 | 254550
15 | 56:34.01 | 3:17.04 | 254551 | 269329
16 | 59:51.05 | 5:36.49 | 269330 | 294578
17 | 65:27.54 | 4:43.20 | 294579 | 315823
18 | 70:10.74 | 4:50.51 | 315824 | 337624


Range status and errors

Selected range

Filename J:\Music\Aimard - The Warner Recordings\Aimard - The Warner Recordings - CD1.wav

Peak level 99.8 %
Extraction speed 2.2 X
Range quality 100.0 %
Test CRC 15C7794A
Copy CRC 15C7794A
Copy OK

No errors occurred

End of status report

==== Log checksum CBA259C53AF80A5870BC28AF94617A05E5D64A1EECCFBDFA88ADE63D6AFFA4CA ====

[CUETools log; Date: 25.01.2018 17:54:11; Version: 2.1.4]
[CTDB TOCID: ss6c5Es6G6Ja84PEtCVJBkseYY8-] found.
Track | CTDB Status
1 | (56/57) Accurately ripped
2 | (57/57) Accurately ripped
3 | (57/57) Accurately ripped
4 | (57/57) Accurately ripped
5 | (57/57) Accurately ripped
6 | (57/57) Accurately ripped
7 | (57/57) Accurately ripped
8 | (56/57) Accurately ripped
9 | (56/57) Accurately ripped
10 | (56/57) Accurately ripped
11 | (56/57) Accurately ripped
12 | (56/57) Accurately ripped
13 | (56/57) Accurately ripped
14 | (57/57) Accurately ripped
15 | (55/57) Accurately ripped
16 | (57/57) Accurately ripped
17 | (57/57) Accurately ripped
18 | (56/57) Accurately ripped
[AccurateRip ID: 00323e70-02919eb2-22119512] found.
Track [ CRC | V2 ] Status
01 [24160436|d7145414] (00+03/81) Accurately ripped
02 [a384cec3|df8a198c] (00+03/81) Accurately ripped
03 [7a80058b|9332034f] (00+03/80) Accurately ripped
04 [f68adbc2|66f4af53] (00+03/81) Accurately ripped
05 [97e00c35|b6ff75e2] (00+03/80) Accurately ripped
06 [a23c4f9f|be7f78e8] (00+03/81) Accurately ripped
07 [9d96ef20|3955f702] (00+03/81) Accurately ripped
08 [b98210d0|b763ffcd] (00+02/78) Accurately ripped
09 [feb022ce|3198a760] (00+02/78) Accurately ripped
10 [9af6a2af|5546ca7c] (00+03/78) Accurately ripped
11 [0f37944c|6c8350cd] (00+03/78) Accurately ripped
12 [9d37518b|c6e04a73] (00+03/78) Accurately ripped
13 [4e51674b|8b9e690b] (00+02/78) Accurately ripped
14 [5dd89f91|cda8c0bf] (00+03/79) Accurately ripped
15 [01e28ff6|ac434102] (00+02/77) Accurately ripped
16 [28c20822|5efea87c] (00+03/78) Accurately ripped
17 [edb82b86|bdd78e5b] (00+03/78) Accurately ripped
18 [61cf6b9d|1db4238e] (00+02/74) Accurately ripped
Offsetted by -676:
01 [e2b67fb7] (05/81) Accurately ripped
02 [26456bff] (05/81) Accurately ripped
03 [8e5bf194] (05/80) Accurately ripped
04 [b61418f3] (05/81) Accurately ripped
05 [132ab159] (05/80) Accurately ripped
06 [58f2cbd4] (05/81) Accurately ripped
07 [cb7f42d3] (05/81) Accurately ripped
08 [0c52b4b1] (05/78) Accurately ripped
09 [73a41f11] (05/78) Accurately ripped
10 [5d60a042] (05/78) Accurately ripped
11 [001efac1] (05/78) Accurately ripped
12 [2ba641c0] (05/78) Accurately ripped
13 [54bba3f7] (05/78) Accurately ripped
14 [c9fcf4cf] (05/79) Accurately ripped
15 [53add4a0] (05/77) Accurately ripped
16 [1488b484] (05/78) Accurately ripped
17 [89073379] (05/78) Accurately ripped
18 [beaba680] (05/74) Accurately ripped
Offsetted by -6:
01 [f0333a9c] (23/81) Accurately ripped
02 [170b75b9] (23/81) Accurately ripped
03 [d2488df9] (23/80) Accurately ripped
04 [aa613dca] (23/81) Accurately ripped
05 [0730fd04] (23/80) Accurately ripped
06 [6a94e2f7] (23/81) Accurately ripped
07 [3e202478] (23/81) Accurately ripped
08 [c6afbaac] (22/78) Accurately ripped
09 [c0753b26] (22/78) Accurately ripped
10 [77fc71b3] (22/78) Accurately ripped
11 [7e343ae4] (22/78) Accurately ripped
12 [3ac73ce3] (22/78) Accurately ripped
13 [a806d790] (22/78) Accurately ripped
14 [3067ea9e] (22/79) Accurately ripped
15 [49b83baa] (22/77) Accurately ripped
16 [5b57d3e0] (21/78) Accurately ripped
17 [8448a21e] (21/78) Accurately ripped
18 [83d5accb] (20/74) Accurately ripped
Offsetted by -652:
01 [c4c372dc] (00/81) No match (V2 was not tested)
02 [3fc9a67e] (00/81) No match (V2 was not tested)
03 [fcf0e537] (00/80) No match (V2 was not tested)
04 [3ef854ff] (00/81) No match (V2 was not tested)
05 [972e07f2] (00/80) No match (V2 was not tested)
06 [d43c2bf4] (00/81) No match (V2 was not tested)
07 [0bf5808e] (00/81) No match (V2 was not tested)
08 [dd5c7ba6] (00/78) No match (V2 was not tested)
09 [3d1e0416] (00/78) No match (V2 was not tested)
10 [28e3d477] (00/78) No match (V2 was not tested)
11 [a1d875e9] (00/78) No match (V2 was not tested)
12 [c0c9c94a] (00/78) No match (V2 was not tested)
13 [b8748eae] (00/78) No match (V2 was not tested)
14 [5d9764b4] (00/79) No match (V2 was not tested)
15 [20007976] (00/77) No match (V2 was not tested)
16 [977bdf46] (00/78) No match (V2 was not tested)
17 [3f67ca26] (00/78) No match (V2 was not tested)
18 [eb720457] (00/74) No match (V2 was not tested)

Track Peak [ CRC32 ] [W/O NULL] [ LOG ]
– 99,8 [15C7794A] [4E602E3D] CRC32
01 58,7 [B06919D1] [E78D0874]
02 71,7 [1DC41452] [A5927292]
03 72,5 [D7CC3053] [C2C2AF24]
04 38,8 [1C410761] [9FA96346]
05 18,9 [E0D8CDF2] [992A9B1A]
06 63,6 [25E5B39D] [FF3818C2]
07 72,2 [C4D7A604] [548E190C]
08 88,0 [7CEDF1DF] [6FED3D17]
09 67,5 [7C7F4C8F] [706E3D50]
10 43,4 [26913263] [545BFA1C]
11 99,8 [96F5BA21] [B1D192D1]
12 51,4 [ACA13872] [31075F1A]
13 52,7 [BF6D66BF] [64CB1026]
14 56,7 [CB9697B2] [A464BC0E]
15 69,8 [149F2D70] [E1781694]
16 47,4 [EAEEB6B8] [9844B16C]
17 55,7 [9052A992] [19A521AE]
18 95,0 [E7BC76D6] [797CA627]

foobar2000 1.2 / Dynamic Range Meter 1.1.1
log date: 2018-01-25 17:56:13

––––––––––––––––––––––––––––––––––––––––
Analyzed: Pierre-Laurent Aimard / Aimard - The Warner Recordings - CD1 - Debussy
––––––––––––––––––––––––––––––––––––––––

DR Peak RMS Duration Track
––––––––––––––––––––––––––––––––––––––––
DR15 -4.63 dB -27.29 dB 4:49 01-Images - 1re serie - I. Reflets dans l'eau
DR16 -2.89 dB -26.28 dB 6:14 02-Images - 1re serie - II. Hommage a Rameau
DR13 -2.79 dB -21.96 dB 3:23 03-Images - 1re serie - III. Mouvement
DR15 -8.22 dB -30.24 dB 4:26 04-Images - 2e serie - I. Cloches a travers les feuilles
DR14 -14.44 dB -34.48 dB 5:04 05-Images - 2e serie - II. Et la lune descend sur le temple qui fut
DR13 -3.93 dB -24.25 dB 4:12 06-Images - 2e serie - III. Poissons d'or
DR14 -2.83 dB -22.74 dB 3:11 07-Etudes - Livre I - 1. Pour les cinq droits, d'apres Czerny
DR14 -1.10 dB -23.01 dB 4:32 08-Etudes - Livre I - II. Pour les Tierces
DR15 -3.41 dB -25.48 dB 5:13 09-Etudes - Livre I - III. Pour les Quartes
DR14 -7.23 dB -28.02 dB 4:38 10-Etudes - Livre I - IV. Pour les Sixtes
DR13 -0.01 dB -18.53 dB 2:25 11-Etudes - Livre I - V. Pour les Octaves
DR12 -5.76 dB -24.64 dB 1:33 12-Etudes - Livre I - VI. Pour les huit doigts
DR13 -5.55 dB -24.64 dB 2:12 13-Etudes - Livre II - VII. Pour les degres chromatiques
DR15 -4.92 dB -25.89 dB 4:43 14-Etudes - Livre II - VIII. Pour les agrements
DR17 -3.12 dB -26.00 dB 3:17 15-Etudes - Livre II - IX. Pour les notes repetees
DR17 -6.47 dB -30.86 dB 5:37 16-Etudes - Livre II - X. Pour les Sonorites opposees
DR14 -5.07 dB -26.55 dB 4:43 17-Etudes - Livre II - XI. Pour les Arpeges composes
DR16 -0.44 dB -22.83 dB 4:51 18-Etudes - Livre II - XII. Pour les accords
––––––––––––––––––––––––––––––––––––––––

Number of tracks: 18
Official DR value: DR15

Samplerate: 44100 Hz
Channels: 2
Bits per sample: 16
Bitrate: 317 kbps
Codec: FLAC
================================================================================


Exact Audio Copy V1.0 beta 3 from 29. August 2011

EAC extraction logfile from 17. August 2012, 3:28

Pierre-Laurent Aimard / Aimard - The Warner Recordings - CD2 - Ives, Ligeti

Used drive : HL-DT-STDVDRAM GSA-4083N Adapter: 1 ID: 0

Read mode : Secure
Utilize accurate stream : Yes
Defeat audio cache : Yes
Make use of C2 pointers : No

Read offset correction : 667
Overread into Lead-In and Lead-Out : No
Fill up missing offset samples with silence : Yes
Delete leading and trailing silent blocks : No
Null samples used in CRC calculations : Yes
Used interface : Native Win32 interface for Win NT & 2000

Used output format : User Defined Encoder
Selected bitrate : 896 kBit/s
Quality : High
Add ID3 tag : No
Command line compressor : C:\Program Files\Exact Audio Copy\Flac\flac.exe
Additional command line options : -V -8 %source%


TOC of the extracted CD

Track | Start | Length | Start sector | End sector
––––––––––––––––––––––––––––-
1 | 0:00.00 | 17:09.31 | 0 | 77205
2 | 17:09.31 | 12:29.32 | 77206 | 133412
3 | 29:38.63 | 6:21.42 | 133413 | 162029
4 | 36:00.30 | 12:05.35 | 162030 | 216439
5 | 48:05.65 | 3:54.29 | 216440 | 234018
6 | 52:00.19 | 3:28.09 | 234019 | 249627
7 | 55:28.28 | 4:33.42 | 249628 | 270144
8 | 60:01.70 | 3:31.32 | 270145 | 286001
9 | 63:33.27 | 3:07.23 | 286002 | 300049
10 | 66:40.50 | 3:05.14 | 300050 | 313938
11 | 69:45.64 | 4:03.65 | 313939 | 332228
12 | 73:49.54 | 2:25.32 | 332229 | 343135
13 | 76:15.11 | 1:32.03 | 343136 | 350038


Range status and errors

Selected range

Filename J:\Music\Aimard - The Warner Recordings\Aimard - The Warner Recordings - CD2.wav

Peak level 99.7 %
Extraction speed 4.4 X
Range quality 100.0 %
Test CRC 7B6B3B6E
Copy CRC 7B6B3B6E
Copy OK

No errors occurred

End of status report

==== Log checksum 41291FD0D2E996258A703D2DC75F8962918B8D9DE04027E2C83241A3B26DB717 ====

Exact Audio Copy V1.0 beta 3 from 29. August 2011

EAC extraction logfile from 17. August 2012, 3:28

Pierre-Laurent Aimard / Aimard - The Warner Recordings - CD2 - Ives, Ligeti

Used drive : HL-DT-STDVDRAM GSA-4083N Adapter: 1 ID: 0

Read mode : Secure
Utilize accurate stream : Yes
Defeat audio cache : Yes
Make use of C2 pointers : No

Read offset correction : 667
Overread into Lead-In and Lead-Out : No
Fill up missing offset samples with silence : Yes
Delete leading and trailing silent blocks : No
Null samples used in CRC calculations : Yes
Used interface : Native Win32 interface for Win NT & 2000

Used output format : User Defined Encoder
Selected bitrate : 896 kBit/s
Quality : High
Add ID3 tag : No
Command line compressor : C:\Program Files\Exact Audio Copy\Flac\flac.exe
Additional command line options : -V -8 %source%


TOC of the extracted CD

Track | Start | Length | Start sector | End sector
––––––––––––––––––––––––––––-
1 | 0:00.00 | 17:09.31 | 0 | 77205
2 | 17:09.31 | 12:29.32 | 77206 | 133412
3 | 29:38.63 | 6:21.42 | 133413 | 162029
4 | 36:00.30 | 12:05.35 | 162030 | 216439
5 | 48:05.65 | 3:54.29 | 216440 | 234018
6 | 52:00.19 | 3:28.09 | 234019 | 249627
7 | 55:28.28 | 4:33.42 | 249628 | 270144
8 | 60:01.70 | 3:31.32 | 270145 | 286001
9 | 63:33.27 | 3:07.23 | 286002 | 300049
10 | 66:40.50 | 3:05.14 | 300050 | 313938
11 | 69:45.64 | 4:03.65 | 313939 | 332228
12 | 73:49.54 | 2:25.32 | 332229 | 343135
13 | 76:15.11 | 1:32.03 | 343136 | 350038


Range status and errors

Selected range

Filename J:\Music\Aimard - The Warner Recordings\Aimard - The Warner Recordings - CD2.wav

Peak level 99.7 %
Extraction speed 4.4 X
Range quality 100.0 %
Test CRC 7B6B3B6E
Copy CRC 7B6B3B6E
Copy OK

No errors occurred

End of status report

==== Log checksum 41291FD0D2E996258A703D2DC75F8962918B8D9DE04027E2C83241A3B26DB717 ====

foobar2000 1.2 / Dynamic Range Meter 1.1.1
log date: 2018-01-25 17:56:16

––––––––––––––––––––––––––––––––––––––––
Analyzed: Pierre-Laurent Aimard, Alexei Lubimov / Aimard - The Warner Recordings - CD2 - Ives, Ligeti
––––––––––––––––––––––––––––––––––––––––

DR Peak RMS Duration Track
––––––––––––––––––––––––––––––––––––––––
DR16 -4.56 dB -30.29 dB 3:54 05-Ives: Three Quarter-tone Pieces for two pianos - I. Largo
DR14 -0.10 dB -22.64 dB 3:28 06-Ives: Three Quarter-tone Pieces for two pianos - II. Allegro
DR16 -3.17 dB -25.73 dB 4:34 07-Ives: Three Quarter-tone Pieces for two pianos - III. Choral
––––––––––––––––––––––––––––––––––––––––

Number of tracks: 3
Official DR value: DR15

Samplerate: 44100 Hz
Channels: 2
Bits per sample: 16
Bitrate: 360 kbps
Codec: FLAC
================================================================================

––––––––––––––––––––––––––––––––––––––––
Statistics for: 04-Ives: Piano Sonata No.2 - IV. 'Thoreau'
Number of samples: 31993080
Duration: 12:05
––––––––––––––––––––––––––––––––––––––––

Left Right

Peak Value: -2.93 dB –- -3.16 dB
Avg RMS: -28.30 dB –- -27.69 dB
DR channel: 17.19 dB –- 17.38 dB
––––––––––––––––––––––––––––––––––––––––

Official DR Value: DR17

Samplerate: 44100 Hz
Channels: 2
Bits per sample: 16
Bitrate: 360 kbps
Codec: FLAC
================================================================================
––––––––––––––––––––––––––––––––––––––––
Analyzed: Pierre-Laurent Aimard, Tabea Zimmermann / Aimard - The Warner Recordings - CD2 - Ives, Ligeti (1)
Pierre-Laurent Aimard / Aimard - The Warner Recordings - CD2 - Ives, Ligeti (2-9)
––––––––––––––––––––––––––––––––––––––––

DR Peak RMS Duration Track
––––––––––––––––––––––––––––––––––––––––
DR16 -0.10 dB -22.51 dB 17:09 01-Ives: Piano Sonata No.2 - I. 'Emerson'
DR16 -0.02 dB -21.03 dB 12:29 02-Ives: Piano Sonata No.2 - II. 'Hawthorne'
DR16 -2.60 dB -25.37 dB 6:22 03-Ives: Piano Sonata No.2 - III. 'The Alcotts'
DR13 -2.68 dB -20.07 dB 3:31 08-Ligeti: Etudes pour piano - IV. Fanfares
DR14 -2.68 dB -21.06 dB 3:07 09-Ligeti: Etudes pour piano - VIII. Fem
DR13 -2.68 dB -20.59 dB 3:05 10-Ligeti: Etudes pour piano - XII. Entrelacs
DR15 -3.07 dB -24.63 dB 4:04 11-Ligeti: Etudes pour piano - XVI. Pour Irina
DR13 -2.68 dB -19.31 dB 2:25 12-Ligeti: Etudes pour piano - XVII. A bout de souffle
DR12 -4.76 dB -23.24 dB 1:32 13-Ligeti: Etudes pour piano - XVIII. Canon
––––––––––––––––––––––––––––––––––––––––

Number of tracks: 9
Official DR value: DR14

Samplerate: 44100 Hz
Channels: 2
Bits per sample: 16
Bitrate: 360 kbps
Codec: FLAC
================================================================================


Exact Audio Copy V1.0 beta 3 from 29. August 2011

EAC extraction logfile from 17. August 2012, 19:46

Pierre-Laurent Aimard / Aimard - The Warner Recordings - CD3 - Messiaen: Vingt Regards sur l'Enfant-Jésus (beginning)

Used drive : HL-DT-STDVDRAM GSA-4083N Adapter: 1 ID: 0

Read mode : Secure
Utilize accurate stream : Yes
Defeat audio cache : Yes
Make use of C2 pointers : No

Read offset correction : 667
Overread into Lead-In and Lead-Out : No
Fill up missing offset samples with silence : Yes
Delete leading and trailing silent blocks : No
Null samples used in CRC calculations : Yes
Used interface : Native Win32 interface for Win NT & 2000

Used output format : User Defined Encoder
Selected bitrate : 896 kBit/s
Quality : High
Add ID3 tag : No
Command line compressor : C:\Program Files\Exact Audio Copy\Flac\flac.exe
Additional command line options : -V -8 %source%


TOC of the extracted CD

Track | Start | Length | Start sector | End sector
––––––––––––––––––––––––––––-
1 | 0:00.00 | 6:10.07 | 0 | 27756
2 | 6:10.07 | 3:14.43 | 27757 | 42349
3 | 9:24.50 | 2:58.32 | 42350 | 55731
4 | 12:23.07 | 5:15.58 | 55732 | 79414
5 | 17:38.65 | 5:23.40 | 79415 | 103679
6 | 23:02.30 | 10:56.45 | 103680 | 152924
7 | 33:59.00 | 3:33.57 | 152925 | 168956
8 | 37:32.57 | 2:17.35 | 168957 | 179266
9 | 39:50.17 | 3:12.08 | 179267 | 193674
10 | 43:02.25 | 8:11.15 | 193675 | 230514


Range status and errors

Selected range

Filename J:\Music\Aimard - The Warner Recordings\Aimard - The Warner Recordings - CD3.wav

Peak level 97.1 %
Extraction speed 4.1 X
Range quality 100.0 %
Test CRC AB148F9D
Copy CRC AB148F9D
Copy OK

No errors occurred

End of status report

==== Log checksum 72BEC04A30F36D9F52CFC3944D56E4DA157CF90AD6072E1B803BA4A7EEC0B600 ====

[CUETools log; Date: 25.01.2018 17:54:46; Version: 2.1.4]
[CTDB TOCID: Th295LfNp7Ba6KqUVPSAUpIuJlU-] found.
Track | CTDB Status
1 | (49/50) Accurately ripped
2 | (49/50) Accurately ripped
3 | (49/50) Accurately ripped
4 | (49/50) Accurately ripped
5 | (48/50) Accurately ripped
6 | (49/50) Accurately ripped
7 | (49/50) Accurately ripped
8 | (49/50) Accurately ripped
9 | (49/50) Accurately ripped
10 | (47/50) Accurately ripped
[AccurateRip ID: 0012d561-00978f35-7d0c010a] found.
Track [ CRC | V2 ] Status
01 [2de13ffc|0e72e56e] (00+03/44) Accurately ripped
02 [90ee9f0e|fab3c259] (00+03/46) Accurately ripped
03 [ca109017|06a85ce7] (00+03/45) Accurately ripped
04 [b1ec97a5|3cd08d79] (00+03/46) Accurately ripped
05 [1ddeba8b|bb235c8e] (00+03/45) Accurately ripped
06 [83ed357c|ed0a9ac3] (00+03/46) Accurately ripped
07 [b9af8fe3|29900c75] (00+03/46) Accurately ripped
08 [ef54a929|6041c119] (00+03/46) Accurately ripped
09 [dabe39ca|f5b5b94b] (00+03/46) Accurately ripped
10 [50b6ba7d|f0268965] (00+02/45) Accurately ripped
Offsetted by 36:
01 [b5e426f3] (15/44) Accurately ripped
02 [372e4f28] (16/46) Accurately ripped
03 [a2830e7b] (16/45) Accurately ripped
04 [45874171] (16/46) Accurately ripped
05 [f0e8941c] (16/45) Accurately ripped
06 [b62ade27] (16/46) Accurately ripped
07 [97c91e22] (16/46) Accurately ripped
08 [79d308a8] (16/46) Accurately ripped
09 [ad3900c4] (16/46) Accurately ripped
10 [9a833228] (16/45) Accurately ripped

Track Peak [ CRC32 ] [W/O NULL] [ LOG ]
– 97,1 [AB148F9D] [3990D3D8] CRC32
01 29,3 [104A9A0B] [A529C99D]
02 43,9 [400EAF9A] [F1EE9D66]
03 71,8 [2C3A41FD] [51AFD9E1]
04 83,1 [5A7BA68A] [A803A890]
05 53,5 [AAE1EED5] [8B493382]
06 96,5 [81F2BEC6] [1B052787]
07 65,5 [2517CE0B] [24BC46B4]
08 35,2 [9E3BD593] [C8AFF0EF]
09 24,0 [EB53D12B] [8CCD2F3D]
10 97,1 [24FC2BA4] [6BFA3B04]

foobar2000 1.2 / Dynamic Range Meter 1.1.1
log date: 2018-01-25 17:56:58

––––––––––––––––––––––––––––––––––––––––
Analyzed: Pierre-Laurent Aimard / Aimard - The Warner Recordings - CD3 - Messiaen: Vingt Regards sur l'Enfant-Jesus (beginning)
––––––––––––––––––––––––––––––––––––––––

DR Peak RMS Duration Track
––––––––––––––––––––––––––––––––––––––––
DR17 -10.66 dB -35.01 dB 6:10 01-I. Regard du Pere - Extremement lent. Mysterieux, avec amour
DR16 -7.14 dB -29.62 dB 3:15 02-II. Regard de l'Etoile - Modere
DR15 -2.87 dB -22.70 dB 2:58 03-III. L'exchange - Bien modere
DR16 -1.60 dB -26.87 dB 5:16 04-IV. Regard de la Vierge - Bien modere
DR18 -5.43 dB -31.16 dB 5:24 05-V. Regard du Fil sur le Fils - Tres lent
DR15 -0.31 dB -18.43 dB 10:57 06-VI. Par Lui tout a ete fait - Modere, presque vif
DR16 -3.67 dB -24.75 dB 3:34 07-VII. Regard de la Croix - Bien modere
DR14 -9.05 dB -27.64 dB 2:17 08-VIII. Regard des Hauteurs - Vif
DR16 -12.39 dB -34.89 dB 3:12 09-IX. Regard du Temps - Modere
DR15 -0.26 dB -18.92 dB 8:11 10-X. Regard de l'Esprit de joie: Presque vif
––––––––––––––––––––––––––––––––––––––––

Number of tracks: 10
Official DR value: DR16

Samplerate: 44100 Hz
Channels: 2
Bits per sample: 16
Bitrate: 446 kbps
Codec: FLAC
================================================================================


Exact Audio Copy V1.0 beta 3 from 29. August 2011

EAC extraction logfile from 17. August 2012, 20:24

Pierre-Laurent Aimard / Aimard - The Warner Recordings - CD4 - Messiaen: Vingt Regards sur l'Enfant-Jésus (conclusion)

Used drive : HL-DT-STDVDRAM GSA-4083N Adapter: 1 ID: 0

Read mode : Secure
Utilize accurate stream : Yes
Defeat audio cache : Yes
Make use of C2 pointers : No

Read offset correction : 667
Overread into Lead-In and Lead-Out : No
Fill up missing offset samples with silence : Yes
Delete leading and trailing silent blocks : No
Null samples used in CRC calculations : Yes
Used interface : Native Win32 interface for Win NT & 2000

Used output format : User Defined Encoder
Selected bitrate : 896 kBit/s
Quality : High
Add ID3 tag : No
Command line compressor : C:\Program Files\Exact Audio Copy\Flac\flac.exe
Additional command line options : -V -8 %source%


TOC of the extracted CD

Track | Start | Length | Start sector | End sector
––––––––––––––––––––––––––––-
1 | 0:00.00 | 6:23.12 | 0 | 28736
2 | 6:23.12 | 2:23.25 | 28737 | 39486
3 | 8:46.37 | 4:00.50 | 39487 | 57536
4 | 12:47.12 | 4:54.63 | 57537 | 79649
5 | 17:42.00 | 10:04.12 | 79650 | 124961
6 | 27:46.12 | 3:10.23 | 124962 | 139234
7 | 30:56.35 | 5:12.22 | 139235 | 162656
8 | 36:08.57 | 6:25.53 | 162657 | 191584
9 | 42:34.35 | 10:08.02 | 191585 | 237186
10 | 52:42.37 | 11:58.40 | 237187 | 291076


Range status and errors

Selected range

Filename J:\Music\Aimard - The Warner Recordings\Aimard - The Warner Recordings - CD4.wav

Peak level 97.4 %
Extraction speed 4.2 X
Range quality 100.0 %
Test CRC 5BF2E0A7
Copy CRC 5BF2E0A7
Copy OK

No errors occurred

End of status report

==== Log checksum B0553CB573CC6A3E5F1BBBF97E999E36AF4CF7A24756BF403DC57C611992B4E0 ====

[CUETools log; Date: 25.01.2018 17:55:05; Version: 2.1.4]
[CTDB TOCID: Fjj2t4M_JjhOslogycL8fKtQL7c-] found.
Track | CTDB Status
1 | (46/46) Accurately ripped
2 | (45/46) Accurately ripped
3 | (45/46) Accurately ripped
4 | (45/46) Accurately ripped
5 | (44/46) Accurately ripped
6 | (45/46) Accurately ripped
7 | (44/46) Accurately ripped
8 | (44/46) Accurately ripped
9 | (44/46) Accurately ripped
10 | (38/46) Accurately ripped, or (1/46) differs in 1194 samples @06:07:46-06:07:47,06:08:11-06:08:12,06:08:32,06:08:52-06:08:53,06:08:72-06:08:73,06:09:17-06:09:18,06:09:37-06:09:38,06:09:58,06:10:03-06:10:04,06:10:43-06:10:44,06:10:63-06:10:64,06:11:08-06:11:09,06:11:29-06:11:30,06:11:49-06:11:50,06:12:14-06:12:15,06:12:34-06:12:35,06:12:55,06:13:00-06:13:01,06:14:27
[AccurateRip ID: 0014a1b2-00a9ccb5-970f290a] found.
Track [ CRC | V2 ] Status
01 [142f4a79|59fb1c91] (00+03/44) Accurately ripped
02 [30f657ac|b50faafa] (00+03/45) Accurately ripped
03 [04129b0a|cdda25e7] (00+03/45) Accurately ripped
04 [3266dab5|8ccbc365] (00+03/45) Accurately ripped
05 [80845e2d|bcd8e5db] (00+02/43) Accurately ripped
06 [5f752215|6b7b9f23] (00+03/45) Accurately ripped
07 [447655b9|ff9bd81a] (00+02/44) Accurately ripped
08 [061e8867|cd501c9c] (00+02/44) Accurately ripped
09 [509cba3f|e2172a74] (00+03/45) Accurately ripped
10 [24277a19|d3bdaf66] (00+02/43) Accurately ripped
Offsetted by 36:
01 [68058689] (16/44) Accurately ripped
02 [4f6739ff] (16/45) Accurately ripped
03 [6668208d] (16/45) Accurately ripped
04 [4824742b] (15/45) Accurately ripped
05 [808cd845] (15/43) Accurately ripped
06 [7f48c8ae] (15/45) Accurately ripped
07 [de61db64] (16/44) Accurately ripped
08 [33a9ca0f] (16/44) Accurately ripped
09 [93278b7c] (16/45) Accurately ripped
10 [6c14b3c8] (15/43) Accurately ripped

Track Peak [ CRC32 ] [W/O NULL] [ LOG ]
– 97,4 [5BF2E0A7] [4B39F047] CRC32
01 96,5 [AB145EEA] [31ABB136]
02 97,4 [D1CC9188] [E7BC7B63]
03 59,7 [8F955A6B] [8E545126]
04 65,5 [4AB7D906] [65D969C9]
05 96,5 [3E8BF567] [C91EDEC6]
06 66,9 [AEFCE91C] [4927F856]
07 63,2 [2A4C4B01] [C91F7BFF]
08 96,6 [BAEA8300] [AACA366A]
09 51,0 [E8116C71] [BCAEEB1E]
10 95,8 [CCAC4234] [DDD3D391]

foobar2000 1.2 / Dynamic Range Meter 1.1.1
log date: 2018-01-25 17:57:23

––––––––––––––––––––––––––––––––––––––––
Analyzed: Pierre-Laurent Aimard / Aimard - The Warner Recordings - CD4 - Messiaen: Vingt Regards sur l'Enfant-Jesus (conclusion)
––––––––––––––––––––––––––––––––––––––––

DR Peak RMS Duration Track
––––––––––––––––––––––––––––––––––––––––
DR17 -0.31 dB -25.03 dB 6:23 01-XI. Premiere communion de la Vierge - Tres lent
DR13 -0.23 dB -17.39 dB 2:23 02-XII. La Parole toute-puissante - Un peu vif
DR15 -4.47 dB -24.42 dB 4:01 03-XIII. Noel - Tres vif, joyeux
DR13 -3.67 dB -21.28 dB 4:55 04-XIV. Regard des Anges - Tres vif
DR16 -0.31 dB -22.49 dB 10:04 05-XV. La Baiser de l'enfant Jesus - Tres lent, calme
DR15 -3.48 dB -21.89 dB 3:10 06-XVI. Regard des prophetes, des bergers et des Mages - Modere
DR16 -3.98 dB -26.99 dB 5:12 07-XVII. Regard du silence - Tres modere
DR15 -0.30 dB -18.92 dB 6:26 08-XVIII. Regard de l'Onction terrible - Modere
DR18 -5.85 dB -31.81 dB 10:08 09-XIX.. Je dors, mais mon coeur veille - Lent
DR16 -0.37 dB -20.61 dB 11:59 10-XX. Regard de l'Eglise d'amour - Presque vif
––––––––––––––––––––––––––––––––––––––––

Number of tracks: 10
Official DR value: DR15

Samplerate: 44100 Hz
Channels: 2
Bits per sample: 16
Bitrate: 450 kbps
Codec: FLAC
================================================================================


Exact Audio Copy V1.0 beta 3 from 29. August 2011

EAC extraction logfile from 17. August 2012, 21:17

Pierre-Laurent Aimard / Aimard - The Warner Recordings - CD5 - Ravel, Carter, Boulez

Used drive : HL-DT-STDVDRAM GSA-4083N Adapter: 1 ID: 0

Read mode : Secure
Utilize accurate stream : Yes
Defeat audio cache : Yes
Make use of C2 pointers : No

Read offset correction : 667
Overread into Lead-In and Lead-Out : No
Fill up missing offset samples with silence : Yes
Delete leading and trailing silent blocks : No
Null samples used in CRC calculations : Yes
Used interface : Native Win32 interface for Win NT & 2000

Used output format : User Defined Encoder
Selected bitrate : 896 kBit/s
Quality : High
Add ID3 tag : No
Command line compressor : C:\Program Files\Exact Audio Copy\Flac\flac.exe
Additional command line options : -V -8 %source%


TOC of the extracted CD

Track | Start | Length | Start sector | End sector
––––––––––––––––––––––––––––-
1 | 0:00.00 | 6:48.16 | 0 | 30615
2 | 6:48.16 | 7:10.28 | 30616 | 62893
3 | 13:58.44 | 9:22.09 | 62894 | 105052
4 | 23:20.53 | 22:23.32 | 105053 | 205809
5 | 45:44.10 | 4:18.44 | 205810 | 225203
6 | 50:02.54 | 3:26.33 | 225204 | 240686
7 | 53:29.12 | 5:32.65 | 240687 | 265651
8 | 59:02.02 | 11:37.20 | 265652 | 317946
9 | 70:39.22 | 4:15.19 | 317947 | 337090
10 | 74:54.41 | 4:36.63 | 337091 | 357853


Range status and errors

Selected range

Filename J:\Music\Aimard - The Warner Recordings\Aimard - The Warner Recordings - CD5.wav

Peak level 99.2 %
Extraction speed 4.4 X
Range quality 100.0 %
Test CRC 96711BC5
Copy CRC 96711BC5
Copy OK

No errors occurred

End of status report

==== Log checksum 727F0322363BA99662995CD7399A1D4B73F026E442B66A74A843BCEED9FEFDC4 ====

[CUETools log; Date: 25.01.2018 17:55:27; Version: 2.1.4]
[CTDB TOCID: xARLbxB8qshyAaXPSb3tXRUqjKk-] found.
Track | CTDB Status
1 | (6/6) Accurately ripped
2 | (6/6) Accurately ripped
3 | (6/6) Accurately ripped
4 | (5/6) Accurately ripped
5 | (6/6) Accurately ripped
6 | (6/6) Accurately ripped
7 | (6/6) Accurately ripped
8 | (5/6) Accurately ripped
9 | (6/6) Accurately ripped
10 | (5/6) Accurately ripped
[AccurateRip ID: 0020c9c8-0103d885-6d12a30a] found.
Track [ CRC | V2 ] Status
01 [115ba49a|2e055068] (0+2/2) Accurately ripped
02 [f9c19c3f|280e2fc2] (0+2/2) Accurately ripped
03 [28f4ec26|45f2cad6] (0+2/2) Accurately ripped
04 [2c49599f|1cd19d21] (0+2/2) Accurately ripped
05 [969f5f6e|cf41eea6] (0+3/3) Accurately ripped
06 [96841b06|abe2521d] (0+3/3) Accurately ripped
07 [6815ba15|9845c5e2] (0+3/3) Accurately ripped
08 [33b23f50|f2e90af4] (0+1/2) Accurately ripped
09 [56a187b1|cae20594] (0+2/2) Accurately ripped
10 [3cdb3bc8|31453b2e] (0+1/2) Accurately ripped

Track Peak [ CRC32 ] [W/O NULL] [ LOG ]
– 99,2 [96711BC5] [9AF01ECB] CRC32
01 65,6 [EE5BB548] [8F183996]
02 38,8 [EB4DAD1F] [07F2BC5B]
03 89,9 [96B799EC] [EEF5F54A]
04 89,9 [985C6675] [118AF2C5]
05 82,8 [52B1C4F6] [7464A5C1]
06 32,1 [BDA38BEB] [C72A691F]
07 85,4 [4018EE0A] [1136A22B]
08 99,2 [5C3545E7] [CFCC1A78]
09 95,9 [13C54DA7] [9AC6BB01]
10 86,0 [ABFD5519] [88ACA3AA]

foobar2000 1.2 / Dynamic Range Meter 1.1.1
log date: 2018-01-25 17:57:45

––––––––––––––––––––––––––––––––––––––––
Analyzed: Pierre-Laurent Aimard / Aimard - The Warner Recordings - CD5 - Ravel, Carter, Boulez
––––––––––––––––––––––––––––––––––––––––

DR Peak RMS Duration Track
––––––––––––––––––––––––––––––––––––––––
DR15 -3.65 dB -27.06 dB 6:48 01-Ravel: Gaspard de la nuit - I. Ondine
DR18 -8.21 dB -32.58 dB 7:10 02-Ravel: Gaspard de la nuit - II. Le Gibet
DR17 -0.92 dB -24.45 dB 9:22 03-Ravel: Gaspard de la nuit - III. Scarbo
DR18 -0.92 dB -23.88 dB 22:23 04-Elliott Carter: Night Fantasies
DR20 -1.64 dB -27.22 dB 4:19 05-Elliott Carter: Two Diversions - I
DR14 -9.84 dB -27.61 dB 3:26 06-Elliott Carter: Two Diversions - II
DR17 -1.37 dB -26.97 dB 5:33 07-Elliott Carter: 90+
DR15 -0.36 dB -22.59 dB 4:15 09-Boulez: Piano Sonata No.1 - I. Lent
DR17 -1.31 dB -22.59 dB 4:37 10-Boulez: Piano Sonata No.1 - II. Assez large - Rapide
––––––––––––––––––––––––––––––––––––––––

Number of tracks: 9
Official DR value: DR17

Samplerate: 44100 Hz
Channels: 2
Bits per sample: 16
Bitrate: 385 kbps
Codec: FLAC
================================================================================

––––––––––––––––––––––––––––––––––––––––
Statistics for: 08-Boulez: Sonatine for flute and piano
Number of samples: 30749460
Duration: 11:37
––––––––––––––––––––––––––––––––––––––––

Left Right

Peak Value: -1.55 dB –- -0.07 dB
Avg RMS: -24.61 dB –- -23.63 dB
DR channel: 17.39 dB –- 16.39 dB
––––––––––––––––––––––––––––––––––––––––

Official DR Value: DR17

Samplerate: 44100 Hz
Channels: 2
Bits per sample: 16
Bitrate: 385 kbps
Codec: FLAC
================================================================================


Exact Audio Copy V1.0 beta 3 from 29. August 2011

EAC extraction logfile from 17. August 2012, 22:07

Pierre-Larent Aimard / Aimard - The Warner Recordings - CD6

Used drive : HL-DT-STDVDRAM GSA-4083N Adapter: 1 ID: 0

Read mode : Secure
Utilize accurate stream : Yes
Defeat audio cache : Yes
Make use of C2 pointers : No

Read offset correction : 667
Overread into Lead-In and Lead-Out : No
Fill up missing offset samples with silence : Yes
Delete leading and trailing silent blocks : No
Null samples used in CRC calculations : Yes
Used interface : Native Win32 interface for Win NT & 2000

Used output format : User Defined Encoder
Selected bitrate : 896 kBit/s
Quality : High
Add ID3 tag : No
Command line compressor : C:\Program Files\Exact Audio Copy\Flac\flac.exe
Additional command line options : -V -8 %source%


TOC of the extracted CD

Track | Start | Length | Start sector | End sector
––––––––––––––––––––––––––––-
1 | 0:00.00 | 11:36.14 | 0 | 52213
2 | 11:36.14 | 10:24.01 | 52214 | 99014
3 | 22:00.15 | 6:19.73 | 99015 | 127512
4 | 28:20.13 | 8:34.61 | 127513 | 166123
5 | 36:54.74 | 9:42.53 | 166124 | 209826
6 | 46:37.52 | 5:04.47 | 209827 | 232673
7 | 51:42.24 | 4:24.57 | 232674 | 252530
8 | 56:07.06 | 2:59.41 | 252531 | 265996
9 | 59:06.47 | 4:44.23 | 265997 | 287319
10 | 63:50.70 | 2:27.24 | 287320 | 298368
11 | 66:18.19 | 7:14.48 | 298369 | 330966
12 | 73:32.67 | 2:11.61 | 330967 | 340852


Range status and errors

Selected range

Filename J:\Music\Aimard - The Warner Recordings\Aimard - The Warner Recordings - CD6.wav

Peak level 99.9 %
Extraction speed 4.3 X
Range quality 100.0 %
Test CRC A2103544
Copy CRC A2103544
Copy OK

No errors occurred

End of status report

==== Log checksum 6BC516913AA5AAC1242ED82562FED568B2A4AA6B9C0A7FB72CA5A40F44D0F450 ====

[CUETools log; Date: 25.01.2018 17:55:46; Version: 2.1.4]
[CTDB TOCID: WKZKUa0fyUNIYcUaD_LDhBaZZnQ-] found.
Track | CTDB Status
1 | (5/6) Accurately ripped
2 | (5/6) Accurately ripped
3 | (5/6) Accurately ripped
4 | (5/6) Accurately ripped
5 | (6/6) Accurately ripped
6 | (6/6) Accurately ripped
7 | (5/6) Accurately ripped
8 | (6/6) Accurately ripped
9 | (6/6) Accurately ripped
10 | (6/6) Accurately ripped
11 | (5/6) Accurately ripped
12 | (5/6) Accurately ripped
[AccurateRip ID: 0028a3ec-0168234f-b311c00c] found.
Track [ CRC | V2 ] Status
01 [b06575ac|f8f12c9e] (0+1/2) Accurately ripped
02 [32ede8be|3622b12b] (0+1/2) Accurately ripped
03 [e24290aa|87cb5435] (0+1/2) Accurately ripped
04 [7e54048e|08206f74] (0+1/2) Accurately ripped
05 [3fe13af5|4208dda5] (0+2/2) Accurately ripped
06 [7094e87c|6b1b15d6] (0+2/2) Accurately ripped
07 [9a64632c|e84ed823] (0+1/2) Accurately ripped
08 [2981db79|cd16a8c8] (0+2/2) Accurately ripped
09 [58ca8ef4|d5a66a55] (0+2/2) Accurately ripped
10 [4a368836|286d686b] (0+2/2) Accurately ripped
11 [5664d6d2|1c30afde] (0+1/2) Accurately ripped
12 [7c622d9c|f96ac8fd] (0+1/2) Accurately ripped

Track Peak [ CRC32 ] [W/O NULL] [ LOG ]
– 99,9 [A2103544] [AC80449C] CRC32
01 88,3 [12E4B3D5] [963CEF64]
02 85,7 [15AB0C99] [19B81EDA]
03 88,2 [099E3DF2] [D437A5C3]
04 85,6 [5DA60D36] [BE43B792]
05 99,9 [79FF4580] [D675AAFE]
06 64,0 [A0708EC9] [9A382425]
07 81,3 [3112CF4B] [03F170D2]
08 79,0 [CA5ED34B] [47C207B7]
09 85,5 [2D411C9F] [BE3F6198]
10 83,8 [DFB37DE3] [ECE1DBB6]
11 87,2 [A2894150] [B5163686]
12 64,7 [837087A5] [8B6EAE9B]

foobar2000 1.2 / Dynamic Range Meter 1.1.1
log date: 2018-01-25 17:58:15

––––––––––––––––––––––––––––––––––––––––
Analyzed: Pierre-Larent Aimard / Aimard - The Warner Recordings - CD6
––––––––––––––––––––––––––––––––––––––––

DR Peak RMS Duration Track
––––––––––––––––––––––––––––––––––––––––
DR13 -1.08 dB -19.30 dB 11:36 01-Berg: Klaviersonate, Op.1
DR13 -1.33 dB -19.14 dB 10:24 02-Beethoven: Sonata No.23 in F minor, Op.57 'Appassionata' - I. Allegro assai
DR17 -1.08 dB -24.91 dB 6:20 03-Beethoven: Sonata No.23 in F minor, Op.57 'Appassionata' - II. Andante con moto
DR13 -1.34 dB -17.77 dB 8:35 04-Beethoven: Sonata No.23 in F minor, Op.57 'Appassionata' - III. Allegro ma non troppo
DR12 -0.01 dB -17.03 dB 9:43 05-Liszt: Legendes, No.2 - St.Francois de Paule marchant sur les flots
DR15 -3.86 dB -25.80 dB 5:05 06-Debussy: Images - 1re serie - I. Reflets dans l'eau
DR13 -1.79 dB -20.96 dB 4:25 07-Debussy: Images - 2e serie - III. Poissons d'or
DR12 -2.04 dB -25.58 dB 3:00 08-Ligeti: Etudes pour piano - II. Cordes a vide
DR12 -1.36 dB -17.87 dB 4:44 09-Ligeti: Etudes pour piano - VI. Automne a Varsovie
DR14 -1.53 dB -21.02 dB 2:27 10-Ligeti: Etudes pour piano - X. Der Zauberlehrling
DR15 -1.19 dB -22.36 dB 7:15 11-Messiaen: Vingt Regards sur l'Enfant Jesus - XI. Premiere communion de la Vierge
DR13 -3.78 dB -20.92 dB 2:12 12-Debussy: Etudes - Livre I - VI. Pour les huit doigts
––––––––––––––––––––––––––––––––––––––––

Number of tracks: 12
Official DR value: DR14

Samplerate: 44100 Hz
Channels: 2
Bits per sample: 16
Bitrate: 467 kbps
Codec: FLAC
================================================================================




Pierre-Laurent Aimard: The Warner Recordings (2012) 6 CD Box Set [Repost]

All thanks to original releaser - A-Z

More interesting music in My Blog