Subcategories
Tags
Language
Tags

Prince And The Revolution - Purple Rain (1984) [2017, 3CD + DVD Box Set]

Posted By: v3122
Prince And The Revolution - Purple Rain (1984) [2017, 3CD + DVD Box Set]

Prince And The Revolution - Purple Rain (1984)
EAC | Flac(Image) + Cue + Log & MP3 CBR 320Kbps
Warner Bros. Records, 547374-2 | ~ 1414 or 477 Mb | Scans(png) -> 432 Mb
DVD9: NTSC 16:9 & 4:3 (720x480) VBR | LPCM, 2 ch -> 7.79 Gb
Pop Rock / Synth-Pop / Funk | Special Deluxe Ultimate Collector's Edition

This 3-CD/1-DVD Expanded Edition is a true collector’s item and the ultimate vision of Purple Rain. In addition to the 2015 Paisley Park Remaster and “From The Vault & Previously Unreleased,” it includes “Single Edits & B-Sides” and a never-seen on DVD of Prince and The Revolution Live! in 1985…
Prince And The Revolution - Purple Rain (1984) [2017, 3CD + DVD Box Set]

Prince And The Revolution - Purple Rain (1984):

Prince And The Revolution - Purple Rain (1984) [2017, 3CD + DVD Box Set]

Tracklist CD1 - The Original Album
2015 Paisley Park Remaster:


01 Let's Go Crazy
02 Take Me With U
03 The Beautiful Ones
04 Computer Blue
05 Darling Nikki
06 When Doves Cry
07 I Would Die 4 U
08 Baby I'm A Star
09 Purple Rain

Exact Audio Copy V1.3 from 2. September 2016

EAC extraction logfile from 19. October 2017, 15:17

Prince & The Revolution / Purple Rain CD1

Used drive : PLEXTOR BD-R PX-B950SA Adapter: 1 ID: 1

Read mode : Secure
Utilize accurate stream : Yes
Defeat audio cache : Yes
Make use of C2 pointers : No

Read offset correction : 6
Overread into Lead-In and Lead-Out : No
Fill up missing offset samples with silence : Yes
Delete leading and trailing silent blocks : No
Null samples used in CRC calculations : Yes
Used interface : Native Win32 interface for Win NT & 2000

Used output format : Internal WAV Routines
Sample format : 44.100 Hz; 16 Bit; Stereo


TOC of the extracted CD

Track | Start | Length | Start sector | End sector
––––––––––––––––––––––––––––-
1 | 0:00.00 | 4:38.16 | 0 | 20865
2 | 4:38.16 | 3:53.31 | 20866 | 38371
3 | 8:31.47 | 5:13.24 | 38372 | 61870
4 | 13:44.71 | 3:58.45 | 61871 | 79765
5 | 17:43.41 | 4:15.24 | 79766 | 98914
6 | 21:58.65 | 5:53.34 | 98915 | 125423
7 | 27:52.24 | 2:49.04 | 125424 | 138102
8 | 30:41.28 | 4:22.53 | 138103 | 157805
9 | 35:04.06 | 8:44.49 | 157806 | 197154


Range status and errors

Selected range

Filename C:\Users\Alex\Desktop\ALLexxess\Prince\1984 Purple Rain (3CD + DVD Set NPG Records 2017)\CD1\Prince & The Revolution - Purple Rain CD1.wav

Peak level 100.0 %
Extraction speed 6.9 X
Range quality 100.0 %
Test CRC 5AC2B94A
Copy CRC 5AC2B94A
Copy OK

No errors occurred


AccurateRip summary

Track 1 accurately ripped (confidence 94) [691B32AD] (AR v2)
Track 2 accurately ripped (confidence 94) [93CC46B7] (AR v2)
Track 3 accurately ripped (confidence 94) [B9E4CF13] (AR v2)
Track 4 accurately ripped (confidence 94) [7B7527B5] (AR v2)
Track 5 accurately ripped (confidence 94) [5E6251A4] (AR v2)
Track 6 accurately ripped (confidence 94) [772F6DCA] (AR v2)
Track 7 accurately ripped (confidence 94) [735831EB] (AR v2)
Track 8 accurately ripped (confidence 94) [DF71DA7A] (AR v2)
Track 9 accurately ripped (confidence 94) [9F792026] (AR v2)

All tracks accurately ripped

End of status report

–– CUETools DB Plugin V2.1.6

[CTDB TOCID: e2HANVvO3jkirKfmwvJEmRjhUG8-] found
Submit result: e2HANVvO3jkirKfmwvJEmRjhUG8- has been confirmed
Track | CTDB Status
1 | (415/417) Accurately ripped
2 | (416/417) Accurately ripped
3 | (416/417) Accurately ripped
4 | (416/417) Accurately ripped
5 | (416/417) Accurately ripped
6 | (416/417) Accurately ripped
7 | (415/417) Accurately ripped
8 | (415/417) Accurately ripped
9 | (415/417) Accurately ripped


==== Log checksum 9D024F589A7EC717491DCB14FD947FD7E578FA0B3EB04BD77CA0ECED6C10FC57 ====


[CUETools log; Date: 26.10.2017 19:28:21; Version: 2.1.5]
[CTDB TOCID: e2HANVvO3jkirKfmwvJEmRjhUG8-] found.
Track | CTDB Status
1 | (420/422) Accurately ripped
2 | (421/422) Accurately ripped
3 | (421/422) Accurately ripped
4 | (421/422) Accurately ripped
5 | (421/422) Accurately ripped
6 | (421/422) Accurately ripped
7 | (420/422) Accurately ripped
8 | (420/422) Accurately ripped
9 | (420/422) Accurately ripped
[AccurateRip ID: 000e0306-00675231-620a4409] found.
Track [ CRC | V2 ] Status
01 [632aa2ee|691b32ad] (002+094/108) Accurately ripped
02 [0bad9294|93cc46b7] (002+094/108) Accurately ripped
03 [25e26334|b9e4cf13] (002+094/108) Accurately ripped
04 [425cf732|7b7527b5] (002+094/108) Accurately ripped
05 [84e7343a|5e6251a4] (002+094/108) Accurately ripped
06 [795b00db|772f6dca] (002+094/108) Accurately ripped
07 [02b84cec|735831eb] (002+094/108) Accurately ripped
08 [60c1fef7|df71da7a] (002+094/108) Accurately ripped
09 [7a419537|9f792026] (002+094/108) Accurately ripped
Offsetted by -13:
01 [5e2d6e72] (000/108) No match (V2 was not tested)
02 [0e810712] (000/108) No match (V2 was not tested)
03 [3a20e943] (000/108) No match (V2 was not tested)
04 [d8dd58e1] (000/108) No match (V2 was not tested)
05 [00c4b95a] (000/108) No match (V2 was not tested)
06 [e76f8da6] (000/108) No match (V2 was not tested)
07 [cd6f61e6] (000/108) No match (V2 was not tested)
08 [3e00a472] (000/108) No match (V2 was not tested)
09 [b48088b1] (000/108) No match (V2 was not tested)
Offsetted by 12:
01 [276f9734] (000/108) No match (V2 was not tested)
02 [74d73cc5] (000/108) No match (V2 was not tested)
03 [b1b278e7] (000/108) No match (V2 was not tested)
04 [a9b1aeb5] (000/108) No match (V2 was not tested)
05 [e322c836] (000/108) No match (V2 was not tested)
06 [d276bec3] (000/108) No match (V2 was not tested)
07 [a094bad1] (000/108) No match (V2 was not tested)
08 [a99161e7] (000/108) No match (V2 was not tested)
09 [e5a3c91d] (000/108) No match (V2 was not tested)

Track Peak [ CRC32 ] [W/O NULL] [ LOG ]
– 100,0 [5AC2B94A] [E227CAB5] CRC32
01 98,9 [A5B6CFEC] [DCEA779B]
02 100,0 [FB105299] [AD76839F]
03 100,0 [9943C897] [08069A55]
04 100,0 [9B86260F] [4CBF7073]
05 100,0 [FB504EEA] [BE9D48C2]
06 99,9 [D856C0EF] [35732804]
07 98,2 [4F34EBBF] [EB588118]
08 100,0 [F646054E] [07367F33]
09 100,0 [B1F6405C] [1AD20CC5]


Prince And The Revolution - Purple Rain (1984) [2017, 3CD + DVD Box Set]

Tracklist CD2 - From The Vault & Previously Unreleased:

01 The Dance Electric
02 Love And Sex
03 Computer Blue ('Hallway Speech' Version)
04 Electric Intercourse (Studio Version)
05 Our Destiny / Roadhouse Garden
06 Possessed
07 Wonderful Ass
08 Velvet Kitty Cat
09 Katrina's Paper Dolls
10 We Can F**k
11 Father's Song

Exact Audio Copy V1.3 from 2. September 2016

EAC extraction logfile from 19. October 2017, 14:50

Prince / Purple Rain CD2

Used drive : PLEXTOR BD-R PX-B950SA Adapter: 1 ID: 1

Read mode : Secure
Utilize accurate stream : Yes
Defeat audio cache : Yes
Make use of C2 pointers : No

Read offset correction : 6
Overread into Lead-In and Lead-Out : No
Fill up missing offset samples with silence : Yes
Delete leading and trailing silent blocks : No
Null samples used in CRC calculations : Yes
Used interface : Native Win32 interface for Win NT & 2000

Used output format : Internal WAV Routines
Sample format : 44.100 Hz; 16 Bit; Stereo


TOC of the extracted CD

Track | Start | Length | Start sector | End sector
––––––––––––––––––––––––––––-
1 | 0:00.00 | 11:29.40 | 0 | 51714
2 | 11:29.40 | 5:00.44 | 51715 | 74258
3 | 16:30.09 | 12:18.47 | 74259 | 129655
4 | 28:48.56 | 4:57.17 | 129656 | 151947
5 | 33:45.73 | 6:25.29 | 151948 | 180851
6 | 40:11.27 | 7:56.24 | 180852 | 216575
7 | 48:07.51 | 6:24.17 | 216576 | 245392
8 | 54:31.68 | 2:42.68 | 245393 | 257610
9 | 57:14.61 | 3:30.23 | 257611 | 273383
10 | 60:45.09 | 10:17.41 | 273384 | 319699
11 | 71:02.50 | 5:30.63 | 319700 | 344512


Range status and errors

Selected range

Filename C:\Users\Alex\Desktop\ALLexxess\Prince\1984 Purple Rain (3CD + DVD Set NPG Records 2017)\CD2\Prince - Purple Rain CD2.wav

Peak level 100.0 %
Extraction speed 7.0 X
Range quality 100.0 %
Test CRC 23A2C118
Copy CRC 23A2C118
Copy OK

No errors occurred


AccurateRip summary

Track 1 accurately ripped (confidence 80) [AB5F6C8D] (AR v2)
Track 2 accurately ripped (confidence 80) [D23143F2] (AR v2)
Track 3 accurately ripped (confidence 80) [4DB2613E] (AR v2)
Track 4 accurately ripped (confidence 80) [D798CA81] (AR v2)
Track 5 accurately ripped (confidence 80) [EF1D179D] (AR v2)
Track 6 accurately ripped (confidence 80) [4B07DEB1] (AR v2)
Track 7 accurately ripped (confidence 80) [E6FD8CD3] (AR v2)
Track 8 accurately ripped (confidence 80) [06E8C9C3] (AR v2)
Track 9 accurately ripped (confidence 80) [F1ED2F6B] (AR v2)
Track 10 accurately ripped (confidence 79) [3F82D46A] (AR v2)
Track 11 accurately ripped (confidence 74) [C00002E5] (AR v2)

All tracks accurately ripped

End of status report

–– CUETools DB Plugin V2.1.6

[CTDB TOCID: IB.nizNA7HE1WG8gGW4nKsKI__U-] found
Submit result: IB.nizNA7HE1WG8gGW4nKsKI__U- has been confirmed
Track | CTDB Status
1 | (388/396) Accurately ripped
2 | (394/396) Accurately ripped
3 | (394/396) Accurately ripped
4 | (394/396) Accurately ripped
5 | (394/396) Accurately ripped
6 | (394/396) Accurately ripped
7 | (394/396) Accurately ripped
8 | (394/396) Accurately ripped
9 | (392/396) Accurately ripped
10 | (388/396) Accurately ripped
11 | (380/396) Accurately ripped


==== Log checksum 8B6D9EE7C9FBB75A7E31543EE1038ECCD1356B43AE6A5311AD1B970B2CB0DB7D ====


[CUETools log; Date: 26.10.2017 19:28:59; Version: 2.1.5]
[CTDB TOCID: IB.nizNA7HE1WG8gGW4nKsKI__U-] found.
Track | CTDB Status
1 | (393/402) Accurately ripped
2 | (400/402) Accurately ripped
3 | (400/402) Accurately ripped
4 | (400/402) Accurately ripped
5 | (400/402) Accurately ripped
6 | (400/402) Accurately ripped
7 | (400/402) Accurately ripped
8 | (400/402) Accurately ripped
9 | (398/402) Accurately ripped
10 | (394/402) Accurately ripped
11 | (386/402) Accurately ripped
[AccurateRip ID: 002243e7-011ff6f7-a411f10b] found.
Track [ CRC | V2 ] Status
01 [a0af5a4f|ab5f6c8d] (002+080/103) Accurately ripped
02 [64d32a99|d23143f2] (002+080/103) Accurately ripped
03 [e8e0cef1|4db2613e] (002+080/103) Accurately ripped
04 [97dc647c|d798ca81] (002+080/103) Accurately ripped
05 [61457cac|ef1d179d] (002+080/103) Accurately ripped
06 [0e6dbf53|4b07deb1] (002+080/103) Accurately ripped
07 [0354e1b6|e6fd8cd3] (002+080/103) Accurately ripped
08 [63f25e55|06e8c9c3] (002+080/103) Accurately ripped
09 [8f668137|f1ed2f6b] (002+080/103) Accurately ripped
10 [a08e2e21|3f82d46a] (002+079/102) Accurately ripped
11 [020aac21|c00002e5] (002+074/097) Accurately ripped
Offsetted by -13:
01 [9e1b099a] (000/103) No match (V2 was not tested)
02 [fc5a9af7] (000/103) No match (V2 was not tested)
03 [6aacfe8a] (000/103) No match (V2 was not tested)
04 [e2d59830] (000/103) No match (V2 was not tested)
05 [36009dc4] (000/103) No match (V2 was not tested)
06 [b2131943] (000/103) No match (V2 was not tested)
07 [38179e0f] (000/103) No match (V2 was not tested)
08 [c5033499] (000/103) No match (V2 was not tested)
09 [5d18beea] (000/103) No match (V2 was not tested)
10 [f3526d05] (000/102) No match (V2 was not tested)
11 [349b4696] (000/097) No match (V2 was not tested)
Offsetted by 12:
01 [b3375605] (000/103) No match (V2 was not tested)
02 [c9692770] (000/103) No match (V2 was not tested)
03 [c6ddf3cf] (000/103) No match (V2 was not tested)
04 [b3908ca4] (000/103) No match (V2 was not tested)
05 [113abaef] (000/103) No match (V2 was not tested)
06 [85e1724a] (000/103) No match (V2 was not tested)
07 [798d7688] (000/103) No match (V2 was not tested)
08 [0e52ff2e] (000/103) No match (V2 was not tested)
09 [eab726a2] (000/103) No match (V2 was not tested)
10 [c21b3602] (000/102) No match (V2 was not tested)
11 [358b0a96] (000/097) No match (V2 was not tested)

Track Peak [ CRC32 ] [W/O NULL] [ LOG ]
– 100,0 [23A2C118] [30E95FFF] CRC32
01 100,0 [01E6BC12] [CF62E079]
02 100,0 [BA20B93F] [527B0933]
03 100,0 [9D29817D] [8C2B5F99]
04 100,0 [13FB914B] [D9DCC8C3]
05 100,0 [562DCB54] [9D765CC6]
06 100,0 [FBBD7A5F] [A7B4C607]
07 100,0 [FDAD72AD] [2291826C]
08 100,0 [A6EE52FC] [FEF4FC8D]
09 100,0 [EB34BCAA] [B9C17088]
10 100,0 [6461D771] [61CE5565]
11 100,0 [17B65CA0] [E6D21E31]


Prince And The Revolution - Purple Rain (1984) [2017, 3CD + DVD Box Set]

Tracklist CD3 - Single Edits & B-Sides:

01 When Doves Cry (7'' Single Edit)
02 17 Days (B-Side Edit)
03 Let's Go Crazy (7'' Single Edit)
04 Let's Go Crazy (Special Dance Mix)
05 Erotic City (7'' B-Side Edit)
06 Erotic City ('Make Love Not War Erotic City Come Alive')
07 Purple Rain (7'' Single Edit)
08 God (7'' B-Side Edit)
09 God (Love Theme From Purple Rain) (Instrumental, UK 12'' B-Side)
10 Another Lonely Christmas (7'' B-Side Edit)
11 Another Lonely Christmas (Extended Version)
12 I Would Die 4 U (7'' B-Side Edit)
13 I Would Die 4 U (Extended Version)
14 Baby I'm A Star (7'' B-Side Edit)
15 Take Me With U (7'' Single Edit)

Exact Audio Copy V1.3 from 2. September 2016

EAC extraction logfile from 19. October 2017, 14:08

Prince & The Revolution / Purple Rain CD3

Used drive : PLEXTOR BD-R PX-B950SA Adapter: 1 ID: 1

Read mode : Secure
Utilize accurate stream : Yes
Defeat audio cache : Yes
Make use of C2 pointers : No

Read offset correction : 6
Overread into Lead-In and Lead-Out : No
Fill up missing offset samples with silence : Yes
Delete leading and trailing silent blocks : No
Null samples used in CRC calculations : Yes
Used interface : Native Win32 interface for Win NT & 2000

Used output format : Internal WAV Routines
Sample format : 44.100 Hz; 16 Bit; Stereo


TOC of the extracted CD

Track | Start | Length | Start sector | End sector
––––––––––––––––––––––––––––-
1 | 0:00.00 | 3:48.00 | 0 | 17099
2 | 3:48.00 | 3:56.02 | 17100 | 34801
3 | 7:44.02 | 3:47.41 | 34802 | 51867
4 | 11:31.43 | 7:35.71 | 51868 | 86063
5 | 19:07.39 | 3:56.12 | 86064 | 103775
6 | 23:03.51 | 7:23.70 | 103776 | 137070
7 | 30:27.46 | 4:05.28 | 137071 | 155473
8 | 34:32.74 | 4:02.71 | 155474 | 173694
9 | 38:35.70 | 7:58.34 | 173695 | 209578
10 | 46:34.29 | 4:53.56 | 209579 | 231609
11 | 51:28.10 | 6:47.69 | 231610 | 262203
12 | 58:16.04 | 2:58.20 | 262204 | 275573
13 | 61:14.24 | 10:18.21 | 275574 | 321944
14 | 71:32.45 | 2:49.22 | 321945 | 334641
15 | 74:21.67 | 3:43.36 | 334642 | 351402


Range status and errors

Selected range

Filename C:\Users\Alex\Desktop\ALLexxess\Prince\1984 Purple Rain (3CD + DVD Set NPG Records 2017)\CD3\Prince & The Revolution - Purple Rain CD3.wav

Peak level 100.0 %
Extraction speed 7.0 X
Range quality 100.0 %
Test CRC 7D48253E
Copy CRC 7D48253E
Copy OK

No errors occurred


AccurateRip summary

Track 1 accurately ripped (confidence 79) [1B423D8C] (AR v2)
Track 2 accurately ripped (confidence 82) [42DE8CD9] (AR v2)
Track 3 accurately ripped (confidence 82) [FFECAE17] (AR v2)
Track 4 accurately ripped (confidence 82) [20B07F2D] (AR v2)
Track 5 accurately ripped (confidence 82) [C1AE7DF1] (AR v2)
Track 6 accurately ripped (confidence 82) [41981DDD] (AR v2)
Track 7 accurately ripped (confidence 82) [2933479E] (AR v2)
Track 8 accurately ripped (confidence 82) [E684301A] (AR v2)
Track 9 accurately ripped (confidence 82) [207624C0] (AR v2)
Track 10 accurately ripped (confidence 82) [54B6716B] (AR v2)
Track 11 accurately ripped (confidence 82) [A9E99154] (AR v2)
Track 12 accurately ripped (confidence 82) [CA202979] (AR v2)
Track 13 accurately ripped (confidence 82) [94EB4B0A] (AR v2)
Track 14 accurately ripped (confidence 80) [96612984] (AR v2)
Track 15 accurately ripped (confidence 79) [19EA98F8] (AR v2)

All tracks accurately ripped

End of status report

–– CUETools DB Plugin V2.1.6

[CTDB TOCID: P1bjkRkLi6OCc_zhMcwQc6usDP4-] found
Submit result: P1bjkRkLi6OCc_zhMcwQc6usDP4- has been confirmed
Track | CTDB Status
1 | (330/340) Accurately ripped
2 | (338/340) Accurately ripped
3 | (338/340) Accurately ripped
4 | (338/340) Accurately ripped
5 | (338/340) Accurately ripped
6 | (338/340) Accurately ripped
7 | (338/340) Accurately ripped
8 | (338/340) Accurately ripped
9 | (338/340) Accurately ripped
10 | (337/340) Accurately ripped
11 | (338/340) Accurately ripped
12 | (338/340) Accurately ripped
13 | (338/340) Accurately ripped
14 | (337/340) Accurately ripped
15 | (337/340) Accurately ripped


==== Log checksum 92E95E293732BDD63999C48AC00C92404D926F47F48148AD9702C0E26E95526D ====


[CUETools log; Date: 26.10.2017 19:29:34; Version: 2.1.5]
[CTDB TOCID: P1bjkRkLi6OCc_zhMcwQc6usDP4-] found.
Track | CTDB Status
1 | (335/345) Accurately ripped
2 | (343/345) Accurately ripped
3 | (343/345) Accurately ripped
4 | (343/345) Accurately ripped
5 | (343/345) Accurately ripped
6 | (343/345) Accurately ripped
7 | (343/345) Accurately ripped
8 | (343/345) Accurately ripped
9 | (343/345) Accurately ripped
10 | (342/345) Accurately ripped
11 | (343/345) Accurately ripped
12 | (343/345) Accurately ripped
13 | (343/345) Accurately ripped
14 | (342/345) Accurately ripped
15 | (342/345) Accurately ripped
[AccurateRip ID: 0029e9b7-01e38295-ed124d0f] found.
Track [ CRC | V2 ] Status
01 [f914087b|1b423d8c] (02+79/91) Accurately ripped
02 [df766a53|42de8cd9] (02+82/94) Accurately ripped
03 [6491bbb9|ffecae17] (02+82/94) Accurately ripped
04 [6650ad68|20b07f2d] (02+82/94) Accurately ripped
05 [bd28e8ed|c1ae7df1] (02+82/94) Accurately ripped
06 [4422582d|41981ddd] (02+82/94) Accurately ripped
07 [b87b1d1d|2933479e] (02+82/94) Accurately ripped
08 [b7015c30|e684301a] (02+82/94) Accurately ripped
09 [ceda5de2|207624c0] (02+82/94) Accurately ripped
10 [50c0f6db|54b6716b] (02+82/94) Accurately ripped
11 [38eff1a1|a9e99154] (02+82/94) Accurately ripped
12 [5189169f|ca202979] (02+82/94) Accurately ripped
13 [83bd3632|94eb4b0a] (02+82/94) Accurately ripped
14 [86d55900|96612984] (02+80/92) Accurately ripped
15 [3ff897a6|19ea98f8] (02+79/91) Accurately ripped
Offsetted by -13:
01 [1b1a6f91] (00/91) No match (V2 was not tested)
02 [405ecceb] (00/94) No match (V2 was not tested)
03 [07d10a44] (00/94) No match (V2 was not tested)
04 [9086fd2f] (00/94) No match (V2 was not tested)
05 [a09ad318] (00/94) No match (V2 was not tested)
06 [47d67216] (00/94) No match (V2 was not tested)
07 [847aa1dd] (00/94) No match (V2 was not tested)
08 [15ac032a] (00/94) No match (V2 was not tested)
09 [5dfdd9ea] (00/94) No match (V2 was not tested)
10 [577a9220] (00/94) No match (V2 was not tested)
11 [affd1eef] (00/94) No match (V2 was not tested)
12 [2960f971] (00/94) No match (V2 was not tested)
13 [70294c14] (00/94) No match (V2 was not tested)
14 [fd3a2b61] (00/92) No match (V2 was not tested)
15 [5916c6d1] (00/91) No match (V2 was not tested)
Offsetted by 12:
01 [6c4e1f89] (00/91) No match (V2 was not tested)
02 [834293c1] (00/94) No match (V2 was not tested)
03 [25b7851c] (00/94) No match (V2 was not tested)
04 [d97f33fa] (00/94) No match (V2 was not tested)
05 [0d12e967] (00/94) No match (V2 was not tested)
06 [e0f97733] (00/94) No match (V2 was not tested)
07 [dea1d62c] (00/94) No match (V2 was not tested)
08 [e58511da] (00/94) No match (V2 was not tested)
09 [f42f1cd4] (00/94) No match (V2 was not tested)
10 [e46f17dd] (00/94) No match (V2 was not tested)
11 [b91dc910] (00/94) No match (V2 was not tested)
12 [39ec1fe2] (00/94) No match (V2 was not tested)
13 [85fe3cff] (00/94) No match (V2 was not tested)
14 [a5ebbc24] (00/92) No match (V2 was not tested)
15 [3c7ebaed] (00/91) No match (V2 was not tested)

Track Peak [ CRC32 ] [W/O NULL] [ LOG ]
– 100,0 [7D48253E] [63443A0F] CRC32
01 100,0 [0C2ED766] [0180F39A]
02 99,0 [9D718A15] [459C18C9]
03 100,0 [B9D0A53C] [DD121EB9]
04 100,0 [1E2115F0] [F4D00217]
05 100,0 [DB62836A] [75061D15]
06 100,0 [D1AC5074] [92ED9CDA]
07 100,0 [08A0D221] [E0E0A07F]
08 98,4 [6684A700] [ADD2CA7B]
09 100,0 [1F3B6756] [8B1AECA8]
10 100,0 [3AE3B75C] [3FDE9B6A]
11 100,0 [5C3A5824] [13CAFFD5]
12 100,0 [9433B985] [16DD6D0B]
13 100,0 [701C2DF1] [D0489346]
14 100,0 [C087D810] [D68D04BD]
15 100,0 [74079375] [C21BFF86]


Prince And The Revolution - Purple Rain (1984) [2017, 3CD + DVD Box Set]

Tracklist DVD - Live At The Carrier Dome
Syracuse, NY, March 30 1985
01 Let’s Go Crazy:


02 Delirious
03 1999
04 Little Red Corvette
05 Take Me With U
06 (Interlude)
07 Do Me, Baby
08 Irresistible Bitch
09 Possessed
10 How Come U Don’t Call Me Anymore
11 Let's Pretend We're Married
12 International Lover
13 God
14 Computer Blue
15 Darling Nikki
16 The Beautiful Ones
17 When Doves Cry
18 I Would Die 4 U
19 Baby I'm A Star
20 Purple Rain
21 (Credits)

Title: Prince & The Revolution 2017 - Purple Rain - DVD
Size: 7.25 Gb ( 7 598 764,00 KBytes ) - DVD-9
Enabled regions: 1, 2, 3, 4, 5, 6, 7, 8

VTS_01 :
Play Length: 01:56:24
Video: NTSC 16:9 (720x480) VBR, Auto Letterboxed
Audio:
English (LinearPCM, 2 ch)


Prince And The Revolution - Purple Rain (1984) [2017, 3CD + DVD Box Set]

Prince And The Revolution - Purple Rain (1984) [2017, 3CD + DVD Box Set]

Prince And The Revolution - Purple Rain (1984) [2017, 3CD + DVD Box Set]

Prince And The Revolution - Purple Rain (1984) [2017, 3CD + DVD Box Set]

Prince And The Revolution - Purple Rain (1984) [2017, 3CD + DVD Box Set]

All thanks go to ALLexxess

Download Prince And The Revolution - Purple Rain (1984):