Subcategories

Red Hot Chili Peppers - Mother's Milk (1989) Japanese SHM-CD 2008 [Re-Up]

Posted By: Designol
Red Hot Chili Peppers - Mother's Milk (1989) Japanese SHM-CD 2008 [Re-Up]

Red Hot Chili Peppers - Mother's Milk (1989) [Japanese SHM-CD 2008]
EAC | FLAC | Image (Cue&Log) ~ 581 Mb | Mp3 (CBR320) ~ 178 Mb | Scans ~ 98 Mb
Alternative Rock, Funk Rock, Funk Metal | Label: EMI Music Japan | # TOCP-95031 | 01:17:53

Mother's Milk is the fourth studio album by the American rock band Red Hot Chili Peppers, released on August 16, 1989, on EMI Records. After the death of founding guitarist Hillel Slovak and subsequent departure of drummer Jack Irons, vocalist Anthony Kiedis and bassist Flea regrouped with the addition of guitarist John Frusciante and drummer Chad Smith. Frusciante's influence altered the band's sound by placing more emphasis on melody than rhythm, which had dominated the band's previous material. Returning producer Michael Beinhorn favored heavy metal guitar riffs as well as overdubbing that was perceived by Frusciante as excessive, and as a result Beinhorn and Frusciante constantly fought over the album's guitar sound.

A pivotal album for the Red Hot Chili Peppers, 1989's Mother's Milk turned the tide and transformed the band from underground funk-rocking rappers to mainstream bad boys with seemingly very little effort. Mother's Milk brought them to MTV, scored them a deal with Warner Brothers, and let both frontman Anthony Kiedis and the ubiquitous Flea get back out into a good groove following the death of co-founding member Hillel Slovak. With a new lineup coalescing around the remaining duo with new drummer Chad Smith and guitarist John Frusciante, and with producer Michael Beinhorn again behind the boards, the band took everything that The Uplift Mofo Party Plan hinted at, and brought it fully to bear for this new venture. If anyone doubted the pulsating power that leapt from the blistering opener, "Good Time Boys," it took only a few bars of the Red Hot Chili Peppers' outrageous, and brilliant, interpretation of the Stevie Wonder classic "Higher Ground" to prove that this new lineup was onto something special. Wrapping up with the aptly titled and truly punked-out "Punk Rock Classic" and the band's own punched-up tribute to "Magic Johnson," Mother's Milk was everything the band had hoped for, and a little more besides. Effortlessly going gold as "Knock Me Down" and "Taste the Pain" careened into the charts, the album not only set the stage for the band's Blood Sugar Sex Magic domination, it also proved that funk never died; it had just swapped skins.

Review by Amy Hanson, Allmusic.com

Red Hot Chili Peppers - Mother's Milk (1989) Japanese SHM-CD 2008 [Re-Up]



Tracklist:

01. Good Time Boys (05:01)
02. Higher Ground (03:22)
03. Subway To Venus (04:25)
04. Magic Johnson (02:57)
05. Nobody Weird Like Me (03:49)
06. Knock Me Down (03:43)
07. Taste the Pain (04:31)
08. Stone Cold Bush (03:05)
09. Fire (02:03)
10. Pretty Little Ditty (03:07)
11. Punk Rock Classic (01:46)
12. Sexy Mexican Maid (03:22)
13. Johnny, Kick A Hole In The Sky (05:20)
14. Song That Made Us What We Are Today (Demo) (12:56)
15. Knock Me Down (Long Version) (04:44)
16. Sexy Mexican Maid (Long Version) (03:59)
17. Salute To Kareem (Demo) (03:24)
18. Castles Made Of Sand (Live '89) (03:19)
19. Crosstown Traffic (Live '89) (02:51)


Exact Audio Copy V1.0 beta 3 from 29. August 2011

EAC extraction logfile from 10. March 2012, 15:58

Red Hot Chili Peppers c / MOTHER'S MILK

Used drive : TEAC DV-W516GD Adapter: 1 ID: 0

Read mode : Secure
Utilize accurate stream : Yes
Defeat audio cache : Yes
Make use of C2 pointers : No

Read offset correction : 6
Overread into Lead-In and Lead-Out : No
Fill up missing offset samples with silence : Yes
Delete leading and trailing silent blocks : No
Null samples used in CRC calculations : Yes
Used interface : Installed external ASPI interface

Used output format : Internal WAV Routines
Sample format : 44.100 Hz; 16 Bit; Stereo


TOC of the extracted CD

Track | Start | Length | Start sector | End sector
––––––––––––––––––––––––––––-
1 | 0:00.00 | 5:01.51 | 0 | 22625
2 | 5:01.51 | 3:22.04 | 22626 | 37779
3 | 8:23.55 | 4:25.03 | 37780 | 57657
4 | 12:48.58 | 2:57.18 | 57658 | 70950
5 | 15:46.01 | 3:49.72 | 70951 | 88197
6 | 19:35.73 | 3:43.29 | 88198 | 104951
7 | 23:19.27 | 4:31.70 | 104952 | 125346
8 | 27:51.22 | 3:05.66 | 125347 | 139287
9 | 30:57.13 | 2:03.60 | 139288 | 148572
10 | 33:00.73 | 3:07.61 | 148573 | 162658
11 | 36:08.59 | 1:46.54 | 162659 | 170662
12 | 37:55.38 | 3:22.07 | 170663 | 185819
13 | 41:17.45 | 5:20.68 | 185820 | 209887
14 | 46:38.38 | 12:56.15 | 209888 | 268102
15 | 59:34.53 | 4:44.04 | 268103 | 289406
16 | 64:18.57 | 3:59.48 | 289407 | 307379
17 | 68:18.30 | 3:24.00 | 307380 | 322679
18 | 71:42.30 | 3:19.71 | 322680 | 337675
19 | 75:02.26 | 2:51.11 | 337676 | 350511


Range status and errors

Selected range

Filename D:\Red Hot Chili Peppers c - MOTHER'S MILK\Red Hot Chili Peppers c - MOTHER'S MILK.wav

Peak level 100.0 %
Extraction speed 1.6 X
Range quality 100.0 %
Test CRC CFC74F98
Copy CRC CFC74F98
Copy OK

No errors occurred


AccurateRip summary

Track 1 cannot be verified as accurate (confidence 76) [D7EC37F3], AccurateRip returned [A8779635] (AR v2)
Track 2 cannot be verified as accurate (confidence 78) [BB95B391], AccurateRip returned [2C3BFF02] (AR v2)
Track 3 cannot be verified as accurate (confidence 76) [184EF6A9], AccurateRip returned [AE2DA2CA] (AR v2)
Track 4 cannot be verified as accurate (confidence 76) [B8728A69], AccurateRip returned [ADF69424] (AR v2)
Track 5 cannot be verified as accurate (confidence 77) [935D52CA], AccurateRip returned [D679E950] (AR v2)
Track 6 cannot be verified as accurate (confidence 78) [799CAAD5], AccurateRip returned [0550AB8A] (AR v2)
Track 7 cannot be verified as accurate (confidence 74) [9BAD7D70], AccurateRip returned [6400A723] (AR v2)
Track 8 cannot be verified as accurate (confidence 76) [DE16541A], AccurateRip returned [788F651C] (AR v2)
Track 9 cannot be verified as accurate (confidence 78) [D825F4C5], AccurateRip returned [D0E9D921] (AR v2)
Track 10 cannot be verified as accurate (confidence 76) [4578E285], AccurateRip returned [9E71A614] (AR v2)
Track 11 cannot be verified as accurate (confidence 76) [DE6ADF29], AccurateRip returned [C353D49D] (AR v2)
Track 12 cannot be verified as accurate (confidence 76) [25E03D06], AccurateRip returned [09357369] (AR v2)
Track 13 cannot be verified as accurate (confidence 75) [A9959B22], AccurateRip returned [A7AADD87] (AR v2)
Track 14 cannot be verified as accurate (confidence 74) [4325D4CC], AccurateRip returned [B1DF007F] (AR v2)
Track 15 cannot be verified as accurate (confidence 76) [B21E0872], AccurateRip returned [95A7FCBC] (AR v2)
Track 16 cannot be verified as accurate (confidence 74) [478D44BE], AccurateRip returned [D43D751C] (AR v2)
Track 17 cannot be verified as accurate (confidence 71) [09844EAE], AccurateRip returned [B6B799E8] (AR v2)
Track 18 cannot be verified as accurate (confidence 72) [7C1BE5A9], AccurateRip returned [9D0E9934] (AR v2)
Track 19 cannot be verified as accurate (confidence 68) [8D5AC22B], AccurateRip returned [34CE6DDE] (AR v2)

No tracks could be verified as accurate
You may have a different pressing from the one(s) in the database

End of status report

==== Log checksum 0A5D35995ADCE79401CE859A3AD08C8A79E75A01E596F1A9AB44EE82BCD7E764 ====

foobar2000 1.2 / Dynamic Range Meter 1.1.1
log date: 2015-01-29 00:54:27

––––––––––––––––––––––––––––––––––––––––
Analyzed: Red Hot Chili Peppers c / Mother's Milk
––––––––––––––––––––––––––––––––––––––––

DR Peak RMS Duration Track
––––––––––––––––––––––––––––––––––––––––
DR6 0.00 dB -7.29 dB 5:02 01-Good Time Boys
DR6 0.00 dB -6.48 dB 3:22 02-Higher Ground
DR6 0.00 dB -7.12 dB 4:25 03-Subway To Venus
DR6 0.00 dB -7.30 dB 2:57 04-Magic Johnson
DR6 0.00 dB -7.36 dB 3:50 05-Nobody Weird Like Me
DR7 0.00 dB -7.88 dB 3:43 06-Knock Me Down
DR6 0.00 dB -8.11 dB 4:32 07-Taste the Pain
DR6 0.00 dB -7.21 dB 3:06 08-Stone Cold Bush
DR5 0.00 dB -6.44 dB 2:04 09-Fire
DR7 0.00 dB -8.72 dB 3:08 10-Pretty Little Ditty
DR6 0.00 dB -6.99 dB 1:47 11-Punk Rock Classic
DR7 0.00 dB -8.56 dB 3:22 12-Sexy Mexican Maid
DR6 0.00 dB -7.15 dB 5:21 13-Johnny, Kick A Hole In The Sky
DR7 0.00 dB -7.84 dB 12:56 14-Song That Made Us What We Are Today (Demo)
DR6 0.00 dB -7.63 dB 4:44 15-Knock Me Down (Long Version)
DR8 0.00 dB -9.20 dB 4:00 16-Sexy Mexican Maid (Long Version)
DR8 0.00 dB -8.90 dB 3:24 17-Salute To Kareem (Demo)
DR7 0.00 dB -8.72 dB 3:20 18-Castles Made Of Sand (Live '89)
DR6 -0.08 dB -7.68 dB 2:51 19-Crosstown Traffic (Live '89)
––––––––––––––––––––––––––––––––––––––––

Number of tracks: 19
Official DR value: DR7

Samplerate: 44100 Hz
Channels: 2
Bits per sample: 16
Bitrate: 1042 kbps
Codec: FLAC
================================================================================

Red Hot Chili Peppers - Mother's Milk (1989) Japanese SHM-CD 2008 [Re-Up]

Red Hot Chili Peppers - Mother's Milk (1989) Japanese SHM-CD 2008 [Re-Up]