Subcategories
Tags
Language
Tags

Rafael Riqueni - Alcazar De Cristal (1996) {Audivis}

Posted By: tiburon
Rafael Riqueni - Alcazar De Cristal (1996) {Audivis}

Rafael Riqueni - Alcazar De Cristal (1996) {Audivis}
EAC 1.6 | FLAC tracks level 8 | Cue+Log+M3U | Full Scans 600dpi | 390MB + 5% Recovery
MP3 CBR 320 Kbps | 111MB + 5% Recovery
Genre: Flamenco
Rafael Riqueni - Alcazar De Cristal (1996) {Audivis}

Rafael Riqueni surprises again with his harmonic work and the enormous sensitivity offered by his compositions, in an album that offers both flamenco styles and free creations and that, from the constant commitment to his music, reveals some of his best titles such as «Calle Fabié »,« Benamargosa »or the taranta that gives the album its name.
Track List
01. Vivencias (Tangos) 6:21
02. Calle Fabié (Soleá) 9:17
03. Alcázar De Cristal (Taranta) 3:52
04. Piel De Toro (Rumba) 3:09
05. Tacita De Plata (Alegrías) 5:08
06. Esa Noche (Tema De Amor) 5:41
07. Reflexión 1:12
08. Puente, Río, Macarena, Triana (Sevillanas) 3:20
09. Benamargosa (Fantasía) 6:26
10. Rebelde (Bulería) 4:13

All tracks composed and arranged by Rafael Riqueni

musicians
Rafael Riqueni - Guitar
Juan Reina - vocals, chorus
Manolo Soler - palmas, percussions
Manolo Salado - percussion
Pedro Menchen - electric bass
Gonzalo Castello - violin
Rafael Fernández - viola
Leonardo Lucket - cello
María Ángeles and Merckell - vocals, piano on 8
Manuel Calleja - double-bass
F.J. Gutiérrez - oboe and cor anglais


Exact Audio Copy V1.6 from 23. October 2020

EAC extraction logfile from 21. May 2021, 18:37

Rafael Riqueni / Alcazar De Cristal

Used drive : PLEXTOR PX-891SAF Adapter: 1 ID: 0

Read mode : Secure
Utilize accurate stream : Yes
Defeat audio cache : Yes
Make use of C2 pointers : No

Read offset correction : 6
Overread into Lead-In and Lead-Out : No
Fill up missing offset samples with silence : Yes
Delete leading and trailing silent blocks : No
Null samples used in CRC calculations : Yes
Used interface : Native Win32 interface for Win NT & 2000
Gap handling : Appended to previous track

Used output format : User Defined Encoder
Selected bitrate : 128 kBit/s
Quality : High
Add ID3 tag : No
Command line compressor : C:\Program Files (x86)\Exact Audio Copy\FLAC\FLAC.EXE
Additional command line options : -8 -V -T "ARTIST=%artist%" -T "TITLE=%title%" -T "ALBUM=%albumtitle%" -T "DATE=%year%" -T "TRACKNUMBER=%tracknr%" -T "TOTALTRACKS=%numtracks%" -T "GENRE=%genre%" -T "ALBUMARTIST=%albumartist%" -T "ALBUM ARTIST=%albumartist%" -T "COMMENT=EAC Secure Mode, Test & Copy, AccurateRip, FLAC -8" %source%


TOC of the extracted CD

Track | Start | Length | Start sector | End sector
––––––––––––––––––––––––––––-
1 | 0:00.00 | 6:21.08 | 0 | 28582
2 | 6:21.08 | 9:16.05 | 28583 | 70287
3 | 15:37.13 | 3:51.72 | 70288 | 87684
4 | 19:29.10 | 3:08.40 | 87685 | 101824
5 | 22:37.50 | 5:07.42 | 101825 | 124891
6 | 27:45.17 | 5:40.72 | 124892 | 150463
7 | 33:26.14 | 1:11.53 | 150464 | 155841
8 | 34:37.67 | 3:19.72 | 155842 | 170838
9 | 37:57.64 | 6:26.01 | 170839 | 199789
10 | 44:23.65 | 4:12.32 | 199790 | 218721


Track 1

Filename E:\DATOS\EAC\01 - Vivencias.wav

Pre-gap length 0:00:02.00

Peak level 100.0 %
Extraction speed 4.9 X
Track quality 99.9 %
Test CRC A3C49C58
Copy CRC A3C49C58
Accurately ripped (confidence 1) [815411DB] (AR v2)
Copy OK

Track 2

Filename E:\DATOS\EAC\02 - Calle Fabie.wav

Peak level 100.0 %
Extraction speed 6.1 X
Track quality 99.9 %
Test CRC EE585020
Copy CRC EE585020
Accurately ripped (confidence 1) [9D70D5AC] (AR v2)
Copy OK

Track 3

Filename E:\DATOS\EAC\03 - Alcazar De Cristal.wav

Peak level 100.0 %
Extraction speed 7.1 X
Track quality 100.0 %
Test CRC CB1D645E
Copy CRC CB1D645E
Accurately ripped (confidence 1) [5528BD83] (AR v2)
Copy OK

Track 4

Filename E:\DATOS\EAC\04 - Piel De Toro.wav

Peak level 100.0 %
Extraction speed 5.6 X
Track quality 99.9 %
Test CRC D7745130
Copy CRC D7745130
Accurately ripped (confidence 1) [6D4A75E7] (AR v2)
Copy OK

Track 5

Filename E:\DATOS\EAC\05 - Tacita De Plata.wav

Peak level 100.0 %
Extraction speed 8.1 X
Track quality 100.0 %
Test CRC DC83B5D0
Copy CRC DC83B5D0
Accurately ripped (confidence 1) [B8A9E28D] (AR v2)
Copy OK

Track 6

Filename E:\DATOS\EAC\06 - Esa Noche.wav

Peak level 100.0 %
Extraction speed 7.4 X
Track quality 99.9 %
Test CRC A8391B9C
Copy CRC A8391B9C
Accurately ripped (confidence 1) [1B29B6D3] (AR v2)
Copy OK

Track 7

Filename E:\DATOS\EAC\07 - Reflexion.wav

Peak level 100.0 %
Extraction speed 4.1 X
Track quality 99.8 %
Test CRC 739AB58E
Copy CRC 739AB58E
Accurately ripped (confidence 1) [5B8CFCC4] (AR v2)
Copy OK

Track 8

Filename E:\DATOS\EAC\08 - Puente, Rio, Macarena, Triana.wav

Peak level 100.0 %
Extraction speed 8.6 X
Track quality 100.0 %
Test CRC 6428EA6D
Copy CRC 6428EA6D
Accurately ripped (confidence 1) [7FAB6508] (AR v2)
Copy OK

Track 9

Filename E:\DATOS\EAC\09 - Benamargosa.wav

Peak level 100.0 %
Extraction speed 9.7 X
Track quality 100.0 %
Test CRC 1192EE66
Copy CRC 1192EE66
Accurately ripped (confidence 1) [D37FDBA1] (AR v2)
Copy OK

Track 10

Filename E:\DATOS\EAC\10 - Rebelde.wav

Peak level 100.0 %
Extraction speed 9.7 X
Track quality 100.0 %
Test CRC 900BC3C4
Copy CRC 900BC3C4
Accurately ripped (confidence 1) [FC9CB1E8] (AR v2)
Copy OK


All tracks accurately ripped

No errors occurred

End of status report

–– CUETools DB Plugin V2.1.6

[CTDB TOCID: JWYOp97.bQcmVHorJp6iQXqMn5Q-] found
Submit result: JWYOp97.bQcmVHorJp6iQXqMn5Q- has been confirmed
Track | CTDB Status
1 | (3/4) Accurately ripped
2 | (3/4) Accurately ripped
3 | (3/4) Accurately ripped
4 | (3/4) Accurately ripped
5 | (3/4) Accurately ripped
6 | (3/4) Accurately ripped
7 | (3/4) Accurately ripped
8 | (3/4) Accurately ripped
9 | (3/4) Accurately ripped
10 | (3/4) Accurately ripped


==== Log checksum C9DDF4627CC8F358E6BA1F0D1F6D5FCA188A80EC2A8F33C4DB7ECAD2C61B26A2 ====

Rafael Riqueni - Alcazar De Cristal (1996) {Audivis}
Rafael Riqueni - Alcazar De Cristal (1996) {Audivis}


Thanks to the original ripper