Tags
Language
Tags

VA - Ram On: The 50th Anniversary Tribute to Paul & Linda McCartney’s Ram (2021)

Posted By: v3122
VA - Ram On: The 50th Anniversary Tribute to Paul & Linda McCartney’s Ram (2021)

VA - Ram On: The 50th Anniversary Tribute to Paul & Linda McCartney’s Ram (2021)
EAC | Flac(Image) + Cue + Log & MP3 CBR 320Kbps
Spirit Of Unicorn Music, SOUM001CD | RU | ~ 371 or 120 Mb | Artwork(jpg) -> 55 Mb
Pop Rock, Classic Rock, Acoustic, Power Pop

Ram On is a 50th Anniversary re-imagining of Paul and Linda McCartney's seminal Ram album. Featuring three of the album's original musicians joined by a new generation of performers, all of whom share a love of the original record. Co-produced by multi-instrumentalist Fernando Perdomo and Denny Seiwell, original drummer on Ram in 1971. Ram On features 100+ musicians, including original guitarist Dave Spinozza, original trumpet player Marvin Stamm, Joey Santiago of the Pixies, Davey Johnstone of Elton John Band, Will Lee, Eric Dover formerly of Jellyfish, Carnie Wilson and many more. Ram On also features two lovingly re-created original Ram session tracks in the non-album single, 'Another Day' and it's B-Side, 'Oh Woman Oh Why'.

~ amazon
VA - Ram On: The 50th Anniversary Tribute to Paul & Linda McCartney’s Ram (2021):

VA - Ram On: The 50th Anniversary Tribute to Paul & Linda McCartney’s Ram (2021)

Tracklist:

01. Too Many People (feat. Dan Rothchild) 4:22
02. 3 Legs (feat. The Dirty Diamond & Durga McBroom) 2:51
03. Ram On (feat. Pan Sansome) 2:28
04. Dear Boy (feat. Adrian Bourgeois) 2:17
05. Uncle Albert/Admiral Halsey (feat. Bebopalula) 4:56
06. Smile Away (feat. Timmy Sean) 4:20
07. Heart Of The Country (feat. Dan Rothchild) 2:25
08. Monkberry Moon Delight (feat. Timmy Sean) 4:18
09. Eat at Home (feat. Dead Rock West) 3:27
10. Long Haired Lady (feat. Rob Bonfiglio & Carrie Wilson) 5:36
11. Ram On Reprise (feat. Pat Sansome) 0:54
12. Backseat Of My Car (feat. Brentley Gore) 4:54
13. Another Day (feat. Gordon Michaels) 3:47
14. Oh Woman Oh Why (feat. Eric Dover & Lauren Leigh) 4:37
15. Too Many People (Slight Return) 1:03

Exact Audio Copy V1.6 from 23. October 2020

Отчёт EAC об извлечении, выполненном 21. октября 2021, 23:50

Various Artists / Ram On

Дисковод: ASUS DRW-24D5MT Adapter: 1 ID: 0

Режим чтения : Достоверность
Использование точного потока : Да
Отключение кэша аудио : Да
Использование указателей C2 : Нет

Коррекция смещения при чтении : 6
Способность читать области Lead-in и Lead-out : Нет
Заполнение пропущенных сэмплов тишиной : Да
Удаление блоков с тишиной в начале и конце : Нет
При вычислениях CRC использовались нулевые сэмплы : Да
Интерфейс : Встроенный Win32-интерфейс для Win NT/2000
Обработка зазоров : Добавлено к предыдущему треку

Выходной формат : Пользовательский кодировщик
Выбранный битрейт : 128 kBit/s
Качество : Высокий
Добавление ID3-тега : Нет
Утилита сжатия : C:\Program Files (x86)\Exact Audio Copy\Flac\flac.exe
Дополнительные параметры : -V -8 -T "Genre=%genre%" -T "Artist=%artist%" -T "Title=%title%" -T "Album=%albumtitle%" -T "Date=%year%" -T "Tracknumber=%tracknr%" -T "Comment=%comment%" %source%


TOC извлечённого CD

Трек | Старт | Длительность | Начальный сектор | Конечный сектор
––––––––––––––––––––––––––––––––––-
1 | 0:00.00 | 4:21.01 | 0 | 19575
2 | 4:21.01 | 2:50.63 | 19576 | 32388
3 | 7:11.64 | 2:27.66 | 32389 | 43479
4 | 9:39.55 | 2:16.07 | 43480 | 53686
5 | 11:55.62 | 4:55.39 | 53687 | 75850
6 | 16:51.26 | 4:19.52 | 75851 | 95327
7 | 21:11.03 | 2:24.30 | 95328 | 106157
8 | 23:35.33 | 4:17.16 | 106158 | 125448
9 | 27:52.49 | 3:27.00 | 125449 | 140973
10 | 31:19.49 | 5:35.51 | 140974 | 166149
11 | 36:55.25 | 0:53.37 | 166150 | 170161
12 | 37:48.62 | 4:53.52 | 170162 | 192188
13 | 42:42.39 | 3:46.31 | 192189 | 209169
14 | 46:28.70 | 4:36.04 | 209170 | 229873
15 | 51:04.74 | 1:02.63 | 229874 | 234586


Трек 1

Имя файла M:\Рипы\Новая папка (2)\01. Too Many People (feat. Dan Rothchild).wav

Длина предзазора 0:00:02.00

Пиковый уровень 100.0 %
Скорость извлечения 4.8 X
Качество трека 100.0 %
CRC теста 28541ADB
CRC копии 28541ADB
Трек не обнаружен в базе AccurateRip
Копирование… OK

Трек 2

Имя файла M:\Рипы\Новая папка (2)\02. 3 Legs (feat. The Dirty Diamond & Durga McBroom).wav

Пиковый уровень 100.0 %
Скорость извлечения 5.0 X
Качество трека 100.0 %
CRC теста 4627E13B
CRC копии 4627E13B
Трек не обнаружен в базе AccurateRip
Копирование… OK

Трек 3

Имя файла M:\Рипы\Новая папка (2)\03. Ram On (feat. Pan Sansome).wav

Пиковый уровень 98.0 %
Скорость извлечения 5.1 X
Качество трека 100.0 %
CRC теста DBC3FE04
CRC копии DBC3FE04
Трек не обнаружен в базе AccurateRip
Копирование… OK

Трек 4

Имя файла M:\Рипы\Новая папка (2)\04. Dear Boy (feat. Adrian Bourgeois).wav

Пиковый уровень 100.0 %
Скорость извлечения 4.3 X
Качество трека 99.9 %
CRC теста 04C4477C
CRC копии 04C4477C
Трек не обнаружен в базе AccurateRip
Копирование… OK

Трек 5

Имя файла M:\Рипы\Новая папка (2)\05. Uncle Albert,Admiral Halsey (feat. Bebopalula).wav

Пиковый уровень 98.7 %
Скорость извлечения 6.2 X
Качество трека 100.0 %
CRC теста E31D4FB3
CRC копии E31D4FB3
Трек не обнаружен в базе AccurateRip
Копирование… OK

Трек 6

Имя файла M:\Рипы\Новая папка (2)\06. Smile Away (feat. Timmy Sean).wav

Пиковый уровень 100.0 %
Скорость извлечения 6.5 X
Качество трека 100.0 %
CRC теста 93D44541
CRC копии 93D44541
Трек не обнаружен в базе AccurateRip
Копирование… OK

Трек 7

Имя файла M:\Рипы\Новая папка (2)\07. Heart Of The Country (feat. Dan Rothchild).wav

Пиковый уровень 100.0 %
Скорость извлечения 5.2 X
Качество трека 99.9 %
CRC теста B45E7D23
CRC копии B45E7D23
Трек не обнаружен в базе AccurateRip
Копирование… OK

Трек 8

Имя файла M:\Рипы\Новая папка (2)\08. Monkberry Moon Delight (feat. Timmy Sean).wav

Пиковый уровень 100.0 %
Скорость извлечения 7.1 X
Качество трека 100.0 %
CRC теста 34E888B9
CRC копии 34E888B9
Трек не обнаружен в базе AccurateRip
Копирование… OK

Трек 9

Имя файла M:\Рипы\Новая папка (2)\09. Eat at Home (feat. Dead Rock West).wav

Пиковый уровень 100.0 %
Скорость извлечения 7.1 X
Качество трека 100.0 %
CRC теста 18D01D47
CRC копии 18D01D47
Трек не обнаружен в базе AccurateRip
Копирование… OK

Трек 10

Имя файла M:\Рипы\Новая папка (2)\10. Long Haired Lady (feat. Rob Bonfiglio & Carrie Wilson).wav

Пиковый уровень 100.0 %
Скорость извлечения 7.8 X
Качество трека 100.0 %
CRC теста 993D80F3
CRC копии 993D80F3
Трек не обнаружен в базе AccurateRip
Копирование… OK

Трек 11

Имя файла M:\Рипы\Новая папка (2)\11. Ram On Reprise (feat. Pat Sansome).wav

Пиковый уровень 98.0 %
Скорость извлечения 5.2 X
Качество трека 100.0 %
CRC теста EC0FC3FB
CRC копии EC0FC3FB
Трек не обнаружен в базе AccurateRip
Копирование… OK

Трек 12

Имя файла M:\Рипы\Новая папка (2)\12. Backseat Of My Car (feat. Brentley Gore).wav

Пиковый уровень 100.0 %
Скорость извлечения 8.1 X
Качество трека 100.0 %
CRC теста 2869F70A
CRC копии 2869F70A
Трек не обнаружен в базе AccurateRip
Копирование… OK

Трек 13

Имя файла M:\Рипы\Новая папка (2)\13. Another Day (feat. Gordon Michaels).wav

Пиковый уровень 100.0 %
Скорость извлечения 7.2 X
Качество трека 99.9 %
CRC теста 1C7EC187
CRC копии 1C7EC187
Трек не обнаружен в базе AccurateRip
Копирование… OK

Трек 14

Имя файла M:\Рипы\Новая папка (2)\14. Oh Woman Oh Why (feat. Eric Dover & Lauren Leigh).wav

Пиковый уровень 100.0 %
Скорость извлечения 8.6 X
Качество трека 100.0 %
CRC теста 40AF0680
CRC копии 40AF0680
Трек не обнаружен в базе AccurateRip
Копирование… OK

Трек 15

Имя файла M:\Рипы\Новая папка (2)\15. Too Many People (Slight Return).wav

Пиковый уровень 77.3 %
Скорость извлечения 6.2 X
Качество трека 100.0 %
CRC теста C59BDE74
CRC копии C59BDE74
Трек не обнаружен в базе AccurateRip
Копирование… OK


Ни одного трека нет в базе AccurateRip

Ошибок не произошло

Конец отчёта

–– CUETools DB Plugin V2.1.6

[CTDB TOCID: 6c8lyaf4Ihwq7WBL738RcCMQos0-] disk not present in database
Submit result: 6c8lyaf4Ihwq7WBL738RcCMQos0- has been uploaded


==== Контрольная сумма отчёта D56BCFCD59C5960645EEC9B7182E9CFA10F26CBD1D74C189658FE040083319F1 ====


[CUETools log; Date: 24.10.2021 15:16:55; Version: 2.1.4]
[AccurateRip ID: 001cea70-0149646f-c00c370f] disk not present in database.

Track Peak [ CRC32 ] [W/O NULL] [ LOG ]
– 100,0 [534CEB1B] [F40204FD]
01 100,0 [28541ADB] [E8B69F37] CRC32
02 100,0 [4627E13B] [19AE6C98] CRC32
03 98,0 [DBC3FE04] [79B0DC28] CRC32
04 100,0 [04C4477C] [F8DB438E] CRC32
05 98,7 [E31D4FB3] [44AF7013] CRC32
06 100,0 [93D44541] [8BAA7ED3] CRC32
07 100,0 [B45E7D23] [48DB887F] CRC32
08 100,0 [34E888B9] [4A2F817D] CRC32
09 100,0 [18D01D47] [0083BC5F] CRC32
10 100,0 [993D80F3] [DB9177AD] CRC32
11 98,0 [EC0FC3FB] [7289A01C] CRC32
12 100,0 [2869F70A] [3F7EF72B] CRC32
13 100,0 [1C7EC187] [F49995C7] CRC32
14 100,0 [40AF0680] [8E89C8E5] CRC32
15 77,3 [C59BDE74] [48F92004] CRC32


VA - Ram On: The 50th Anniversary Tribute to Paul & Linda McCartney’s Ram (2021)

All thanks go to the original releaser

McCartney in my Blog

Download VA - Ram On: The 50th Anniversary Tribute to Paul & Linda McCartney’s Ram (2021):