Subcategories
Tags
Language
Tags

Ryuichi Sakamoto & VA - The Sheltering Sky: Original Motion Picture Soundtrack (1990)

Posted By: Efgrapha
Ryuichi Sakamoto & VA - The Sheltering Sky: Original Motion Picture Soundtrack (1990)

Ryuichi Sakamoto & VA - The Sheltering Sky: Original Motion Picture Soundtrack (1990)
EAC | FLAC | Tracks (Cue&Log) ~ 257 Mb | Scans included | Time: 00:51:41
Soundtrack, Modern Classical, Ethnic Fusion | Label: Virgin | # CDV 2652

A varied soundtrack album that manages to weave in a little variation from the traditional type of motion picture scoring indulged in here by Sakamoto. Part of the reason for the variation is that only twelve of the album's 21 tracks are by Sakamoto – several are source music, others were composed by Richard Horowitz. The diversity thus makes for a more interesting album than might have been had from variations on the main minor-key "Sheltering Sky" theme (presented here in orchestrated and piano-based versions.) It also breaks away from the sound of Sakamoto's recordings, strong material that suffers from a certain digital harshness in the strings.

Horowitz' part in this is in stepping away from traditional Western scoring and using Middle Eastern elements for score structures – something that's very effective indeed on "Fever Ride" with its blend of Moroccan and Spanish elements. Where Sakamoto easily sketches panorama with his music, Horowitz sketches in mystery. The local source music, too, adds to this, giving the album a grounding in the real world that completes the overall structure. An excellent album that can easily be recommended for more than just soundtrack aficionados.

Review by Steven McDonald, Allmusic.com

Ryuichi Sakamoto at Allmusic

Film at IMDB
Film at Wiki

Tracklist:

01. Ibrahim Canakkeleli, Fevsi Misir, Yusuf Gebzeli, Aziz Bahriyeli - The Sacred Koran (00:42)
02. Ryuichi Sakamoto - The Sheltering Sky Theme (05:19)
03. Ryuichi Sakamoto - Belly (01:27)
04. Ryuichi Sakamoto - Port's Composition (01:23)
05. Ryuichi Sakamoto - On The Bed (Dream) (01:38)
06. Ryuichi Sakamoto - Loneliness (01:31)
07. Ryuichi Sakamoto - On The Hill (06:12)
08. Ryuichi Sakamoto - Kyoto (01:04)
09. Ryuichi Sakamoto - Cemetery (01:25)
10. Ryuichi Sakamoto - Dying (03:33)
11. Ryuichi Sakamoto - Market (01:42)
12. Ryuichi Sakamoto - Grand Hotel (02:06)
13. Ryuichi Sakamoto - The Sheltering Sky theme (Piano Version) (04:20)
14. Charles Trenet - Je Chante (02:45)
15. Lionel Hampton, Sonny Burke, Johnny Mercer - Midnight Sun (03:18)
16. Richard Horowitz - Fever Ride (03:51)
17. Burundi traditional - Chant Avec Cithare (00:45)
18. Richard Horowitz- Marnia's Tent (03:03)
19. Cheba Zahouania - Goulou Limma (05:48)
20. Zarzis - Happy Bus Ride (01:43)
21. Richard Horowitz - Night Train (01:57)


EAC extraction logfile from 2. October 2007, 18:40 for CD
Ryuichi Sakamoto / The Sheltering Sky

Used drive : PLEXTOR DVDR PX-716A Adapter: 0 ID: 1
Read mode : Secure with NO C2, accurate stream, disable cache
Read offset correction : 30
Overread into Lead-In and Lead-Out : No

Used output format : C:\Archivos de programa\FLAC\flac.exe (User Defined Encoder)
128 kBit/s
Additional command line options : -8 -V -T "ARTIST=%a" -T "TITLE=%t" -T "ALBUM=%g" -T "DATE=%y" -T "TRACKNUMBER=%n" -T "GENRE=%m" -T "COMMENT=EAC FLAC -8" %s

Other options :
Fill up missing offset samples with silence : Yes
Delete leading and trailing silent blocks : No
Native Win32 interface for Win NT & 2000


Track 1
Filename G:\Ryuichi Sakamoto - The Sheltering Sky (1990) [FLAC]\disc\01 - The Sacred Koran.wav

Pre-gap length 0:00:02.00

Peak level 10.7 %
Track quality 100.0 %
Test CRC FD549AD6
Copy CRC FD549AD6
Copy OK

Track 2
Filename G:\Ryuichi Sakamoto - The Sheltering Sky (1990) [FLAC]\disc\02 - The Sheltering Sky Theme.wav

Pre-gap length 0:00:01.73

Peak level 88.5 %
Track quality 100.0 %
Test CRC 202B428C
Copy CRC 202B428C
Copy OK

Track 3
Filename G:\Ryuichi Sakamoto - The Sheltering Sky (1990) [FLAC]\disc\03 - Belly.wav

Peak level 64.0 %
Track quality 100.0 %
Test CRC 75272014
Copy CRC 75272014
Copy OK

Track 4
Filename G:\Ryuichi Sakamoto - The Sheltering Sky (1990) [FLAC]\disc\04 - Port's Composition.wav

Peak level 62.7 %
Track quality 99.8 %
Test CRC 0D71ABB4
Copy CRC 0D71ABB4
Copy OK

Track 5
Filename G:\Ryuichi Sakamoto - The Sheltering Sky (1990) [FLAC]\disc\05 - On The Bed (Dream).wav

Peak level 57.4 %
Track quality 99.8 %
Test CRC 2AC07785
Copy CRC 2AC07785
Copy OK

Track 6
Filename G:\Ryuichi Sakamoto - The Sheltering Sky (1990) [FLAC]\disc\06 - Loneliness.wav

Pre-gap length 0:00:01.22

Peak level 67.7 %
Track quality 100.0 %
Test CRC B8F48E7A
Copy CRC B8F48E7A
Copy OK

Track 7
Filename G:\Ryuichi Sakamoto - The Sheltering Sky (1990) [FLAC]\disc\07 - On The Hill.wav

Peak level 62.6 %
Track quality 100.0 %
Test CRC 244757B0
Copy CRC 244757B0
Copy OK

Track 8
Filename G:\Ryuichi Sakamoto - The Sheltering Sky (1990) [FLAC]\disc\08 - Kyoto.wav

Pre-gap length 0:00:02.50

Peak level 44.9 %
Track quality 100.0 %
Test CRC 6B80526E
Copy CRC 6B80526E
Copy OK

Track 9
Filename G:\Ryuichi Sakamoto - The Sheltering Sky (1990) [FLAC]\disc\09 - Cemetery.wav

Peak level 61.5 %
Track quality 99.8 %
Test CRC CBE6968E
Copy CRC CBE6968E
Copy OK

Track 10
Filename G:\Ryuichi Sakamoto - The Sheltering Sky (1990) [FLAC]\disc\10 - Dying.wav

Peak level 69.1 %
Track quality 100.0 %
Test CRC FC9F155C
Copy CRC FC9F155C
Copy OK

Track 11
Filename G:\Ryuichi Sakamoto - The Sheltering Sky (1990) [FLAC]\disc\11 - Market.wav

Peak level 90.1 %
Track quality 100.0 %
Test CRC 71C3B5D0
Copy CRC 71C3B5D0
Copy OK

Track 12
Filename G:\Ryuichi Sakamoto - The Sheltering Sky (1990) [FLAC]\disc\12 - Grand Hotel.wav

Pre-gap length 0:00:01.09

Peak level 79.6 %
Track quality 99.9 %
Test CRC BABEE3E3
Copy CRC BABEE3E3
Copy OK

Track 13
Filename G:\Ryuichi Sakamoto - The Sheltering Sky (1990) [FLAC]\disc\13 - The Sheltering Sky theme (Piano Version).wav

Peak level 89.0 %
Track quality 100.0 %
Test CRC A9FF736D
Copy CRC A9FF736D
Copy OK

Track 14
Filename G:\Ryuichi Sakamoto - The Sheltering Sky (1990) [FLAC]\disc\14 - Je Chante.wav

Pre-gap length 0:00:03.46

Peak level 82.7 %
Track quality 100.0 %
Test CRC 229770BC
Copy CRC 229770BC
Copy OK

Track 15
Filename G:\Ryuichi Sakamoto - The Sheltering Sky (1990) [FLAC]\disc\15 - Midnight Sun.wav

Pre-gap length 0:00:01.13

Peak level 61.5 %
Track quality 99.9 %
Test CRC B1399451
Copy CRC B1399451
Copy OK

Track 16
Filename G:\Ryuichi Sakamoto - The Sheltering Sky (1990) [FLAC]\disc\16 - Fever Ride.wav

Pre-gap length 0:00:03.73

Peak level 68.7 %
Track quality 100.0 %
Test CRC DFEB16B3
Copy CRC DFEB16B3
Copy OK

Track 17
Filename G:\Ryuichi Sakamoto - The Sheltering Sky (1990) [FLAC]\disc\17 - Chant Avec Cithare.wav

Pre-gap length 0:00:01.04

Peak level 87.6 %
Track quality 100.0 %
Test CRC 9F3C3499
Copy CRC 9F3C3499
Copy OK

Track 18
Filename G:\Ryuichi Sakamoto - The Sheltering Sky (1990) [FLAC]\disc\18 - Marnia's Tent.wav

Pre-gap length 0:00:01.26

Peak level 58.2 %
Track quality 100.0 %
Test CRC 47531615
Copy CRC 47531615
Copy OK

Track 19
Filename G:\Ryuichi Sakamoto - The Sheltering Sky (1990) [FLAC]\disc\19 - Goulou Limma.wav

Pre-gap length 0:00:01.37

Peak level 97.8 %
Track quality 100.0 %
Test CRC F9E13E16
Copy CRC F9E13E16
Copy OK

Track 20
Filename G:\Ryuichi Sakamoto - The Sheltering Sky (1990) [FLAC]\disc\20 - Happy Bus Ride.wav

Pre-gap length 0:00:01.76

Peak level 65.4 %
Track quality 100.0 %
Test CRC 90B1570E
Copy CRC 90B1570E
Copy OK

Track 21
Filename G:\Ryuichi Sakamoto - The Sheltering Sky (1990) [FLAC]\disc\21 - Night Train.wav

Pre-gap length 0:00:02.29

Peak level 57.9 %
Track quality 100.0 %
Test CRC AAA13940
Copy CRC AAA13940
Copy OK

No errors occured


End of status report

[CUETools log; Date: 31.03.2016 21:56:15; Version: 2.1.4]
[CTDB TOCID: DWvD7xKGHrHh3ysMjZTMIKR1_fU-] found.
Track | CTDB Status
1 | (30/30) Accurately ripped
2 | (28/30) Accurately ripped
3 | (30/30) Accurately ripped
4 | (30/30) Accurately ripped
5 | (30/30) Accurately ripped
6 | (13/30) Accurately ripped, or (16/30) differs in 69 samples @00:20:55
7 | (30/30) Accurately ripped
8 | (30/30) Accurately ripped
9 | (30/30) Accurately ripped
10 | (30/30) Accurately ripped
11 | (30/30) Accurately ripped
12 | (30/30) Accurately ripped
13 | (30/30) Accurately ripped
14 | (30/30) Accurately ripped
15 | (30/30) Accurately ripped
16 | (29/30) Accurately ripped
17 | (30/30) Accurately ripped
18 | (30/30) Accurately ripped
19 | (30/30) Accurately ripped
20 | (29/30) Accurately ripped
21 | (28/30) Accurately ripped
[AccurateRip ID: 0027ef7f-026f6da3-0d0d0d15] found.
Track [ CRC | V2 ] Status
01 [69ab21b7|19fd7204] (06+09/32) Accurately ripped
02 [df994810|5da5b8be] (06+09/32) Accurately ripped
03 [e7c94589|a11d716f] (06+08/31) Accurately ripped
04 [ca3dc9a6|806d903f] (06+09/32) Accurately ripped
05 [5f601cd3|b1557139] (06+09/32) Accurately ripped
06 [1cdfa2f6|5e4dc113] (06+09/32) Accurately ripped
07 [e24f9fa8|5105ba28] (06+09/32) Accurately ripped
08 [a3210961|7728bc7f] (06+09/32) Accurately ripped
09 [fe11f047|a23cfaf2] (06+09/32) Accurately ripped
10 [13262fc9|de1368ab] (06+09/31) Accurately ripped
11 [8681bfca|f87c623f] (06+09/32) Accurately ripped
12 [43a2e46a|79be438b] (06+09/32) Accurately ripped
13 [c6719839|c327367e] (06+09/32) Accurately ripped
14 [52928ba6|4dc6283e] (06+09/32) Accurately ripped
15 [bbe50424|53cee781] (06+09/32) Accurately ripped
16 [3862e9e5|37131a26] (06+09/32) Accurately ripped
17 [d322ad9f|ce0cde80] (06+09/32) Accurately ripped
18 [26e65e06|a2772ccd] (06+07/29) Accurately ripped
19 [2d05e27d|f28e26a1] (06+06/29) Accurately ripped
20 [72c4be4f|8f597740] (06+08/31) Accurately ripped
21 [df69f5a7|d9083e26] (06+08/31) Accurately ripped
Offsetted by 150:
01 [0b8efa5b] (00/32) No match (V2 was not tested)
02 [2d93a2cc] (00/32) No match (V2 was not tested)
03 [01615239] (00/31) No match
04 [3d0a5974] (00/32) No match (V2 was not tested)
05 [15e4282b] (00/32) No match (V2 was not tested)
06 [3e1d5260] (00/32) No match (V2 was not tested)
07 [bad66e74] (00/32) No match (V2 was not tested)
08 [236f8636] (00/32) No match (V2 was not tested)
09 [1cfc2142] (00/32) No match (V2 was not tested)
10 [1964fd29] (00/31) No match (V2 was not tested)
11 [c545c188] (00/32) No match (V2 was not tested)
12 [22baf67e] (00/32) No match (V2 was not tested)
13 [e9c538cd] (00/32) No match (V2 was not tested)
14 [55593e2c] (00/32) No match (V2 was not tested)
15 [c7dd9436] (00/32) No match (V2 was not tested)
16 [9388a013] (00/32) No match (V2 was not tested)
17 [6a70e225] (00/32) No match (V2 was not tested)
18 [5e71f8e0] (00/29) No match (V2 was not tested)
19 [82901863] (00/29) No match (V2 was not tested)
20 [5c38555f] (00/31) No match (V2 was not tested)
21 [1cddb69d] (00/31) No match (V2 was not tested)
Offsetted by 1059:
01 [ff550199] (00/32) No match
02 [6c85e75e] (00/32) No match
03 [e9478aa1] (00/31) No match (V2 was not tested)
04 [f3a0c4de] (00/32) No match
05 [8ec6b766] (00/32) No match
06 [3ac136d3] (00/32) No match
07 [27c9ed3e] (00/32) No match
08 [65afe6fa] (00/32) No match
09 [27ff2b4a] (00/32) No match
10 [ce99e3f9] (00/31) No match
11 [ea97a321] (00/32) No match
12 [511482c4] (00/32) No match
13 [16e3d7d3] (00/32) No match
14 [14408c81] (00/32) No match
15 [9aa644f5] (00/32) No match
16 [5fb9f534] (00/32) No match
17 [4c26f77a] (00/32) No match
18 [52e3d15b] (00/29) No match
19 [acc64a88] (00/29) No match
20 [fc894a17] (00/31) No match
21 [8706b37a] (00/31) No match
Offsetted by 1559:
01 [1af72911] (09/32) Accurately ripped
02 [c5c86b26] (09/32) Accurately ripped
03 [93ed0a41] (09/31) Accurately ripped
04 [1fe3fc3e] (09/32) Accurately ripped
05 [b93ad52a] (09/32) Accurately ripped
06 [a98ed4df] (00/32) No match (V2 was not tested)
07 [a435f3e6] (09/32) Accurately ripped
08 [81d3a147] (09/32) Accurately ripped
09 [d54f1f65] (09/32) Accurately ripped
10 [e36b3b39] (09/31) Accurately ripped
11 [1124fe45] (09/32) Accurately ripped
12 [38ba145c] (09/32) Accurately ripped
13 [8ca5446b] (09/32) Accurately ripped
14 [72d6df95] (09/32) Accurately ripped
15 [6d382531] (09/32) Accurately ripped
16 [e4e25478] (09/32) Accurately ripped
17 [ef2ba68e] (09/32) Accurately ripped
18 [615fd587] (09/29) Accurately ripped
19 [1f3da8dc] (09/29) Accurately ripped
20 [5c0a96f7] (09/31) Accurately ripped
21 [a93336ae] (09/31) Accurately ripped

Track Peak [ CRC32 ] [W/O NULL] [ LOG ]
– 97,8 [AC1A167E] [2B9DC577]
01 10,7 [FD549AD6] [85F72CED] CRC32
02 88,5 [202B428C] [7B0F7A52] CRC32
03 63,9 [75272014] [085AC50C] CRC32
04 62,7 [0D71ABB4] [5C1BFD18] CRC32
05 57,4 [2AC07785] [09482C21] CRC32
06 67,7 [B8F48E7A] [B2178732] CRC32
07 62,6 [244757B0] [CB237985] CRC32
08 44,9 [6B80526E] [F8458F21] CRC32
09 61,5 [CBE6968E] [30ED96C7] CRC32
10 69,1 [FC9F155C] [72CD45C6] CRC32
11 90,1 [71C3B5D0] [6B45370C] CRC32
12 79,6 [BABEE3E3] [8D9DB3A9] CRC32
13 89,0 [A9FF736D] [CDF98802] CRC32
14 82,7 [229770BC] [52DAB7AE] CRC32
15 61,5 [B1399451] [A5DF0E9E] CRC32
16 68,7 [DFEB16B3] [D7EC3199] CRC32
17 87,6 [9F3C3499] [96E9D15A] CRC32
18 58,2 [47531615] [51416CB7] CRC32
19 97,8 [F9E13E16] [B33EF331] CRC32
20 65,4 [90B1570E] [AECEDDA2] CRC32
21 57,9 [AAA13940] [4533FB2E] CRC32

foobar2000 1.2 / Dynamic Range Meter 1.1.1
log date: 2013-03-04 20:25:09

––––––––––––––––––––––––––––––––––––––––
Analyzed: Ryuichi Sakamoto / The Sheltering Sky
––––––––––––––––––––––––––––––––––––––––

DR Peak RMS Duration Track
––––––––––––––––––––––––––––––––––––––––
DR13 -19.36 dB -37.56 dB 0:43 01-The Sacred Koran
DR12 -1.05 dB -18.78 dB 5:19 02-The Sheltering Sky Theme
DR12 -3.88 dB -20.84 dB 1:28 03-Belly
DR16 -4.05 dB -23.81 dB 1:23 04-Port's Composition
DR10 -4.82 dB -19.10 dB 1:38 05-On The Bed (Dream)
DR13 -3.39 dB -23.20 dB 1:31 06-Loneliness
DR10 -4.06 dB -19.25 dB 6:12 07-On The Hill
DR10 -6.94 dB -21.75 dB 1:04 08-Kyoto
DR10 -4.21 dB -17.38 dB 1:25 09-Cemetery
DR12 -3.20 dB -21.66 dB 3:34 10-Dying
DR11 -0.90 dB -18.15 dB 1:43 11-Market
DR11 -1.98 dB -19.72 dB 2:07 12-Grand Hotel
DR15 -1.00 dB -22.65 dB 4:20 13-The Sheltering Sky theme (Piano Version)
DR13 -1.65 dB -17.58 dB 2:46 14-Je Chante
DR10 -4.22 dB -16.67 dB 3:19 15-Midnight Sun
DR14 -3.25 dB -20.18 dB 3:51 16-Fever Ride
DR12 -1.15 dB -20.42 dB 0:46 17-Chant Avec Cithare
DR12 -4.69 dB -19.00 dB 3:04 18-Marnia's Tent
DR14 -0.19 dB -15.73 dB 5:48 19-Goulou Limma
DR11 -3.68 dB -17.66 dB 1:44 20-Happy Bus Ride
DR11 -4.73 dB -21.22 dB 1:57 21-Night Train
––––––––––––––––––––––––––––––––––––––––

Number of tracks: 21
Official DR value: DR12

Samplerate: 44100 Hz
Channels: 2
Bits per sample: 16
Bitrate: 706 kbps
Codec: FLAC
================================================================================

Ryuichi Sakamoto & VA - The Sheltering Sky: Original Motion Picture Soundtrack (1990)

Ryuichi Sakamoto & VA - The Sheltering Sky: Original Motion Picture Soundtrack (1990)

All thanks to original uploader

More Movies & Soundtracks in Efgrapha Blog