Tags
Language
Tags

S-Tool - Tolerance 0 (2017) {Japanese Edition}

Posted By: popsakov
S-Tool - Tolerance 0 (2017) {Japanese Edition}

S-Tool - Tolerance 0 (2017) {Japanese Edition}
EAC Rip | FLAC (Img) + Cue + Log ~ 318 Mb | MP3 CBR320 ~ 114 Mb
Full Scans | 00:40:16 | RAR 5% Recovery
Heavy Metal, Progressive Metal, Groove Metal | King Records #KICP-1883

A lot has happened in Ville Laihiala’s musical career. The frontman/vocalist that most of us know as the former Sentenced vocalist and the frontman of Poisonblack made a sudden decision and disbanded Poisonblack 2 years ago. Many fans wondered what he was going to do… VL ended the discussion by forming S-TOOL in 2016. Some familiar names in the Finnish metal scene joined him in this project. They have managed to speed things up by launching a crowdfunding campaign which was a success thanks to many fans, friends and Radio Rock. The result? The debut album of S-TOOL named “Tolerance 0”. Let’s dig deep.

Surely many of us wondered what the direction would be after the sudden news. At the first spin, many of you can maybe compare this record with the last PB one “Lyijy” and I am sure some of you will say “Metallica?”…. However, I would like to get this straight. I see S-TOOL as a fresh air for these guys and especially for VL so even though many of you will compare this one to the last era of PB and wonder “Hmm.. why didn’t he go on with PB then?”, give the album a few more spins and you will understand why.

Sound-wise, this is an upbeat and aggressive hard rock album. The album’s sound consists of powerful riffs, blasting drums and the vocals. Each band member knows what they are doing and you can definitely tell they are pros and they are pouring their heart into the album and songs. What also captivated me the most is how they manage to pour out all this aggression and hatred into the album. This is exactly what the album is all about… Zero tolerance and a lot of other feelings that need to be expressed. In this context, the album’s rhythm and energy never fade away. Secondly, although the e-guitars&vocals are mostly dominant, I also loved how the bass sometimes dominates certain parts in songs.. so kudos to the production. Every musical element is precious which will make the fans enjoy this album even more!

There are surely some songs that stand out more even in a classical hard rock album like this. Songs like “Lights Out” (such an amazing start!), “And You Call Yourself Sane” and “Shovel Man” have become my favorites. Although each song might sound similar at the first spin, I am sure the listener will pick certain favorites as the energy and emotion each song differs and this is even reflected in the styles. In certain songs, I even got slight stoner/sludge vibes even though we are talking about a typical hard rock album. So “Tolerance 0” offers much more than a classical rock/metal record.

What else is there to say? Get the record and pour out your anger! As a huge fan of VL and his previous bands, I am so happy that he is back with S-TOOL. Kudos to other guys as well. I think the band is a great team and I hope we will get to hear much more from them. The band is currently touring in Finland so catch them live if you can!

~ Basak Günel, tempelores.com
S-Tool - Tolerance 0 (2017) {Japanese Edition}


***************

S-Tool - Tolerance 0 (2017) {Japanese Edition}

Track List:

01. Lights Out [3:14]
02. Hammering [2:25]
03. There Lies Life [4:16]
04. Back To Zero [2:56]
05. Ain't This What You Wanted [4:01]
06. And You Call Yourself Sane [4:06]
07. Shovel Man [3:20]
08. Your Despiser No. 1 [4:05]
09. This Is Real [3:26]
10. Until The Lid Closes [4:25]
11. Trust In The System (Japan Bonus Track) [4:00]

Personnel:
Ville Laihiala – vocals, guitar
Sami Leppikangas – guitar
Kimmo Hiltunen – bass
Aksu Hanttu – drums

Exact Audio Copy V1.1 from 23. June 2015

EAC extraction logfile from 29. December 2017, 23:39

S-Tool / Tolerance 0 (KICP-1883)

Used drive : TSSTcorpDVDWBD SH-B123L Adapter: 0 ID: 4

Read mode : Secure
Utilize accurate stream : Yes
Defeat audio cache : Yes
Make use of C2 pointers : No

Read offset correction : 6
Overread into Lead-In and Lead-Out : No
Fill up missing offset samples with silence : Yes
Delete leading and trailing silent blocks : No
Null samples used in CRC calculations : Yes
Used interface : Installed external ASPI interface

Used output format : User Defined Encoder
Selected bitrate : 768 kBit/s
Quality : High
Add ID3 tag : No
Command line compressor : C:\Program Files (x86)\Exact Audio Copy\FLAC\FLAC.EXE
Additional command line options : -6 -V -T "ARTIST=%artist%" -T "TITLE=%title%" -T "ALBUM=%albumtitle%" -T "DATE=%year%" -T "TRACKNUMBER=%tracknr%" -T "GENRE=%genre%" -T "COMMENT=%comment%" -T "BAND=%albuminterpret%" -T "ALBUMARTIST=%albuminterpret%" -T "COMPOSER=%composer%" %haslyrics%–tag-from-file=LYRICS="%lyricsfile%"%haslyrics% -T "DISCNUMBER=%cdnumber%" -T "TOTALDISCS=%totalcds%" -T "TOTALTRACKS=%numtracks%" %hascover%–picture="%coverfile%"%hascover% %source% -o %dest%


TOC of the extracted CD

Track | Start | Length | Start sector | End sector
––––––––––––––––––––––––––––-
1 | 0:00.00 | 3:14.26 | 0 | 14575
2 | 3:14.26 | 2:25.33 | 14576 | 25483
3 | 5:39.59 | 4:15.64 | 25484 | 44672
4 | 9:55.48 | 2:56.19 | 44673 | 57891
5 | 12:51.67 | 4:01.22 | 57892 | 75988
6 | 16:53.14 | 4:05.67 | 75989 | 94430
7 | 20:59.06 | 3:20.16 | 94431 | 109446
8 | 24:19.22 | 4:05.10 | 109447 | 127831
9 | 28:24.32 | 3:25.51 | 127832 | 143257
10 | 31:50.08 | 4:25.12 | 143258 | 163144
11 | 36:15.20 | 4:00.10 | 163145 | 181154


Range status and errors

Selected range

Filename E:\MUSIC\S-Tool - Tolerance 0 (KICP-1883).wav

Peak level 97.3 %
Extraction speed 3.1 X
Range quality 100.0 %
Test CRC E748A203
Copy CRC E748A203
Copy OK

No errors occurred


AccurateRip summary

Track 1 not present in database
Track 2 not present in database
Track 3 not present in database
Track 4 not present in database
Track 5 not present in database
Track 6 not present in database
Track 7 not present in database
Track 8 not present in database
Track 9 not present in database
Track 10 not present in database
Track 11 not present in database

None of the tracks are present in the AccurateRip database

End of status report

==== Log checksum E72A581395FD33B4650249A8CFF612EEA5807C76369DC8224FC24894A09AA4F5 ====

S-Tool - Tolerance 0 (2017) {Japanese Edition}


All thanks go to HaRD

>>> My Blog <<<

DOWNLOAD: