Subcategories

Scorpions - Best Of Rockers 'n' Ballads (1989) [Club Edition]

Posted By: Andi_Deris
Scorpions - Best Of Rockers 'n' Ballads (1989) [Club Edition]

Scorpions - Best Of Rockers 'n' Ballads (1989) [Club Edition]
EAC Rip | FLAC: Image+Cue+Log | MP3 CBR 320 kbps | Scans
362 Mb | 128 Mb | 30 Mb | Time: 55:07
PolyGram Records, Inc. | P2-42002
Hard Rock, Heavy Metal

Best of Rockers 'n' Ballads is the Scorpions 5th compilation album, released in 1989. The record features several rare or completely unreleased tracks: "Hey You", from the group's Animal Magnetism sessions; the re-recorded "long version" of "Is There Anybody There?"; and a cover ofThe Who's "I Can't Explain", which was also included on that same year's Stairway to Heaven/Highway to Hell charity compilation album. Best of Rockers 'n' Ballads reached platinum status in the USA.

Scorpions - Best Of Rockers 'n' Ballads (1989) [Club Edition]




Track Listing

01. Rock You Like A Hurricane (04:13)
02. I Can't Explain (03:22)
03. Still Loving You (06:28)
04. Big City Nights (04:10)
05. Love Drive (04:52)
06. Holiday (06:47)
07. Blackout (03:50)
08. Rhythm Of Love (03:49)
09. No One Like You (03:57)
10. You Give Me All I Need (03:40)
11. Hey You (04:29)
12. The Zoo (05:31)

Produced by Dieter Dierks, except "I Can't Explain" by Bruce Fairbairn

The Band

• Klaus Meine - vocals
• Matthias Jabs - guitar
• Rudolf Schenker - rhythm guitar
• Francis Buchholz - bass
• Herman Rarebell - drums

Notes

1st Press / AAD
Made in U.S.A.
CRC


Exact Audio Copy V1.0 beta 3 from 29. August 2011

Отчёт EAC об извлечении, выполненном 13. января 2012, 19:16

Scorpions / Best Of Rockers 'n' Ballads (P2-42002)

Дисковод: Optiarc DVD RW AD-5170A Adapter: 0 ID: 0

Режим чтения : Достоверность
Использование точного потока : Да
Отключение кэша аудио : Да
Использование указателей C2 : Нет

Коррекция смещения при чтении : 48
Способность читать области Lead-in и Lead-out : Нет
Заполнение пропущенных сэмплов тишиной : Да
Удаление блоков с тишиной в начале и конце : Нет
При вычислениях CRC использовались нулевые сэмплы : Да
Интерфейс : Встроенный Win32-интерфейс для Win NT/2000

Выходной формат : Внутренние WAV-операции
Формат сэмплов : 44.100 Гц; 16 бит; стерео


TOC извлечённого CD

Трек | Старт | Длительность | Начальный сектор | Конечный сектор
––––––––––––––––––––––––––––––––––-
1 | 0:00.00 | 4:12.50 | 0 | 18949
2 | 4:12.50 | 3:21.70 | 18950 | 34094
3 | 7:34.45 | 6:27.40 | 34095 | 63159
4 | 14:02.10 | 4:09.47 | 63160 | 81881
5 | 18:11.57 | 4:52.03 | 81882 | 103784
6 | 23:03.60 | 6:46.45 | 103785 | 134279
7 | 29:50.30 | 3:50.00 | 134280 | 151529
8 | 33:40.30 | 3:48.67 | 151530 | 168696
9 | 37:29.22 | 3:57.08 | 168697 | 186479
10 | 41:26.30 | 3:39.60 | 186480 | 202964
11 | 45:06.15 | 4:29.17 | 202965 | 223156
12 | 49:35.32 | 5:30.45 | 223157 | 247951


Характеристики диапазона извлечения и сообщения об ошибках

Выбранный диапазон

Имя файла D:\Scorpions\1989 - Best Of Rockers'N Ballads\1989 - Best Of Rockers 'n' Ballads (P2-42002).wav

Пиковый уровень 99.9 %
Скорость извлечения 3.6 X
Качество диапазона 99.8 %
CRC теста 7D910F5E
CRC копии 7D910F5E
Копирование… OK

Ошибок не произошло


AccurateRip: сводка

Трек 1 : извлечено точно (доверие 14) [E2E839B7] (AR v1)
Трек 2 : извлечено точно (доверие 13) [0394C6A6] (AR v1)
Трек 3 : извлечено точно (доверие 14) [18622CFA] (AR v1)
Трек 4 : извлечено точно (доверие 15) [E0391F27] (AR v1)
Трек 5 : извлечено точно (доверие 13) [71633668] (AR v1)
Трек 6 : извлечено точно (доверие 13) [EF41C8DC] (AR v1)
Трек 7 : извлечено точно (доверие 14) [0093F182] (AR v1)
Трек 8 : извлечено точно (доверие 15) [38445782] (AR v1)
Трек 9 : извлечено точно (доверие 15) [704B7C3F] (AR v1)
Трек 10 : извлечено точно (доверие 13) [7BCDFEE9] (AR v1)
Трек 11 : извлечено точно (доверие 13) [FFC520D6] (AR v1)
Трек 12 : извлечено точно (доверие 15) [D1496A68] (AR v1)

Все треки извлечены точно

Конец отчёта


Many thanks to the original uploader: mewzik


Contraband 1991 Contraband [Japan 1st Press]

Doogie White 2011 As Yet Untitled
Doogie White & La Paz 2012 Granite [Digipak]
Doogie White & La Paz 2013 The Dark And The Light [Digipak]
Doogie White & La Paz 2016 Shut Up And Rawk [Digipak]

The Michael Schenker Group 1980 The Michael Schenker Group [Expanded & Remastered, Japanese Ed. 2000]
The Michael Schenker Group 1981 MSG [Japan 1st Press, 1986]
The Michael Schenker Group 1981 MSG [Expanded & Remastered, Japanese Ed. 2000]
The Michael Schenker Group 1982 Assault Attack [Japan 1st Press, 1986]
The Michael Schenker Group 1982 Assault Attack [Japan (mini LP) 2000]
The Michael Schenker Group 1982 One Night At Budokan (Live) [Japan 1st Press, 1986]
The Michael Schenker Group 1983 Built To Destroy [Expanded & Remastered, Japanese Ed. 2000]
The Michael Schenker Group 1984 Rock Will Never Die (Live) [Japan 1st Press, 1987]
The Michael Schenker Group 2010 The 30th Anniversary Concert: Live In Tokyo [Japanese Ed.] 2CD
The Michael Schenker Group 2012 The Chrysalis Years (1980-1984) [5CD Box Set]

Michael Schenker Group 1996 Written In The Sand [Japanese Ed.]
Michael Schenker Group 1999 The Unforgiven
Michael Schenker Group 1999 The Unforgiven [Japanese Ed.]
Michael Schenker Group 2001 Be Aware Of Scorpions [Japanese Ed.]

Michael Schenker 2010 Instrumental Intensity

Michael Schenker's Temple Of Rock 2013 Bridge The Gap [Deluxe Ed.]
Michael Schenker's Temple Of Rock 2013 Bridge The Gap [Japanese Ed.]

McAuley Schenker Group 1987 Perfect Timing [Japan 1st Press]
McAuley Schenker Group 1987 Perfect Timing [Expanded & Remastered, Japanese Ed. 2000]
McAuley Schenker Group 1989 Save Yourself [Japan 1st Press]
McAuley Schenker Group 1989 Save Yourself [Expanded & Remastered, Japanese Ed. 2000]
McAuley Schenker Group 1991 M.S.G. [Japan 1st Press]
McAuley Schenker Group 1991 M.S.G. [Japanese Ed. 2000]
McAuley Schenker Group 1992 Nightmare: The Acoustic M.S.G. [Japanese Ed. 2000]

Robin McAuley 1999 Business As Usual [Japanese Ed.]

Schenker-Pattison Summit 2004 The Endless Jam
Schenker-Pattison Summit 2005 The Endless Jam Continues

Schugar/Schenker 2003 Under Construction [Japanese Ed. 2009]

Scorpions 1972 Action (titled: Lonesome Crow) [Released 1992]
Scorpions 1974 Fly To The Rainbow [Japan (mini LP) 2007]
Scorpions 1975 In Trance [Japan (mini LP) 2007]
Scorpions 1976 Virgin Killer [Japan (mini LP) 2007]
Scorpions 1977 Taken By Force [Japanese Ed. 1989]
Scorpions 1978 Tokyo Tapes (Japanese Ed. 1995) [2CD]
Scorpions 1979 Lovedrive [Remastered 1997]
Scorpions 1980 Animal Magnetism [Japan 1st Press, 1989]
Scorpions 1982 Blackout [Japan 1st Press, 1989]
Scorpions 1984 Love At First Sting [Remastered 1997]
Scorpions 1985 World Wide Live [Japanese Ed. 2002]
Scorpions 1988 Savage Amusement [Japanese Ed. 2002]
Scorpions 2007 Live At Wacken Open Air 2006 [DVD]
Scorpions 2011 Live 2011: Get Your Sting & Blackout [2CD]
Scorpions 2015 Return To Forever [Japan, Blu-spec CD2]
Scorpions 2015 Return To Forever [Limited 50th Anniversary Collector's Box] 3CD

UFO 1977 Lights Out [Japan 1st Press, 1989]
UFO 1982 Mechanix [Japan 1st Press, 1992]
UFO 1985 Misdemeanor [Japan 1st Press, 1992]
UFO 2014 The Complete Studio Albums 1974-1986 [10CD Box Set]
UFO 2015 A Conspiracy Of Stars [Limited Ed. Digipak]




Password: pass