Tags
Language
Tags

Scorpions - Wind Of Change (Compilation) (1991) [Japan 1st Press]

Posted By: Andi_Deris
Scorpions - Wind Of Change (Compilation) (1991) [Japan 1st Press]

Scorpions - Wind Of Change (Compilation) (1991) [Japan 1st Press]
EAC Rip | FLAC: Image+Cue+Log | MP3 CBR 320 kbps | Scans
262 Mb | 91 Mb | 42 Mb | Time: 39:36
Mercury/Nippon Phonogram Co., Ltd. | PHCR-2093
Hard Rock, Heavy Metal

SCORPIONS - Wind Of Change (1991 Japanese-only 8-track compilation PICTURE CD album including three live tracks - The Zoo, Big City Nights and Holiday, plus Russian Version of Wind Of Change. "Wind of Change" was the perfect song at the perfect moment for Scorpions - a lighter-waving ballad whose lyrics captured the zeitgeist at a time of immense political upheaval, and became an anthem for the end of the Cold War in the bargain. With estimated sales of 14 million copies sold worldwide, "Wind of Change" is one of the best-selling singles of all time.

Scorpions - Wind Of Change (Compilation) (1991) [Japan 1st Press]




Track Listing

01. Wind Of Change (05:15)
02. Send Me An Angel (04:35)
03. Restless Nights (05:49)
04. I Can't Explain (03:24)
05. The Zoo (Live) (07:55)
06. Big City Nights (Live) (05:16)
07. Holiday (Live) (03:38)
08. Wind Of Change (Russian Version) (03:43)

Produced by Keith Olsen and Scorpions (1, 2, 3)
Produced by Bruce Fairbairn (4)

Exact Audio Copy V1.0 beta 3 from 29. August 2011

Отчёт EAC об извлечении, выполненном 13. октября 2014, 21:38

Scorpions / Wind Of Change

Дисковод: PIONEER DVD-RW DVR-220L Adapter: 0 ID: 0

Режим чтения : Достоверность
Использование точного потока : Да
Отключение кэша аудио : Да
Использование указателей C2 : Нет

Коррекция смещения при чтении : 6
Способность читать области Lead-in и Lead-out : Нет
Заполнение пропущенных сэмплов тишиной : Да
Удаление блоков с тишиной в начале и конце : Нет
При вычислениях CRC использовались нулевые сэмплы : Да
Интерфейс : Встроенный Win32-интерфейс для Win NT/2000

Выходной формат : Внутренние WAV-операции
Формат сэмплов : 44.100 Гц; 16 бит; стерео


TOC извлечённого CD

Трек | Старт | Длительность | Начальный сектор | Конечный сектор
––––––––––––––––––––––––––––––––––-
1 | 0:00.37 | 5:15.03 | 37 | 23664
2 | 5:15.40 | 4:34.70 | 23665 | 44284
3 | 9:50.35 | 5:49.15 | 44285 | 70474
4 | 15:39.50 | 3:24.22 | 70475 | 85796
5 | 19:03.72 | 7:54.63 | 85797 | 121409
6 | 26:58.60 | 5:16.20 | 121410 | 145129
7 | 32:15.05 | 3:38.27 | 145130 | 161506
8 | 35:53.32 | 3:42.45 | 161507 | 178201


Характеристики диапазона извлечения и сообщения об ошибках

Выбранный диапазон

Имя файла D:\! Tracker\Music\Scorpions\Scorpions Collection by mewzik (2)\1991 - Wind Of Change\1991 - Wind Of Change.wav

Пиковый уровень 98.5 %
Скорость извлечения 6.6 X
Качество диапазона 100.0 %
CRC теста F571B76E
CRC копии F571B76E
Копирование… OK

Ошибок не произошло


AccurateRip: сводка

Трек 1 : извлечено точно (доверие 8) [55BF967B] (AR v2)
Трек 2 : извлечено точно (доверие 8) [5CAC1F15] (AR v2)
Трек 3 : извлечено точно (доверие 8) [3EB045EF] (AR v2)
Трек 4 : извлечено точно (доверие 8) [E9DFC4E3] (AR v2)
Трек 5 : извлечено точно (доверие 8) [7B3C2BC8] (AR v2)
Трек 6 : извлечено точно (доверие 8) [F802C8A3] (AR v2)
Трек 7 : извлечено точно (доверие 8) [7D2838EF] (AR v2)
Трек 8 : извлечено точно (доверие 8) [4985623C] (AR v2)

Все треки извлечены точно

Конец отчёта


Many thanks to the original uploader: mewzik


Contraband 1991 Contraband [Japan 1st Press]

Doogie White 2011 As Yet Untitled
Doogie White & La Paz 2012 Granite [Digipak]
Doogie White & La Paz 2013 The Dark And The Light [Digipak]
Doogie White & La Paz 2016 Shut Up And Rawk [Digipak]

The Michael Schenker Group 198...Remastered, Japanese Ed. 2000]
The Michael Schenker Group 1981 MSG [Japan 1st Press, 1986]
The Michael Schenker Group 198...Remastered, Japanese Ed. 2000]
The Michael Schenker Group 1982 Assault Attack [Japan 1st Press, 1986]
The Michael Schenker Group 1982 Assault Attack [Japan (mini LP) 2000]
The Michael Schenker Group 198...(Live) [Japan 1st Press, 1986]
The Michael Schenker Group 198...Remastered, Japanese Ed. 2000]
The Michael Schenker Group 198...(Live) [Japan 1st Press, 1987]
The Michael Schenker Group 201...ve In Tokyo [Japanese Ed.] 2CD
The Michael Schenker Group 201...ears (1980-1984) [5CD Box Set]

Michael Schenker Group 1996 Written In The Sand [Japanese Ed.]
Michael Schenker Group 1999 The Unforgiven
Michael Schenker Group 1999 The Unforgiven [Japanese Ed.]
Michael Schenker Group 2001 Be Aware Of Scorpions [Japanese Ed.]

Michael Schenker 2010 Instrumental Intensity

Michael Schenker's Temple Of Rock 2013 Bridge The Gap [Deluxe Ed.]
Michael Schenker's Temple Of Rock 2013 Bridge The Gap [Japanese Ed.]

McAuley Schenker Group 1987 Perfect Timing [Japan 1st Press]
McAuley Schenker Group 1987 Pe...Remastered, Japanese Ed. 2000]
McAuley Schenker Group 1989 Save Yourself [Japan 1st Press]
McAuley Schenker Group 1989 Sa...Remastered, Japanese Ed. 2000]
McAuley Schenker Group 1991 M.S.G. [Japan 1st Press]
McAuley Schenker Group 1991 M.S.G. [Japanese Ed. 2000]
McAuley Schenker Group 1992 Ni...tic M.S.G. [Japanese Ed. 2000]

Robin McAuley 1999 Business As Usual [Japanese Ed.]

Schenker-Pattison Summit 2004 The Endless Jam
Schenker-Pattison Summit 2005 The Endless Jam Continues

Schugar/Schenker 2003 Under Construction [Japanese Ed. 2009]

Scorpions 1972 Action (titled: Lonesome Crow) [Released 1992]
Scorpions 1974 Fly To The Rainbow [Japan (mini LP) 2007]
Scorpions 1975 In Trance [Japan (mini LP) 2007]
Scorpions 1976 Virgin Killer [Japan (mini LP) 2007]
Scorpions 1977 Taken By Force [Japanese Ed. 1989]
Scorpions 1978 Tokyo Tapes (Japanese Ed. 1995) [2CD]
Scorpions 1979 Lovedrive [Remastered 1997]
Scorpions 1980 Animal Magnetism [Japan 1st Press, 1989]
Scorpions 1982 Blackout [Japan 1st Press, 1989]
Scorpions 1984 Love At First Sting [Remastered 1997]
Scorpions 1985 World Wide Live [Japanese Ed. 2002]
Scorpions 1988 Savage Amusement [Japanese Ed. 2002]
Scorpions 1989 Best Of Rockers 'n' Ballads [Club Edition]
Scorpions 1990 Crazy World [Japan 1st Press]
Scorpions 2007 Live At Wacken Open Air 2006 [DVD]
Scorpions 2011 Live 2011: Get Your Sting & Blackout [2CD]
Scorpions 2015 Return To Forever [Japan, Blu-spec CD2]
Scorpions 2015 Return To Forev...niversary Collector's Box] 3CD

UFO 1977 Lights Out [Japan 1st Press, 1989]
UFO 1982 Mechanix [Japan 1st Press, 1992]
UFO 1985 Misdemeanor [Japan 1st Press, 1992]
UFO 2014 The Complete Studio Albums 1974-1986 [10CD Box Set]
UFO 2015 A Conspiracy Of Stars [Limited Ed. Digipak]




Password: pass