Subcategories

Siouxsie And The Banshees - Downside Up: B-Sides & Rarities (2004) 4CD Box Set [Re-Up]

Posted By: Designol
Siouxsie And The Banshees - Downside Up: B-Sides & Rarities (2004) 4CD Box Set [Re-Up]

Siouxsie And The Banshees - Downside Up: B-Sides & Rarities (2004) 4CD Box Set
EAC | FLAC | Tracks (Cue&Log) ~ 1.45 Gb | Mp3 (CBR320) ~ 529 Mb | Scans ~ 470 Mb
Post-Punk, New Wave, Punk, Goth Rock | Label: Polydor/Universal | # 982 182-3 | 03:50:11

55 tracks on 4 CDs, all digitally remastered, featuring 34 tracks on CD for the first time, including The Thorn EP. 76-page booklet with an introduction by Siouxsie and full track annotation by all 3 band members plus full lyrics for all B-sides, printed for the first time. Sleevenotes by Mark Paytress. Packaged in a three panel fold-out digi-sleeve housed in carboard slipcase.

Siouxsie And The Banshees - Downside Up: B-Sides & Rarities (2004) 4CD Box Set [Re-Up]

A long time ago, back in late '80s or so, CD box sets were unleashed upon the music-buying public. Box sets like the Led Zeppelin box or Aerosmith's Pandora's Box were mostly hits affairs, with a few rarities (B-sides, live tracks, demos) to entice both fan and newcomer. In later years, however, a new concept in anthologizing a band's career came to the multi-disc format: the B-side box set. This new and more complete way of packaging the lesser-known moments of a long-running band walks a fine line between a treasure trove of great material with better sound on a better format and just plain overkill, the kind of collection that no one but the most rabid fan would care about. In the case of Downside Up, Siouxsie and the Banshees' contribution to the box set world, it's a little bit of both. On the one hand, there are not many newcomers to the band who need to hear the chaotic sound sculpture of "(There's A) Planet in My Kitchen," much less four discs of totally unfamiliar music. On the other hand, it would be a shame to miss out on some incredibly great music, albeit rather experimental and, at times, difficult. The first disc, especially, is loaded with what could arguably be some of the Banshees' finest moments. The rocking cover of T. Rex's "20th Century Boy," the better (and somewhat more fitting in German) than the original English version "Mettageisen (Metal Postcard)," "Drop Dead/Celebration," "Eve White/Eve Black," and the synth-based "Snap Dash Snap" are more than enough reason to invest in Downside Up. From then on, it gets a bit spotty, but the quality is still evident. Any band that is able to stay together for 20 years is going to have some weak moments. Over time Siouxsie and the Banshees would put their more experimental side to rest on album and single releases, but it didn't disappear completely. While some of discs two and three are a bit more straightforward than the earlier stuff, the experiments and lesser-known tracks such as "She's Cuckoo," "Mechanical Eyes," and "El Dia de los Muertos" are better than some of what ended up on the full-lengths. Disc four, however, does not play into the chronology of the rest of the set. Rather, it is the first official CD appearance of The Thorn EP, which was originally released in 1984. Here the band re-recorded some of its best early songs in a more updated and orchestral light. "Overground" especially takes on a whole new life as a strings-driven piece. So what's the final verdict on Downside Up? Does anyone really need "(There's A) Planet in My Kitchen"? No, not really, but the amount of killer well outweighs the filler here. It may be a bit much to invest, but for a moderate to rabid fan, it's damn worth it. Simply put, it's a collection of great songs from a great band, and that's what really matters.

Review by Chris True, Allmusic.com

Siouxsie And The Banshees - Downside Up: B-Sides & Rarities (2004) 4CD Box Set [Re-Up]



Tracklist:

CD1:

01. Voices (On The Air) (05:33)
02. 20th Century Boy (02:00)
03. Pulled to Bits (03:25)
04. Mittageisen (Metal Postcard) (04:10)
05. Drop Dead / Celebration (04:25)
06. Eve White / Eve Black (03:04)
07. Red Over White (04:36)
08. Follow The Sun (02:49)
09. Slap Dash Snap (03:42)
10. Supernatural Thing (04:26)
11. Congo Conga (04:15)
12. Coal Mind (03:32)
13. We Fall (03:39)
14. Cannibal Roses (04:30)
15. Obsession II (03:52)
16. A Sleeping Rain (04:19)
17. Il Est Ne - Le Divin Enfant (02:32)

CD2:

01. Tattoo (03:30)
02. (There's A) Planet In My Kitchen (05:23)
03. Let Go (03:37)
04. The Humming Wires (04:23)
05. I Promise (04:38)
06. Throw Them to the Lions (04:51)
07. An Execution (03:50)
08. The Quarterdrawing of the Dog (04:55)
09. Lullaby (03:32)
10. Umbrella (04:14)
11. Shooting Sun (04:44)
12. Sleepwalking (On The High Wire) (05:11)
13. She Cracked (03:07)
14. She's Cuckoo (04:15)
15. Something Blue (03:56)
16. The Whole Price of Blood (03:54)
17. Mechanical Eyes (03:36)

CD3:

01. False Face (02:51)
02. Catwalk (04:57)
03. Something Wicked (This Way Comes) (04:21)
04. Are You Still Dying Darling? (04:44)
05. El Dia De Los Muertos (03:38)
06. Sunless (04:27)
07. Staring Back (03:16)
08. Return (05:03)
09. Spiral Twist (03:55)
10. Sea Of Light (04:35)
11. I Could Be Again (04:31)
12. Hothead (03:31)
13. B Side Ourselves (03:48)
14. Swimming Horses - Live (04:41)
15. All Tomorrow's Parties - Live (06:12)
16. Hang Me High (06:05)
17. Black Sun (03:10)

CD4 - The Thorn EP:

01. Overground (03:53)
02. Voices (On The Air) (05:26)
03. Placebo Effect (04:37)
04. Red Over White (05:43)


Exact Audio Copy V0.99 prebeta 4 from 23. January 2008

EAC extraction logfile from 16. August 2009, 19:04

Siouxsie and the Banshees / Downside Up - Disc 1

Used drive : HL-DT-STDVDRAM GSA-T20N Adapter: 1 ID: 0

Read mode : Secure
Utilize accurate stream : Yes
Defeat audio cache : Yes
Make use of C2 pointers : No

Read offset correction : 667
Overread into Lead-In and Lead-Out : No
Fill up missing offset samples with silence : Yes
Delete leading and trailing silent blocks : No
Null samples used in CRC calculations : Yes
Used interface : Native Win32 interface for Win NT & 2000
Gap handling : Appended to previous track

Used output format : User Defined Encoder
Selected bitrate : 1024 kBit/s
Quality : High
Add ID3 tag : No
Command line compressor : C:\Program Files\FLAC\flac.exe
Additional command line options : -8 -V -T "ARTIST=%a" -T "TITLE=%t" -T "ALBUM=%g" -T "DATE=%y" -T "TRACKNUMBER=%n" -T "GENRE=%m" -T "COMMENT=EAC FLAC -8" %s


TOC of the extracted CD

Track | Start | Length | Start sector | End sector
––––––––––––––––––––––––––––-
1 | 0:00.00 | 5:33.62 | 0 | 25036
2 | 5:33.62 | 1:59.70 | 25037 | 34031
3 | 7:33.57 | 3:25.68 | 34032 | 49474
4 | 10:59.50 | 4:10.01 | 49475 | 68225
5 | 15:09.51 | 4:25.63 | 68226 | 88163
6 | 19:35.39 | 3:04.48 | 88164 | 102011
7 | 22:40.12 | 4:36.15 | 102012 | 122726
8 | 27:16.27 | 2:49.27 | 122727 | 135428
9 | 30:05.54 | 3:42.12 | 135429 | 152090
10 | 33:47.66 | 4:26.30 | 152091 | 172070
11 | 38:14.21 | 4:15.17 | 172071 | 191212
12 | 42:29.38 | 3:32.19 | 191213 | 207131
13 | 46:01.57 | 3:39.31 | 207132 | 223587
14 | 49:41.13 | 4:30.31 | 223588 | 243868
15 | 54:11.44 | 3:52.36 | 243869 | 261304
16 | 58:04.05 | 4:19.10 | 261305 | 280739
17 | 62:23.15 | 2:32.13 | 280740 | 292152


Track 1

Filename C:\Siouxsie & The Banshees - Downside Up (2004) [FLAC] {Polydor, 982 182-3}\Disc 1\01 - Voices _ On The Air.wav

Pre-gap length 0:00:02.00

Peak level 94.6 %
Track quality 100.0 %
Test CRC 2134A5A0
Copy CRC 2134A5A0
Accurately ripped (confidence 13) [E5CC6397]
Copy OK

Track 2

Filename C:\Siouxsie & The Banshees - Downside Up (2004) [FLAC] {Polydor, 982 182-3}\Disc 1\02 - 20th Century Boy.wav

Pre-gap length 0:00:00.77

Peak level 97.3 %
Track quality 100.0 %
Test CRC E7F2C35A
Copy CRC E7F2C35A
Accurately ripped (confidence 13) [9A76DB9C]
Copy OK

Track 3

Filename C:\Siouxsie & The Banshees - Downside Up (2004) [FLAC] {Polydor, 982 182-3}\Disc 1\03 - Pulled to Bits.wav

Pre-gap length 0:00:01.41

Peak level 95.3 %
Track quality 100.0 %
Test CRC F055F869
Copy CRC F055F869
Accurately ripped (confidence 12) [6D0B9635]
Copy OK

Track 4

Filename C:\Siouxsie & The Banshees - Downside Up (2004) [FLAC] {Polydor, 982 182-3}\Disc 1\04 - Mittageisen _ Metal Postcard.wav

Pre-gap length 0:00:01.77

Peak level 98.0 %
Track quality 100.0 %
Test CRC DC7DC049
Copy CRC DC7DC049
Accurately ripped (confidence 12) [7850892F]
Copy OK

Track 5

Filename C:\Siouxsie & The Banshees - Downside Up (2004) [FLAC] {Polydor, 982 182-3}\Disc 1\05 - Drop Dead - Celebration.wav

Pre-gap length 0:00:01.69

Peak level 98.4 %
Track quality 100.0 %
Test CRC 82078947
Copy CRC 82078947
Accurately ripped (confidence 12) [D9096994]
Copy OK

Track 6

Filename C:\Siouxsie & The Banshees - Downside Up (2004) [FLAC] {Polydor, 982 182-3}\Disc 1\06 - Eve White - Eve Black.wav

Pre-gap length 0:00:01.65

Peak level 96.5 %
Track quality 99.9 %
Test CRC A81A09EE
Copy CRC A81A09EE
Accurately ripped (confidence 12) [C2DBB857]
Copy OK

Track 7

Filename C:\Siouxsie & The Banshees - Downside Up (2004) [FLAC] {Polydor, 982 182-3}\Disc 1\07 - Red Over White.wav

Pre-gap length 0:00:01.73

Peak level 96.2 %
Track quality 100.0 %
Test CRC 33D4D05E
Copy CRC 33D4D05E
Accurately ripped (confidence 12) [A0A6BF34]
Copy OK

Track 8

Filename C:\Siouxsie & The Banshees - Downside Up (2004) [FLAC] {Polydor, 982 182-3}\Disc 1\08 - Follow The Sun.wav

Pre-gap length 0:00:01.65

Peak level 99.0 %
Track quality 99.9 %
Test CRC 99C1BD5D
Copy CRC 99C1BD5D
Accurately ripped (confidence 12) [4E35064C]
Copy OK

Track 9

Filename C:\Siouxsie & The Banshees - Downside Up (2004) [FLAC] {Polydor, 982 182-3}\Disc 1\09 - Slap Dash Snap.wav

Pre-gap length 0:00:01.65

Peak level 93.6 %
Track quality 99.9 %
Test CRC D13258E0
Copy CRC D13258E0
Accurately ripped (confidence 11) [ABE3C0D4]
Copy OK

Track 10

Filename C:\Siouxsie & The Banshees - Downside Up (2004) [FLAC] {Polydor, 982 182-3}\Disc 1\10 - Supernatural Thing.wav

Pre-gap length 0:00:01.73

Peak level 97.6 %
Track quality 100.0 %
Test CRC B0811BC3
Copy CRC B0811BC3
Accurately ripped (confidence 11) [9BF5EDDB]
Copy OK

Track 11

Filename C:\Siouxsie & The Banshees - Downside Up (2004) [FLAC] {Polydor, 982 182-3}\Disc 1\11 - Congo Conga.wav

Pre-gap length 0:00:01.77

Peak level 97.7 %
Track quality 100.0 %
Test CRC 927EF6BF
Copy CRC 927EF6BF
Accurately ripped (confidence 12) [92763EA1]
Copy OK

Track 12

Filename C:\Siouxsie & The Banshees - Downside Up (2004) [FLAC] {Polydor, 982 182-3}\Disc 1\12 - Coal Mind.wav

Pre-gap length 0:00:01.77

Peak level 98.5 %
Track quality 100.0 %
Test CRC 6E890C0D
Copy CRC 6E890C0D
Accurately ripped (confidence 13) [41E81355]
Copy OK

Track 13

Filename C:\Siouxsie & The Banshees - Downside Up (2004) [FLAC] {Polydor, 982 182-3}\Disc 1\13 - We Fall.wav

Pre-gap length 0:00:00.77

Peak level 99.3 %
Track quality 100.0 %
Test CRC 309ECC8D
Copy CRC 309ECC8D
Accurately ripped (confidence 13) [EA938052]
Copy OK

Track 14

Filename C:\Siouxsie & The Banshees - Downside Up (2004) [FLAC] {Polydor, 982 182-3}\Disc 1\14 - Cannibal Roses.wav

Pre-gap length 0:00:00.77

Peak level 97.1 %
Track quality 100.0 %
Test CRC E5D829B0
Copy CRC E5D829B0
Accurately ripped (confidence 13) [E01D0BC1]
Copy OK

Track 15

Filename C:\Siouxsie & The Banshees - Downside Up (2004) [FLAC] {Polydor, 982 182-3}\Disc 1\15 - Obsession II.wav

Pre-gap length 0:00:00.77

Peak level 97.4 %
Track quality 100.0 %
Test CRC 98639D67
Copy CRC 98639D67
Accurately ripped (confidence 13) [612A3726]
Copy OK

Track 16

Filename C:\Siouxsie & The Banshees - Downside Up (2004) [FLAC] {Polydor, 982 182-3}\Disc 1\16 - A Sleeping Rain.wav

Pre-gap length 0:00:00.77

Peak level 96.8 %
Track quality 100.0 %
Test CRC 7D3ED271
Copy CRC 7D3ED271
Accurately ripped (confidence 12) [A47781E3]
Copy OK

Track 17

Filename C:\Siouxsie & The Banshees - Downside Up (2004) [FLAC] {Polydor, 982 182-3}\Disc 1\17 - Il Est Ne - Le Divin Enfant.wav

Pre-gap length 0:00:00.77

Peak level 93.6 %
Track quality 100.0 %
Test CRC 60AD2E72
Copy CRC 60AD2E72
Accurately ripped (confidence 13) [E43A0C72]
Copy OK


All tracks accurately ripped

No errors occurred

End of status report

foobar2000 1.2 / Dynamic Range Meter 1.1.1
log date: 2014-01-24 23:16:46

––––––––––––––––––––––––––––––––––––––––
Analyzed: Siouxsie and the Banshees / Downside Up - Disc 1
––––––––––––––––––––––––––––––––––––––––

DR Peak RMS Duration Track
––––––––––––––––––––––––––––––––––––––––
DR11 -0.48 dB -14.95 dB 5:34 01-Voices _ On The Air
DR9 -0.23 dB -11.23 dB 2:00 02-20th Century Boy
DR9 -0.41 dB -11.16 dB 3:26 03-Pulled to Bits
DR8 -0.17 dB -9.86 dB 4:10 04-Mittageisen _ Metal Postcard
DR8 -0.14 dB -10.09 dB 4:26 05-Drop Dead - Celebration
DR8 -0.30 dB -11.51 dB 3:05 06-Eve White - Eve Black
DR12 -0.34 dB -13.78 dB 4:36 07-Red Over White
DR8 -0.08 dB -10.52 dB 2:49 08-Follow The Sun
DR10 -0.57 dB -15.42 dB 3:42 09-Slap Dash Snap
DR10 -0.21 dB -11.87 dB 4:26 10-Supernatural Thing
DR9 -0.20 dB -11.95 dB 4:15 11-Congo Conga
DR9 -0.13 dB -11.45 dB 3:32 12-Coal Mind
DR11 -0.05 dB -13.32 dB 3:39 13-We Fall
DR9 -0.25 dB -11.19 dB 4:30 14-Cannibal Roses
DR14 -0.22 dB -18.65 dB 3:52 15-Obsession II
DR11 -0.28 dB -12.39 dB 4:19 16-A Sleeping Rain
DR10 -0.57 dB -12.98 dB 2:32 17-Il Est Ne - Le Divin Enfant
––––––––––––––––––––––––––––––––––––––––

Number of tracks: 17
Official DR value: DR10

Samplerate: 44100 Hz
Channels: 2
Bits per sample: 16
Bitrate: 848 kbps
Codec: FLAC
================================================================================


Exact Audio Copy V0.99 prebeta 4 from 23. January 2008

EAC extraction logfile from 16. August 2009, 19:54

Siouxsie And The Banshees / Downside Up - Disc 2

Used drive : HL-DT-STDVDRAM GSA-T20N Adapter: 1 ID: 0

Read mode : Secure
Utilize accurate stream : Yes
Defeat audio cache : Yes
Make use of C2 pointers : No

Read offset correction : 667
Overread into Lead-In and Lead-Out : No
Fill up missing offset samples with silence : Yes
Delete leading and trailing silent blocks : No
Null samples used in CRC calculations : Yes
Used interface : Native Win32 interface for Win NT & 2000
Gap handling : Appended to previous track

Used output format : User Defined Encoder
Selected bitrate : 1024 kBit/s
Quality : High
Add ID3 tag : No
Command line compressor : C:\Program Files\FLAC\flac.exe
Additional command line options : -8 -V -T "ARTIST=%a" -T "TITLE=%t" -T "ALBUM=%g" -T "DATE=%y" -T "TRACKNUMBER=%n" -T "GENRE=%m" -T "COMMENT=EAC FLAC -8" %s


TOC of the extracted CD

Track | Start | Length | Start sector | End sector
––––––––––––––––––––––––––––-
1 | 0:00.00 | 3:30.11 | 0 | 15760
2 | 3:30.11 | 5:23.03 | 15761 | 39988
3 | 8:53.14 | 3:37.00 | 39989 | 56263
4 | 12:30.14 | 4:23.08 | 56264 | 75996
5 | 16:53.22 | 4:38.47 | 75997 | 96893
6 | 21:31.69 | 4:51.32 | 96894 | 118750
7 | 26:23.26 | 3:50.57 | 118751 | 136057
8 | 30:14.08 | 4:55.16 | 136058 | 158198
9 | 35:09.24 | 3:32.62 | 158199 | 174160
10 | 38:42.11 | 4:14.06 | 174161 | 193216
11 | 42:56.17 | 4:44.66 | 193217 | 214582
12 | 47:41.08 | 5:10.71 | 214583 | 237903
13 | 52:52.04 | 3:07.33 | 237904 | 251961
14 | 55:59.37 | 4:15.63 | 251962 | 271149
15 | 60:15.25 | 3:56.36 | 271150 | 288885
16 | 64:11.61 | 3:54.18 | 288886 | 306453
17 | 68:06.04 | 3:36.30 | 306454 | 322683


Track 1

Filename C:\Siouxsie & The Banshees - Downside Up (2004) [FLAC] {Polydor, 982 182-3}\Disc 2\01 - Tattoo.wav

Pre-gap length 0:00:02.00

Peak level 97.1 %
Track quality 100.0 %
Test CRC A6A542D9
Copy CRC A6A542D9
Accurately ripped (confidence 10) [EE80AED2]
Copy OK

Track 2

Filename C:\Siouxsie & The Banshees - Downside Up (2004) [FLAC] {Polydor, 982 182-3}\Disc 2\02 - There's A_ Planet In My Kitchen.wav

Pre-gap length 0:00:00.77

Peak level 95.8 %
Track quality 100.0 %
Test CRC 2D8C187A
Copy CRC 2D8C187A
Accurately ripped (confidence 10) [CEC23C98]
Copy OK

Track 3

Filename C:\Siouxsie & The Banshees - Downside Up (2004) [FLAC] {Polydor, 982 182-3}\Disc 2\03 - Let Go.wav

Pre-gap length 0:00:00.77

Peak level 94.2 %
Track quality 100.0 %
Test CRC E03D2C22
Copy CRC E03D2C22
Accurately ripped (confidence 10) [E7032B82]
Copy OK

Track 4

Filename C:\Siouxsie & The Banshees - Downside Up (2004) [FLAC] {Polydor, 982 182-3}\Disc 2\04 - The Humming Wires.wav

Pre-gap length 0:00:00.77

Peak level 96.2 %
Track quality 100.0 %
Test CRC 9DEA3765
Copy CRC 9DEA3765
Accurately ripped (confidence 10) [9505EE76]
Copy OK

Track 5

Filename C:\Siouxsie & The Banshees - Downside Up (2004) [FLAC] {Polydor, 982 182-3}\Disc 2\05 - I Promise.wav

Pre-gap length 0:00:00.77

Peak level 99.2 %
Track quality 99.9 %
Test CRC 2CFBA4E9
Copy CRC 2CFBA4E9
Accurately ripped (confidence 10) [0A6C296F]
Copy OK

Track 6

Filename C:\Siouxsie & The Banshees - Downside Up (2004) [FLAC] {Polydor, 982 182-3}\Disc 2\06 - Throw Them to the Lions.wav

Pre-gap length 0:00:00.77

Peak level 97.4 %
Track quality 100.0 %
Test CRC 0BA13136
Copy CRC 0BA13136
Accurately ripped (confidence 10) [7389AEEB]
Copy OK

Track 7

Filename C:\Siouxsie & The Banshees - Downside Up (2004) [FLAC] {Polydor, 982 182-3}\Disc 2\07 - An Execution.wav

Pre-gap length 0:00:00.77

Peak level 98.0 %
Track quality 99.9 %
Test CRC 2D9BF7FB
Copy CRC 2D9BF7FB
Accurately ripped (confidence 10) [7E0BA680]
Copy OK

Track 8

Filename C:\Siouxsie & The Banshees - Downside Up (2004) [FLAC] {Polydor, 982 182-3}\Disc 2\08 - The Quarterdrawing of the Dog.wav

Pre-gap length 0:00:00.77

Peak level 96.5 %
Track quality 99.9 %
Test CRC 07CE793A
Copy CRC 07CE793A
Accurately ripped (confidence 10) [94A21759]
Copy OK

Track 9

Filename C:\Siouxsie & The Banshees - Downside Up (2004) [FLAC] {Polydor, 982 182-3}\Disc 2\09 - Lullaby.wav

Pre-gap length 0:00:00.77

Peak level 94.8 %
Track quality 99.9 %
Test CRC BBE36B9B
Copy CRC BBE36B9B
Accurately ripped (confidence 10) [7CDF8C43]
Copy OK

Track 10

Filename C:\Siouxsie & The Banshees - Downside Up (2004) [FLAC] {Polydor, 982 182-3}\Disc 2\10 - Umbrella.wav

Pre-gap length 0:00:00.77

Peak level 99.7 %
Track quality 100.0 %
Test CRC 21718FED
Copy CRC 21718FED
Accurately ripped (confidence 10) [A346C73C]
Copy OK

Track 11

Filename C:\Siouxsie & The Banshees - Downside Up (2004) [FLAC] {Polydor, 982 182-3}\Disc 2\11 - Shooting Sun.wav

Pre-gap length 0:00:00.77

Peak level 97.0 %
Track quality 100.0 %
Test CRC 732C9FB4
Copy CRC 732C9FB4
Accurately ripped (confidence 10) [91A9E65A]
Copy OK

Track 12

Filename C:\Siouxsie & The Banshees - Downside Up (2004) [FLAC] {Polydor, 982 182-3}\Disc 2\12 - Sleepwalking _ on the High Wire.wav

Pre-gap length 0:00:00.77

Peak level 98.6 %
Track quality 100.0 %
Test CRC 0EA20D8E
Copy CRC 0EA20D8E
Accurately ripped (confidence 10) [94E458C4]
Copy OK

Track 13

Filename C:\Siouxsie & The Banshees - Downside Up (2004) [FLAC] {Polydor, 982 182-3}\Disc 2\13 - She Cracked.wav

Pre-gap length 0:00:00.77

Peak level 96.1 %
Track quality 100.0 %
Test CRC 92B3633C
Copy CRC 92B3633C
Accurately ripped (confidence 9) [CD66CC71]
Copy OK

Track 14

Filename C:\Siouxsie & The Banshees - Downside Up (2004) [FLAC] {Polydor, 982 182-3}\Disc 2\14 - She's Cuckoo.wav

Pre-gap length 0:00:00.25

Peak level 96.8 %
Track quality 100.0 %
Test CRC FD5B352F
Copy CRC FD5B352F
Accurately ripped (confidence 9) [FEBD3B99]
Copy OK

Track 15

Filename C:\Siouxsie & The Banshees - Downside Up (2004) [FLAC] {Polydor, 982 182-3}\Disc 2\15 - Something Blue.wav

Pre-gap length 0:00:00.73

Peak level 79.5 %
Track quality 100.0 %
Test CRC 397ED62B
Copy CRC 397ED62B
Accurately ripped (confidence 10) [2BEC5F3B]
Copy OK

Track 16

Filename C:\Siouxsie & The Banshees - Downside Up (2004) [FLAC] {Polydor, 982 182-3}\Disc 2\16 - The Whole Price of Blood.wav

Pre-gap length 0:00:00.73

Peak level 97.5 %
Track quality 100.0 %
Test CRC BC395FDB
Copy CRC BC395FDB
Accurately ripped (confidence 9) [5D4283C5]
Copy OK

Track 17

Filename C:\Siouxsie & The Banshees - Downside Up (2004) [FLAC] {Polydor, 982 182-3}\Disc 2\17 - Mechanical Eyes.wav

Pre-gap length 0:00:00.28

Peak level 95.8 %
Track quality 100.0 %
Test CRC 95CB755D
Copy CRC 95CB755D
Accurately ripped (confidence 9) [BA6E62C1]
Copy OK


All tracks accurately ripped

No errors occurred

End of status report

foobar2000 1.2 / Dynamic Range Meter 1.1.1
log date: 2014-01-24 23:17:13

––––––––––––––––––––––––––––––––––––––––
Analyzed: Siouxsie And The Banshees / Downside Up - Disc 2
––––––––––––––––––––––––––––––––––––––––

DR Peak RMS Duration Track
––––––––––––––––––––––––––––––––––––––––
DR10 -0.25 dB -12.42 dB 3:30 01-Tattoo
DR10 -0.37 dB -12.94 dB 5:23 02-There's A_ Planet In My Kitchen
DR11 -0.52 dB -13.83 dB 3:37 03-Let Go
DR11 -0.33 dB -12.57 dB 4:23 04-The Humming Wires
DR9 -0.07 dB -11.27 dB 4:39 05-I Promise
DR10 -0.22 dB -12.30 dB 4:51 06-Throw Them to the Lions
DR10 -0.17 dB -13.43 dB 3:51 07-An Execution
DR9 -0.30 dB -10.61 dB 4:55 08-The Quarterdrawing of the Dog
DR9 -0.46 dB -12.94 dB 3:33 09-Lullaby
DR10 -0.02 dB -11.91 dB 4:14 10-Umbrella
DR9 -0.26 dB -11.21 dB 4:45 11-Shooting Sun
DR9 -0.12 dB -10.80 dB 5:11 12-Sleepwalking _ on the High Wire
DR9 -0.34 dB -11.02 dB 3:07 13-She Cracked
DR11 -0.28 dB -14.20 dB 4:16 14-She's Cuckoo
DR11 -1.99 dB -16.08 dB 3:56 15-Something Blue
DR12 -0.21 dB -14.15 dB 3:54 16-The Whole Price of Blood
DR8 -0.37 dB -10.32 dB 3:36 17-Mechanical Eyes
––––––––––––––––––––––––––––––––––––––––

Number of tracks: 17
Official DR value: DR10

Samplerate: 44100 Hz
Channels: 2
Bits per sample: 16
Bitrate: 951 kbps
Codec: FLAC
================================================================================


Exact Audio Copy V0.99 prebeta 4 from 23. January 2008

EAC extraction logfile from 16. August 2009, 20:47

Siouxsie and the Banshees / Downside Up - Disc 3

Used drive : HL-DT-STDVDRAM GSA-T20N Adapter: 1 ID: 0

Read mode : Secure
Utilize accurate stream : Yes
Defeat audio cache : Yes
Make use of C2 pointers : No

Read offset correction : 667
Overread into Lead-In and Lead-Out : No
Fill up missing offset samples with silence : Yes
Delete leading and trailing silent blocks : No
Null samples used in CRC calculations : Yes
Used interface : Native Win32 interface for Win NT & 2000
Gap handling : Appended to previous track

Used output format : User Defined Encoder
Selected bitrate : 1024 kBit/s
Quality : High
Add ID3 tag : No
Command line compressor : C:\Program Files\FLAC\flac.exe
Additional command line options : -8 -V -T "ARTIST=%a" -T "TITLE=%t" -T "ALBUM=%g" -T "DATE=%y" -T "TRACKNUMBER=%n" -T "GENRE=%m" -T "COMMENT=EAC FLAC -8" %s


TOC of the extracted CD

Track | Start | Length | Start sector | End sector
––––––––––––––––––––––––––––-
1 | 0:00.00 | 2:51.61 | 0 | 12885
2 | 2:51.61 | 4:57.52 | 12886 | 35212
3 | 7:49.38 | 4:21.18 | 35213 | 54805
4 | 12:10.56 | 4:44.64 | 54806 | 76169
5 | 16:55.45 | 3:38.15 | 76170 | 92534
6 | 20:33.60 | 4:27.63 | 92535 | 112622
7 | 25:01.48 | 3:16.41 | 112623 | 127363
8 | 28:18.14 | 5:03.52 | 127364 | 150140
9 | 33:21.66 | 3:55.45 | 150141 | 167810
10 | 37:17.36 | 4:35.21 | 167811 | 188456
11 | 41:52.57 | 4:31.02 | 188457 | 208783
12 | 46:23.59 | 3:31.22 | 208784 | 224630
13 | 49:55.06 | 3:48.10 | 224631 | 241740
14 | 53:43.16 | 4:41.35 | 241741 | 262850
15 | 58:24.51 | 6:12.30 | 262851 | 290780
16 | 64:37.06 | 6:05.45 | 290781 | 318200
17 | 70:42.51 | 3:10.44 | 318201 | 332494


Track 1

Filename C:\Siouxsie & The Banshees - Downside Up (2004) [FLAC] {Polydor, 982 182-3}\Disc 3\01 - False Face.wav

Pre-gap length 0:00:02.00

Peak level 97.7 %
Track quality 100.0 %
Test CRC FCD1E257
Copy CRC FCD1E257
Accurately ripped (confidence 10) [BD0B8D89]
Copy OK

Track 2

Filename C:\Siouxsie & The Banshees - Downside Up (2004) [FLAC] {Polydor, 982 182-3}\Disc 3\02 - Catwalk.wav

Pre-gap length 0:00:00.77

Peak level 96.0 %
Track quality 100.0 %
Test CRC C0551E45
Copy CRC C0551E45
Accurately ripped (confidence 10) [7708BAEC]
Copy OK

Track 3

Filename C:\Siouxsie & The Banshees - Downside Up (2004) [FLAC] {Polydor, 982 182-3}\Disc 3\03 - Something Wicked _ This Way Comes.wav

Pre-gap length 0:00:00.77

Peak level 93.9 %
Track quality 100.0 %
Test CRC A5F1F1E9
Copy CRC A5F1F1E9
Accurately ripped (confidence 10) [D9C5F82F]
Copy OK

Track 4

Filename C:\Siouxsie & The Banshees - Downside Up (2004) [FLAC] {Polydor, 982 182-3}\Disc 3\04 - Are You Still Dying Darling_.wav

Pre-gap length 0:00:00.77

Peak level 97.7 %
Track quality 100.0 %
Test CRC 258B4EFF
Copy CRC 258B4EFF
Accurately ripped (confidence 10) [DC0782E8]
Copy OK

Track 5

Filename C:\Siouxsie & The Banshees - Downside Up (2004) [FLAC] {Polydor, 982 182-3}\Disc 3\05 - El Dia De Los Muertos.wav

Pre-gap length 0:00:00.77

Peak level 92.7 %
Track quality 100.0 %
Test CRC DC374837
Copy CRC DC374837
Accurately ripped (confidence 10) [8ABA3BA8]
Copy OK

Track 6

Filename C:\Siouxsie & The Banshees - Downside Up (2004) [FLAC] {Polydor, 982 182-3}\Disc 3\06 - Sunless.wav

Pre-gap length 0:00:00.28

Peak level 92.2 %
Track quality 100.0 %
Test CRC CA60115E
Copy CRC CA60115E
Accurately ripped (confidence 10) [E17D0618]
Copy OK

Track 7

Filename C:\Siouxsie & The Banshees - Downside Up (2004) [FLAC] {Polydor, 982 182-3}\Disc 3\07 - Staring Back.wav

Pre-gap length 0:00:01.18

Peak level 90.5 %
Track quality 99.9 %
Test CRC EE3B2640
Copy CRC EE3B2640
Accurately ripped (confidence 10) [BE3168E1]
Copy OK

Track 8

Filename C:\Siouxsie & The Banshees - Downside Up (2004) [FLAC] {Polydor, 982 182-3}\Disc 3\08 - Return.wav

Peak level 92.7 %
Track quality 100.0 %
Test CRC C4F76337
Copy CRC C4F76337
Accurately ripped (confidence 10) [567E61AF]
Copy OK

Track 9

Filename C:\Siouxsie & The Banshees - Downside Up (2004) [FLAC] {Polydor, 982 182-3}\Disc 3\09 - Spiral Twist.wav

Pre-gap length 0:00:01.26

Peak level 90.9 %
Track quality 100.0 %
Test CRC 924180E9
Copy CRC 924180E9
Accurately ripped (confidence 10) [223915C5]
Copy OK

Track 10

Filename C:\Siouxsie & The Banshees - Downside Up (2004) [FLAC] {Polydor, 982 182-3}\Disc 3\10 - Sea Of Light.wav

Pre-gap length 0:00:00.26

Peak level 90.9 %
Track quality 99.9 %
Test CRC 47B37E23
Copy CRC 47B37E23
Accurately ripped (confidence 10) [7A6E57BD]
Copy OK

Track 11

Filename C:\Siouxsie & The Banshees - Downside Up (2004) [FLAC] {Polydor, 982 182-3}\Disc 3\11 - I Could Be Again.wav

Pre-gap length 0:00:00.28

Peak level 91.1 %
Track quality 100.0 %
Test CRC C55BD6BB
Copy CRC C55BD6BB
Accurately ripped (confidence 10) [BE4B1965]
Copy OK

Track 12

Filename C:\Siouxsie & The Banshees - Downside Up (2004) [FLAC] {Polydor, 982 182-3}\Disc 3\12 - Hothead.wav

Pre-gap length 0:00:00.77

Peak level 85.7 %
Track quality 100.0 %
Test CRC 4E56507A
Copy CRC 4E56507A
Accurately ripped (confidence 9) [EDC7175A]
Copy OK

Track 13

Filename C:\Siouxsie & The Banshees - Downside Up (2004) [FLAC] {Polydor, 982 182-3}\Disc 3\13 - B Side Ourselves.wav

Pre-gap length 0:00:00.77

Peak level 91.2 %
Track quality 99.9 %
Test CRC 437463AF
Copy CRC 437463AF
Accurately ripped (confidence 9) [00D0F15E]
Copy OK

Track 14

Filename C:\Siouxsie & The Banshees - Downside Up (2004) [FLAC] {Polydor, 982 182-3}\Disc 3\14 - Swimming Horses - Live.wav

Pre-gap length 0:00:00.94

Peak level 92.5 %
Track quality 100.0 %
Test CRC 83A1D1E5
Copy CRC 83A1D1E5
Accurately ripped (confidence 9) [5B286928]
Copy OK

Track 15

Filename C:\Siouxsie & The Banshees - Downside Up (2004) [FLAC] {Polydor, 982 182-3}\Disc 3\15 - All Tomorrow's Parties - Live.wav

Pre-gap length 0:00:00.26

Peak level 92.6 %
Track quality 100.0 %
Test CRC F230A435
Copy CRC F230A435
Accurately ripped (confidence 10) [C27EA436]
Copy OK

Track 16

Filename C:\Siouxsie & The Banshees - Downside Up (2004) [FLAC] {Polydor, 982 182-3}\Disc 3\16 - Hang Me High.wav

Pre-gap length 0:00:00.26

Peak level 92.3 %
Track quality 99.9 %
Test CRC B42B98F0
Copy CRC B42B98F0
Accurately ripped (confidence 10) [C229B6A8]
Copy OK

Track 17

Filename C:\Siouxsie & The Banshees - Downside Up (2004) [FLAC] {Polydor, 982 182-3}\Disc 3\17 - Black Sun.wav

Pre-gap length 0:00:00.28

Peak level 92.6 %
Track quality 100.0 %
Test CRC F30A6D2C
Copy CRC F30A6D2C
Accurately ripped (confidence 10) [53200C4F]
Copy OK


All tracks accurately ripped

No errors occurred

End of status report

foobar2000 1.2 / Dynamic Range Meter 1.1.1
log date: 2014-01-24 23:17:35

––––––––––––––––––––––––––––––––––––––––
Analyzed: Siouxsie and the Banshees / Downside Up - Disc 3
––––––––––––––––––––––––––––––––––––––––

DR Peak RMS Duration Track
––––––––––––––––––––––––––––––––––––––––
DR10 -0.20 dB -11.70 dB 2:52 01-False Face
DR10 -0.35 dB -11.57 dB 4:58 02-Catwalk
DR12 -0.54 dB -16.25 dB 4:21 03-Something Wicked _ This Way Comes
DR10 -0.20 dB -13.59 dB 4:45 04-Are You Still Dying Darling_
DR7 -0.65 dB -10.49 dB 3:38 05-El Dia De Los Muertos
DR7 -0.70 dB -8.91 dB 4:28 06-Sunless
DR8 -0.86 dB -10.96 dB 3:17 07-Staring Back
DR7 -0.65 dB -10.20 dB 5:04 08-Return
DR9 -0.83 dB -12.33 dB 3:56 09-Spiral Twist
DR11 -0.82 dB -13.59 dB 4:35 10-Sea Of Light
DR9 -0.80 dB -11.72 dB 4:31 11-I Could Be Again
DR10 -1.34 dB -12.83 dB 3:31 12-Hothead
DR9 -0.80 dB -13.70 dB 3:48 13-B Side Ourselves
DR9 -0.67 dB -12.29 dB 4:41 14-Swimming Horses - Live
DR9 -0.66 dB -11.71 dB 6:12 15-All Tomorrow's Parties - Live
DR8 -0.69 dB -9.83 dB 6:06 16-Hang Me High
DR8 -0.67 dB -10.83 dB 3:11 17-Black Sun
––––––––––––––––––––––––––––––––––––––––

Number of tracks: 17
Official DR value: DR9

Samplerate: 44100 Hz
Channels: 2
Bits per sample: 16
Bitrate: 989 kbps
Codec: FLAC
================================================================================


Exact Audio Copy V0.99 prebeta 4 from 23. January 2008

EAC extraction logfile from 16. August 2009, 21:08

Siouxsie and the Banshees / Downside Up - Disc 4 - The Thorn EP

Used drive : HL-DT-STDVDRAM GSA-T20N Adapter: 1 ID: 0

Read mode : Secure
Utilize accurate stream : Yes
Defeat audio cache : Yes
Make use of C2 pointers : No

Read offset correction : 667
Overread into Lead-In and Lead-Out : No
Fill up missing offset samples with silence : Yes
Delete leading and trailing silent blocks : No
Null samples used in CRC calculations : Yes
Used interface : Native Win32 interface for Win NT & 2000
Gap handling : Appended to previous track

Used output format : User Defined Encoder
Selected bitrate : 1024 kBit/s
Quality : High
Add ID3 tag : No
Command line compressor : C:\Program Files\FLAC\flac.exe
Additional command line options : -8 -V -T "ARTIST=%a" -T "TITLE=%t" -T "ALBUM=%g" -T "DATE=%y" -T "TRACKNUMBER=%n" -T "GENRE=%m" -T "COMMENT=EAC FLAC -8" %s


TOC of the extracted CD

Track | Start | Length | Start sector | End sector
––––––––––––––––––––––––––––-
1 | 0:00.00 | 3:53.32 | 0 | 17506
2 | 3:53.32 | 5:26.16 | 17507 | 41972
3 | 9:19.48 | 4:37.15 | 41973 | 62762
4 | 13:56.63 | 5:43.20 | 62763 | 88507


Track 1

Filename C:\Siouxsie & The Banshees - Downside Up (2004) [FLAC] {Polydor, 982 182-3}\Disc 4 - The Thorn EP\01 - Overground.wav

Pre-gap length 0:00:02.00

Peak level 99.2 %
Track quality 99.9 %
Test CRC C190F9B6
Copy CRC C190F9B6
Accurately ripped (confidence 9) [A3813371]
Copy OK

Track 2

Filename C:\Siouxsie & The Banshees - Downside Up (2004) [FLAC] {Polydor, 982 182-3}\Disc 4 - The Thorn EP\02 - Voices _On The Air.wav

Pre-gap length 0:00:00.77

Peak level 96.0 %
Track quality 100.0 %
Test CRC 3E44BDE7
Copy CRC 3E44BDE7
Accurately ripped (confidence 9) [C81F0E3E]
Copy OK

Track 3

Filename C:\Siouxsie & The Banshees - Downside Up (2004) [FLAC] {Polydor, 982 182-3}\Disc 4 - The Thorn EP\03 - Placebo Effect.wav

Pre-gap length 0:00:00.77

Peak level 99.2 %
Track quality 100.0 %
Test CRC AE9A957A
Copy CRC AE9A957A
Accurately ripped (confidence 9) [9C036EB8]
Copy OK

Track 4

Filename C:\Siouxsie & The Banshees - Downside Up (2004) [FLAC] {Polydor, 982 182-3}\Disc 4 - The Thorn EP\04 - Red Over White.wav

Pre-gap length 0:00:00.77

Peak level 98.4 %
Track quality 100.0 %
Test CRC 52D68893
Copy CRC 52D68893
Accurately ripped (confidence 9) [C43A0B33]
Copy OK


All tracks accurately ripped

No errors occurred

End of status report

foobar2000 1.2 / Dynamic Range Meter 1.1.1
log date: 2014-01-24 23:17:41

––––––––––––––––––––––––––––––––––––––––
Analyzed: Siouxsie and the Banshees / Downside Up - Disc 4 - The Thorn EP
––––––––––––––––––––––––––––––––––––––––

DR Peak RMS Duration Track
––––––––––––––––––––––––––––––––––––––––
DR9 -0.07 dB -12.76 dB 3:53 01-Overground
DR10 -0.35 dB -13.43 dB 5:26 02-Voices _On The Air
DR9 -0.06 dB -11.52 dB 4:37 03-Placebo Effect
DR9 -0.14 dB -11.93 dB 5:43 04-Red Over White
––––––––––––––––––––––––––––––––––––––––

Number of tracks: 4
Official DR value: DR9

Samplerate: 44100 Hz
Channels: 2
Bits per sample: 16
Bitrate: 922 kbps
Codec: FLAC
================================================================================

Siouxsie And The Banshees - Downside Up: B-Sides & Rarities (2004) 4CD Box Set [Re-Up]