Subcategories
Tags
Language
Tags

Slave - Original Album Series (2009) 5CD Box Set [Re-Up]

Posted By: Designol
Slave - Original Album Series (2009) 5CD Box Set [Re-Up]

Slave - Original Album Series (2009) 5CD Box Set
EAC | FLAC | Tracks (Cue&Log) ~ 1.23 Gb | Mp3 (CBR320) ~ 455 Mb | Scans ~ 81 Mb
Funk, Urban, Soul, Disco | Label: Atlantic/Rhino | # 8122 79834 1 | Time: 03:18:22

Original Album Series contains the first five albums from the mighty Dayton funk band Slave: Slave (1977), The Hardness of the World (1977), The Concept (1978), Just a Touch of Love (1979), and Stone Jam (1980). Each disc is in a thin cardboard pouch with reproductions of the original front and back sleeve designs. Since the series limits itself to five discs, the band's phenomenal sixth album – Show Time (1981) – couldn't fit, but this is a convenient way to snap up the majority of the output from one of the planet's best funk bands. Not even the two-disc The Definitive Groove Collection covers all the great singles and album cuts featured within this small box.

Review by Andy Kellman, Allmusic.com

Arguably the hottest of the '70s Ohio funk bands, Slave had a great run in the late '70s and early '80s. Trumpeter Steve Washington formed the group in Dayton in 1975. Vocalist Floyd Miller teamed with Tom Lockett Jr, Charlie Bradley, Mark Adams, Mark Hicks, Danny Webster, Orion Wilhoite, Curt Jones, and Tim Dozier. Vocalists Steve Arrington and Starleana Young came aboard in 1978, with Arrington ultimately becoming lead vocalist. Their first big hit was the thumping single "Slide" in 1977 for Cotillion; they remained with that label until 1984. Their best tracks were lyrically simple and at times silly, but the arrangements and rhythms were intense and hypnotic. Other Top Ten R&B hits were "Just a Touch of Love" in 1979, "Watching You" in 1980, and "Snap Shot" in 1981. Young, Washington, and Lockett departed to form Aurra in 1979. Arrington himself left in the early '80s. They added Charles Carter, Delburt Taylor, Sam Carter, Kevin Johnson, and Roger Parker as replacements and continued on, though much less successfully, into the late '80s. They moved to Atlantic for one LP in 1984, then switched to the Atlanta-based Ichiban in 1986 for singles and LPs that were just a shade of the former vibrant Slave sound. Their most recent release was The Funk Strikes Back in 1992. Rhino issued Stellar Funk: The Best of Slave, a first-rate anthology of their finest cuts, in 1994.

Biography by Ron Wynn, Allmusic.com

Slave - Original Album Series (2009) 5CD Box Set [Re-Up]





Slave - Original Album Series (2009) 5CD Box Set [Re-Up]

Slave - Original Album Series (2009) 5CD Box Set [Re-Up]

CD1: Slave - Slave (1977) [Time: 00:44:18]

The debut album from the Ohio-based funk aggregate Slave was a grand success, but resulted in the release of only one single, "Slide." Being the only single released from the album, "Slide" had no problem gaining airplay with its gothic introduction, animated vocals, and rumbling bassline. The funk anthem claimed the number one spot on the Billboard R&B charts inside of 20 weeks. The other cuts on the album continue the aggressive funk assault, but with subtle passion and their own distinctive arrangements. The exception is "Son of Slide," which is identical to the album's big hit, except that it's an instrumental save a brief chorus chant. The only ballad is "The Happiest Days," a sweet soul song arranged in the vein of the Ohio Players with its horns, lead and backing vocals.

Craig Lytle, Allmusic.com

Tracklist:

01. Slide (06:53)
02. Screw Your Wig On Tite (05:34)
03. Party Hardy (03:48)
04. Son Of Slide (05:29)
05. You And Me (06:46)
06. Love Me (04:43)
07. The Happiest Days (05:25)
08. Separated (05:36)


Exact Audio Copy V0.99 prebeta 5 from 4. May 2009

EAC extraction logfile from 8. November 2010, 18:46

Slave / Slave

Used drive : PHILIPS DVDR1628P1 Adapter: 4 ID: 0

Read mode : Secure
Utilize accurate stream : Yes
Defeat audio cache : Yes
Make use of C2 pointers : No

Read offset correction : 618
Overread into Lead-In and Lead-Out : No
Fill up missing offset samples with silence : Yes
Delete leading and trailing silent blocks : No
Null samples used in CRC calculations : Yes
Used interface : Installed external ASPI interface
Gap handling : Appended to previous track

Used output format : User Defined Encoder
Selected bitrate : 128 kBit/s
Quality : High
Add ID3 tag : No
Command line compressor : C:\Program Files\Exact Audio Copy\Flac\flac.exe
Additional command line options : -8 -V -T "ARTIST=%a" -T "TITLE=%t" -T "ALBUM=%g" -T "DATE=%y" -T "TRACKNUMBER=%n" -T "TOTALTRACKS=%x" -T "GENRE=%m" -T "ALBUM ARTIST=%v" -T "ALBUMARTIST=%v" -T "COMMENT=EAC V0.99 prebeta 5, Secure Mode, Test & Copy, Accurat


TOC of the extracted CD

Track | Start | Length | Start sector | End sector
––––––––––––––––––––––––––––-
1 | 0:00.33 | 6:53.45 | 33 | 31052
2 | 6:54.03 | 5:34.47 | 31053 | 56149
3 | 12:28.50 | 3:48.63 | 56150 | 73312
4 | 16:17.38 | 5:29.72 | 73313 | 98059
5 | 21:47.35 | 6:46.43 | 98060 | 128552
6 | 28:34.03 | 4:43.32 | 128553 | 149809
7 | 33:17.35 | 5:25.25 | 149810 | 174209
8 | 38:42.60 | 5:36.43 | 174210 | 199452


Track 1

Filename C:\addis gugsa killed my hdd\01 - Slide.wav

Pre-gap length 0:00:02.44

Peak level 97.2 %
Track quality 100.0 %
Test CRC 4093CCC4
Copy CRC 4093CCC4
Track not present in AccurateRip database
Copy OK

Track 2

Filename C:\addis gugsa killed my hdd\02 - Screw Your Wig On Tite.wav

Pre-gap length 0:00:03.10

Peak level 97.2 %
Track quality 100.0 %
Test CRC 379F8246
Copy CRC 379F8246
Track not present in AccurateRip database
Copy OK

Track 3

Filename C:\addis gugsa killed my hdd\03 - Party Hardy.wav

Pre-gap length 0:00:03.66

Peak level 97.2 %
Track quality 100.0 %
Test CRC 506D5E62
Copy CRC 506D5E62
Track not present in AccurateRip database
Copy OK

Track 4

Filename C:\addis gugsa killed my hdd\04 - Son Of Slide.wav

Pre-gap length 0:00:03.13

Peak level 97.2 %
Track quality 100.0 %
Test CRC 71FBAE45
Copy CRC 71FBAE45
Track not present in AccurateRip database
Copy OK

Track 5

Filename C:\addis gugsa killed my hdd\05 - You And Me.wav

Pre-gap length 0:00:02.73

Peak level 97.2 %
Track quality 100.0 %
Test CRC 06E4B23A
Copy CRC 06E4B23A
Track not present in AccurateRip database
Copy OK

Track 6

Filename C:\addis gugsa killed my hdd\06 - Love Me.wav

Pre-gap length 0:00:02.73

Peak level 97.2 %
Track quality 100.0 %
Test CRC 73CC9B7C
Copy CRC 73CC9B7C
Track not present in AccurateRip database
Copy OK

Track 7

Filename C:\addis gugsa killed my hdd\07 - The Happiest Days.wav

Pre-gap length 0:00:04.36

Peak level 97.2 %
Track quality 100.0 %
Test CRC 1B5E1630
Copy CRC 1B5E1630
Track not present in AccurateRip database
Copy OK

Track 8

Filename C:\addis gugsa killed my hdd\08 - Separated.wav

Pre-gap length 0:00:03.00

Peak level 97.2 %
Track quality 100.0 %
Test CRC E12D2DEC
Copy CRC E12D2DEC
Track not present in AccurateRip database
Copy OK


None of the tracks are present in the AccurateRip database

No errors occurred

End of status report

[CUETools log; Date: 25.02.2015 20:40:25; Version: 2.1.4]
Pregap length 00:00:33.
[CTDB TOCID: Ld5YKTPuWi3mE3XigKDKQ_hurNU-] found.
Track | CTDB Status
1 | (1/1) Accurately ripped
2 | (1/1) Accurately ripped
3 | (1/1) Accurately ripped
4 | (1/1) Accurately ripped
5 | (1/1) Accurately ripped
6 | (1/1) Accurately ripped
7 | (1/1) Accurately ripped
8 | (1/1) Accurately ripped
[AccurateRip ID: 000de52b-005be6e6-750a6308] found.
Track [ CRC | V2 ] Status
01 [f301d3ae|e8bb9f0c] (04+22/26) Accurately ripped
02 [17052933|36c31e3d] (04+22/26) Accurately ripped
03 [c558edc7|77e1e8df] (04+22/26) Accurately ripped
04 [21b04479|43cf0266] (04+22/26) Accurately ripped
05 [1648ffbb|34057251] (04+22/26) Accurately ripped
06 [5436a176|4e1853a4] (04+22/26) Accurately ripped
07 [5f14cf37|2e57c947] (04+22/26) Accurately ripped
08 [20a8ff54|9837070f] (04+22/26) Accurately ripped

Track Peak [ CRC32 ] [W/O NULL] [ LOG ]
– 97,2 [8E14A4AE] [284EFA93]
01 97,2 [4093CCC4] [91641BC3] CRC32
02 97,2 [379F8246] [2651561A] CRC32
03 97,2 [506D5E62] [B1BDE7B7] CRC32
04 97,2 [71FBAE45] [B82D1095] CRC32
05 97,2 [06E4B23A] [C33A1718] CRC32
06 97,2 [73CC9B7C] [729FC3E7] CRC32
07 97,2 [1B5E1630] [29B9203D] CRC32
08 97,2 [E12D2DEC] [BE1A7AF4] CRC32

foobar2000 1.2 / Dynamic Range Meter 1.1.1
log date: 2015-02-25 17:24:36

––––––––––––––––––––––––––––––––––––––––
Analyzed: Slave / Slave
––––––––––––––––––––––––––––––––––––––––

DR Peak RMS Duration Track
––––––––––––––––––––––––––––––––––––––––
DR10 -0.24 dB -12.02 dB 6:54 01-Slide
DR10 -0.24 dB -11.62 dB 5:35 02-Screw Your Wig On Tite
DR9 -0.24 dB -10.85 dB 3:49 03-Party Hardy
DR11 -0.24 dB -12.94 dB 5:30 04-Son Of Slide
DR10 -0.24 dB -11.02 dB 6:47 05-You And Me
DR10 -0.24 dB -11.42 dB 4:43 06-Love Me
DR11 -0.24 dB -13.50 dB 5:25 07-The Happiest Days
DR10 -0.24 dB -11.78 dB 5:37 08-Separated
––––––––––––––––––––––––––––––––––––––––

Number of tracks: 8
Official DR value: DR10

Samplerate: 44100 Hz
Channels: 2
Bits per sample: 16
Bitrate: 950 kbps
Codec: FLAC
================================================================================




Slave - Original Album Series (2009) 5CD Box Set [Re-Up]

Slave - Original Album Series (2009) 5CD Box Set [Re-Up]

CD2: Slave - The Hardness Of The World (1977) [Time: 00:38:49]

As funky as they were, Slave had a distinctive smoothness to their music. Here on their second album, the self-contained ten-member band assembled an engaging mix of songs. This collection featured two releases. The first was "The Party Song." Arranged around a swinging funk track and chanting vocals in unison, group leader Steve Washington invokes a jazzy trumpet interlude. The single peaked on the Billboard R&B charts at number 22 after an unjust ten weeks. The second release was "Baby Sinister," also spiced with that '70s funk sound. While it has a similar arrangement to "The Party Song," it retains more use of the synthesizer. It peaked at #74 after a mere four weeks. While their vocals are not as sharp on most selections, the group compensates with their musical ability and impressive arrangements. "We Can Make Love" is the only ballad on the album, and an outstanding ballad it is. It would be a great addition to any quiet storm format.

Craig Lytle, Allmusic.com

Tracklist:

01. Life Can Be Happy (04:18)
02. The Great American Funk Song (03:54)
03. Can't Get Enough Of You (04:09)
04. Baby Sinister (06:47)
05. The World's On Hard (03:30)
06. The Party Song (04:11)
07. We Can Make Love (05:31)
08. Volcano Rupture (06:26)


Exact Audio Copy V0.99 prebeta 5 from 4. May 2009

EAC extraction logfile from 8. November 2010, 15:48

Slave / The Hardness Of The World

Used drive : PHILIPS DVDR1628P1 Adapter: 4 ID: 0

Read mode : Secure
Utilize accurate stream : Yes
Defeat audio cache : Yes
Make use of C2 pointers : No

Read offset correction : 618
Overread into Lead-In and Lead-Out : No
Fill up missing offset samples with silence : Yes
Delete leading and trailing silent blocks : No
Null samples used in CRC calculations : Yes
Used interface : Installed external ASPI interface
Gap handling : Appended to previous track

Used output format : User Defined Encoder
Selected bitrate : 128 kBit/s
Quality : High
Add ID3 tag : No
Command line compressor : C:\Program Files\Exact Audio Copy\Flac\flac.exe
Additional command line options : -8 -V -T "ARTIST=%a" -T "TITLE=%t" -T "ALBUM=%g" -T "DATE=%y" -T "TRACKNUMBER=%n" -T "TOTALTRACKS=%x" -T "GENRE=%m" -T "ALBUM ARTIST=%v" -T "ALBUMARTIST=%v" -T "COMMENT=EAC V0.99 prebeta 5, Secure Mode, Test & Copy, Accurat


TOC of the extracted CD

Track | Start | Length | Start sector | End sector
––––––––––––––––––––––––––––-
1 | 0:00.00 | 4:18.34 | 0 | 19383
2 | 4:18.34 | 3:54.06 | 19384 | 36939
3 | 8:12.40 | 4:09.37 | 36940 | 55651
4 | 12:22.02 | 6:47.44 | 55652 | 86220
5 | 19:09.46 | 3:30.03 | 86221 | 101973
6 | 22:39.49 | 4:11.37 | 101974 | 120835
7 | 26:51.11 | 5:31.48 | 120836 | 145708
8 | 32:22.59 | 6:26.24 | 145709 | 174682


Track 1

Filename C:\addis gugsa killed my hdd\01 - Life Can Be Happy.wav

Pre-gap length 0:00:02.00

Peak level 100.0 %
Track quality 100.0 %
Test CRC B187EA6F
Copy CRC B187EA6F
Track not present in AccurateRip database
Copy OK

Track 2

Filename C:\addis gugsa killed my hdd\02 - The Great American Funk Song.wav

Peak level 100.0 %
Track quality 99.9 %
Test CRC 592234AC
Copy CRC 592234AC
Track not present in AccurateRip database
Copy OK

Track 3

Filename C:\addis gugsa killed my hdd\03 - Can't Get Enough Of You.wav

Peak level 100.0 %
Track quality 100.0 %
Test CRC 66D28EBD
Copy CRC 66D28EBD
Track not present in AccurateRip database
Copy OK

Track 4

Filename C:\addis gugsa killed my hdd\04 - Baby Sinister.wav

Peak level 100.0 %
Track quality 100.0 %
Test CRC E6D019D1
Copy CRC E6D019D1
Track not present in AccurateRip database
Copy OK

Track 5

Filename C:\addis gugsa killed my hdd\05 - The World's On Hard.wav

Peak level 100.0 %
Track quality 100.0 %
Test CRC 4E02A416
Copy CRC 4E02A416
Track not present in AccurateRip database
Copy OK

Track 6

Filename C:\addis gugsa killed my hdd\06 - The Party Song.wav

Peak level 99.7 %
Track quality 100.0 %
Test CRC 82B8FB34
Copy CRC 82B8FB34
Track not present in AccurateRip database
Copy OK

Track 7

Filename C:\addis gugsa killed my hdd\07 - We Can Make Love.wav

Peak level 100.0 %
Track quality 100.0 %
Test CRC 6C5ED907
Copy CRC 6C5ED907
Track not present in AccurateRip database
Copy OK

Track 8

Filename C:\addis gugsa killed my hdd\08 - Volcano Rupture.wav

Peak level 100.0 %
Track quality 100.0 %
Test CRC 60AFBA7D
Copy CRC 60AFBA7D
Track not present in AccurateRip database
Copy OK


None of the tracks are present in the AccurateRip database

No errors occurred

End of status report

[CUETools log; Date: 25.02.2015 20:40:36; Version: 2.1.4]
[CTDB TOCID: S8V3wnnMFlNU15e_O.iCYBO9_HE-] found.
Track | CTDB Status
1 | (5/6) Accurately ripped
2 | (5/6) Accurately ripped
3 | (5/6) Accurately ripped
4 | (5/6) Accurately ripped
5 | (5/6) Accurately ripped
6 | (5/6) Accurately ripped
7 | (5/6) Accurately ripped
8 | (5/6) Accurately ripped
[AccurateRip ID: 000b5017-004c46a1-5a091908] found.
Track [ CRC | V2 ] Status
01 [e06eb7d4|14daef66] (03+21/24) Accurately ripped
02 [84eb729b|d3f67132] (03+21/24) Accurately ripped
03 [485ac0b8|2b14cd0c] (03+21/24) Accurately ripped
04 [3b32ea49|e9c175ce] (03+20/23) Accurately ripped
05 [7da6d0a9|49c8657a] (03+22/25) Accurately ripped
06 [7afc89a2|88749465] (03+22/25) Accurately ripped
07 [0bbcd360|9a6a1ca7] (03+22/25) Accurately ripped
08 [922a95e8|db8b1894] (03+22/25) Accurately ripped

Track Peak [ CRC32 ] [W/O NULL] [ LOG ]
– 100,0 [CDC9A939] [BFF6B35D]
01 100,0 [B187EA6F] [C2570999] CRC32
02 100,0 [592234AC] [49A32952] CRC32
03 100,0 [66D28EBD] [7C365120] CRC32
04 100,0 [E6D019D1] [4D48DDA5] CRC32
05 100,0 [4E02A416] [A0468224] CRC32
06 99,7 [82B8FB34] [BC717D47] CRC32
07 100,0 [6C5ED907] [48188998] CRC32
08 100,0 [60AFBA7D] [40504332] CRC32

foobar2000 1.2 / Dynamic Range Meter 1.1.1
log date: 2015-02-25 17:24:22

––––––––––––––––––––––––––––––––––––––––
Analyzed: Slave / The Hardness Of The World
––––––––––––––––––––––––––––––––––––––––

DR Peak RMS Duration Track
––––––––––––––––––––––––––––––––––––––––
DR13 0.00 dB -14.86 dB 4:18 01-Life Can Be Happy
DR15 0.00 dB -16.67 dB 3:54 02-The Great American Funk Song
DR15 0.00 dB -16.58 dB 4:09 03-Can't Get Enough Of You
DR14 0.00 dB -16.16 dB 6:48 04-Baby Sinister
DR14 0.00 dB -15.87 dB 3:30 05-The World's On Hard
DR12 -0.02 dB -13.72 dB 4:11 06-The Party Song
DR13 0.00 dB -16.35 dB 5:32 07-We Can Make Love
DR14 0.00 dB -15.45 dB 6:26 08-Volcano Rupture
––––––––––––––––––––––––––––––––––––––––

Number of tracks: 8
Official DR value: DR14

Samplerate: 44100 Hz
Channels: 2
Bits per sample: 16
Bitrate: 822 kbps
Codec: FLAC
================================================================================




Slave - Original Album Series (2009) 5CD Box Set [Re-Up]

Slave - Original Album Series (2009) 5CD Box Set [Re-Up]

CD3: Slave - The Concept (1978) [Time: 00:38:01]

The amazing aspect about bands from Dayton is originality, there's no defining thread or sound to speak of, each group is unique. A short list of Dayton bands include the Ohio Players, Zapp, Lakeside, Sun, and Heatwave. Where's the trademark Dayton sound? Slave may be the most underrated of all, their brand of electronic, funk/soul, techno sound made for great albums. "Stellar Fungk" the title track (yes they spelled funk that way) is stimulating head music, enhanced by brain probing lead guitarist Marc "Drac" Hicks, powerful basslines from Mark Adams, and some ear popping synthesizer work by Carter Bradley. The title The Concept is misleading, the only concept to this fine collection of grooves and funky sounds is getting your boogie on.

Andrew Hamilton, Allmusic.com

Tracklist:

01. Stellar Fungk (08:43)
02. The Way You Love Is Heaven (04:26)
03. Thank You Lord (01:32)
04. Drac Is Back (04:03)
05. We've Got Your Party (04:55)
06. Just Freak (07:59)
07. Coming Soon (06:21)


Exact Audio Copy V0.99 prebeta 5 from 4. May 2009

EAC extraction logfile from 8. November 2010, 21:29

Slave / The Concept

Used drive : PHILIPS DVDR1628P1 Adapter: 4 ID: 0

Read mode : Secure
Utilize accurate stream : Yes
Defeat audio cache : Yes
Make use of C2 pointers : No

Read offset correction : 618
Overread into Lead-In and Lead-Out : No
Fill up missing offset samples with silence : Yes
Delete leading and trailing silent blocks : No
Null samples used in CRC calculations : Yes
Used interface : Installed external ASPI interface
Gap handling : Appended to previous track

Used output format : User Defined Encoder
Selected bitrate : 128 kBit/s
Quality : High
Add ID3 tag : No
Command line compressor : C:\Program Files\Exact Audio Copy\Flac\flac.exe
Additional command line options : -8 -V -T "ARTIST=%a" -T "TITLE=%t" -T "ALBUM=%g" -T "DATE=%y" -T "TRACKNUMBER=%n" -T "TOTALTRACKS=%x" -T "GENRE=%m" -T "ALBUM ARTIST=%v" -T "ALBUMARTIST=%v" -T "COMMENT=EAC V0.99 prebeta 5, Secure Mode, Test & Copy, Accurat


TOC of the extracted CD

Track | Start | Length | Start sector | End sector
––––––––––––––––––––––––––––-
1 | 0:00.00 | 8:43.22 | 0 | 39246
2 | 8:43.22 | 4:26.50 | 39247 | 59246
3 | 13:09.72 | 1:32.46 | 59247 | 66192
4 | 14:42.43 | 4:03.01 | 66193 | 84418
5 | 18:45.44 | 4:55.00 | 84419 | 106543
6 | 23:40.44 | 7:59.07 | 106544 | 142475
7 | 31:39.51 | 6:21.37 | 142476 | 171087


Track 1

Filename C:\addis gugsa killed my hdd\01 - Stellar Fungk.wav

Pre-gap length 0:00:02.00

Peak level 100.0 %
Track quality 100.0 %
Test CRC 76733BB7
Copy CRC 76733BB7
Track not present in AccurateRip database
Copy OK

Track 2

Filename C:\addis gugsa killed my hdd\02 - The Way You Love Is Heaven.wav

Peak level 100.0 %
Track quality 100.0 %
Test CRC 5DF26A7E
Copy CRC 5DF26A7E
Track not present in AccurateRip database
Copy OK

Track 3

Filename C:\addis gugsa killed my hdd\03 - Thank You Lord.wav

Peak level 100.0 %
Track quality 99.8 %
Test CRC E9541914
Copy CRC E9541914
Track not present in AccurateRip database
Copy OK

Track 4

Filename C:\addis gugsa killed my hdd\04 - Drac Is Back.wav

Peak level 100.0 %
Track quality 100.0 %
Test CRC F945BF9E
Copy CRC F945BF9E
Track not present in AccurateRip database
Copy OK

Track 5

Filename C:\addis gugsa killed my hdd\05 - We've Got Your Party.wav

Peak level 100.0 %
Track quality 100.0 %
Test CRC 4164F412
Copy CRC 4164F412
Track not present in AccurateRip database
Copy OK

Track 6

Filename C:\addis gugsa killed my hdd\06 - Just Freak.wav

Peak level 100.0 %
Track quality 100.0 %
Test CRC 85AAE5AE
Copy CRC 85AAE5AE
Track not present in AccurateRip database
Copy OK

Track 7

Filename C:\addis gugsa killed my hdd\07 - Coming Soon.wav

Peak level 100.0 %
Track quality 100.0 %
Test CRC EEA2E78C
Copy CRC EEA2E78C
Track not present in AccurateRip database
Copy OK


None of the tracks are present in the AccurateRip database

No errors occurred

End of status report

[CUETools log; Date: 25.02.2015 20:40:46; Version: 2.1.4]
[CTDB TOCID: LB8RKdoe.LXUiJLiRhXaQ6XXtE4-] found.
Track | CTDB Status
1 | (6/6) Accurately ripped
2 | (6/6) Accurately ripped
3 | (6/6) Accurately ripped
4 | (6/6) Accurately ripped
5 | (6/6) Accurately ripped
6 | (6/6) Accurately ripped
7 | (6/6) Accurately ripped
[AccurateRip ID: 000a361e-003c3f73-5208e907] found.
Track [ CRC | V2 ] Status
01 [4c03f83f|a3fb14de] (04+23/27) Accurately ripped
02 [9c8ec793|330274c2] (04+23/27) Accurately ripped
03 [d7b1a526|3bd68f6b] (04+23/27) Accurately ripped
04 [fd1d7b8d|f856be19] (04+23/27) Accurately ripped
05 [b02f1b97|663ddf22] (04+23/27) Accurately ripped
06 [e5847350|65955379] (04+23/27) Accurately ripped
07 [e939c0e6|b7f75893] (04+23/27) Accurately ripped

Track Peak [ CRC32 ] [W/O NULL] [ LOG ]
– 100,0 [D60E780A] [62916160]
01 100,0 [76733BB7] [C64F2E9C] CRC32
02 100,0 [5DF26A7E] [0FEB4E61] CRC32
03 100,0 [E9541914] [2F87E4E6] CRC32
04 100,0 [F945BF9E] [D345C3C2] CRC32
05 100,0 [4164F412] [56C860E1] CRC32
06 100,0 [85AAE5AE] [EBDE8F95] CRC32
07 100,0 [EEA2E78C] [FAC9FFB5] CRC32

foobar2000 1.2 / Dynamic Range Meter 1.1.1
log date: 2015-02-25 17:24:47

––––––––––––––––––––––––––––––––––––––––
Analyzed: Slave / The Concept
––––––––––––––––––––––––––––––––––––––––

DR Peak RMS Duration Track
––––––––––––––––––––––––––––––––––––––––
DR14 0.00 dB -16.43 dB 8:43 01-Stellar Fungk
DR14 0.00 dB -14.86 dB 4:27 02-The Way You Love Is Heaven
DR15 0.00 dB -17.41 dB 1:33 03-Thank You Lord
DR13 0.00 dB -14.65 dB 4:03 04-Drac Is Back
DR13 0.00 dB -15.47 dB 4:55 05-We've Got Your Party
DR14 0.00 dB -15.88 dB 7:59 06-Just Freak
DR12 0.00 dB -14.28 dB 6:21 07-Coming Soon
––––––––––––––––––––––––––––––––––––––––

Number of tracks: 7
Official DR value: DR14

Samplerate: 44100 Hz
Channels: 2
Bits per sample: 16
Bitrate: 845 kbps
Codec: FLAC
================================================================================




Slave - Original Album Series (2009) 5CD Box Set [Re-Up]

Slave - Original Album Series (2009) 5CD Box Set [Re-Up]

CD4: Slave - Just A Touch Of Love (1979) [Time: 00:36:59]

In 1977, Slave's self-titled debut album (which boasted the number one R&B smash "Slide") earned the Dayton outfit a reputation for playing sweaty, aggressive, in-your-face funk. But when Slave provided its fourth album, Just a Touch of Love, in 1979, it was clear that the Midwesterners were determined to soften their approach. "Funky Lady (Foxy Lady)," "Roots," and the hit title song (all of which boast Steve Arrington on lead vocals) are definitely the work of a smoother, sleeker Slave – and yet, the band still had plenty of grit. This excellent album left no doubt that Slave was still a funk band, although it wasn't as in-your-face as the Slave that gave listeners "Slide" and "Screw Your Wig on Tite" in 1977. Arrington, who first recorded with Slave on 1978's The Concept, played a major role in its evolution – and two other lead vocalists who make important contributions to this LP are Starleana Young and Curt Jones (both of who went on to form Aurra, the group that hit big with "Are You Single" in 1981). Arrington, Young, and Jones weren't original members of Slave, but all of them proved valuable when Slave opted to embrace a smoother style of funk. And all of them do their part to make Just a Touch of Love one of Slave's finest albums.

Alex Henderson, Allmusic.com

Tracklist:

01. Just A Touch Of Love (06:32)
02. Are You Ready For Love (06:05)
03. Funky Lady (Foxy Lady) (04:37)
04. Roots (05:00)
05. Painted Pictures (00:26)
06. Thank You (05:45)
07. Shine (05:05)
08. Warning (03:26)


Exact Audio Copy V0.99 prebeta 5 from 4. May 2009

EAC extraction logfile from 8. November 2010, 14:37

Slave / Just A Touch Of Love

Used drive : PHILIPS DVDR1628P1 Adapter: 4 ID: 0

Read mode : Secure
Utilize accurate stream : Yes
Defeat audio cache : Yes
Make use of C2 pointers : No

Read offset correction : 618
Overread into Lead-In and Lead-Out : No
Fill up missing offset samples with silence : Yes
Delete leading and trailing silent blocks : No
Null samples used in CRC calculations : Yes
Used interface : Installed external ASPI interface
Gap handling : Appended to previous track

Used output format : User Defined Encoder
Selected bitrate : 128 kBit/s
Quality : High
Add ID3 tag : No
Command line compressor : C:\Program Files\Exact Audio Copy\Flac\flac.exe
Additional command line options : -8 -V -T "ARTIST=%a" -T "TITLE=%t" -T "ALBUM=%g" -T "DATE=%y" -T "TRACKNUMBER=%n" -T "TOTALTRACKS=%x" -T "GENRE=%m" -T "ALBUM ARTIST=%v" -T "ALBUMARTIST=%v" -T "COMMENT=EAC V0.99 prebeta 5, Secure Mode, Test & Copy, Accurat


TOC of the extracted CD

Track | Start | Length | Start sector | End sector
––––––––––––––––––––––––––––-
1 | 0:00.00 | 6:32.57 | 0 | 29456
2 | 6:32.57 | 6:05.16 | 29457 | 56847
3 | 12:37.73 | 4:37.11 | 56848 | 77633
4 | 17:15.09 | 5:00.20 | 77634 | 100153
5 | 22:15.29 | 0:26.06 | 100154 | 102109
6 | 22:41.35 | 5:45.50 | 102110 | 128034
7 | 28:27.10 | 5:05.57 | 128035 | 150966
8 | 33:32.67 | 3:26.35 | 150967 | 166451


Track 1

Filename C:\addis gugsa killed my hdd\01 - Just A Touch Of Love.wav

Pre-gap length 0:00:02.00

Peak level 79.5 %
Track quality 100.0 %
Test CRC 9E7A2D68
Copy CRC 9E7A2D68
Accurately ripped (confidence 1) [BDA8A1AC]
Copy OK

Track 2

Filename C:\addis gugsa killed my hdd\02 - Are You Ready For Love.wav

Peak level 83.0 %
Track quality 100.0 %
Test CRC C14DA6AA
Copy CRC C14DA6AA
Accurately ripped (confidence 1) [7E2D9424]
Copy OK

Track 3

Filename C:\addis gugsa killed my hdd\03 - Funky Lady (Foxy Lady).wav

Peak level 81.5 %
Track quality 100.0 %
Test CRC 6076977A
Copy CRC 6076977A
Accurately ripped (confidence 1) [F221E601]
Copy OK

Track 4

Filename C:\addis gugsa killed my hdd\04 - Roots.wav

Peak level 87.8 %
Track quality 100.0 %
Test CRC C6B37605
Copy CRC C6B37605
Accurately ripped (confidence 1) [88FE16DA]
Copy OK

Track 5

Filename C:\addis gugsa killed my hdd\05 - Painted Pictures.wav

Peak level 13.2 %
Track quality 100.0 %
Test CRC 0ABE1B5F
Copy CRC 0ABE1B5F
Accurately ripped (confidence 1) [51D7DE04]
Copy OK

Track 6

Filename C:\addis gugsa killed my hdd\06 - Thank You.wav

Peak level 71.2 %
Track quality 99.9 %
Test CRC DF9DB32F
Copy CRC DF9DB32F
Accurately ripped (confidence 1) [A5DC51F0]
Copy OK

Track 7

Filename C:\addis gugsa killed my hdd\07 - Shine.wav

Peak level 90.6 %
Track quality 100.0 %
Test CRC 92FEFF50
Copy CRC 92FEFF50
Accurately ripped (confidence 1) [CCB1EDA7]
Copy OK

Track 8

Filename C:\addis gugsa killed my hdd\08 - Warning.wav

Peak level 76.6 %
Track quality 100.0 %
Test CRC 5AC61F44
Copy CRC 5AC61F44
Accurately ripped (confidence 1) [C4CC6C21]
Copy OK


All tracks accurately ripped

No errors occurred

End of status report

[CUETools log; Date: 25.02.2015 20:40:57; Version: 2.1.4]
[CTDB TOCID: 8tljssH_kaauyyHpIPAcKus1imU-] found.
Track | CTDB Status
1 | (8/8) Accurately ripped
2 | (8/8) Accurately ripped
3 | (8/8) Accurately ripped
4 | (8/8) Accurately ripped
5 | (8/8) Accurately ripped
6 | (8/8) Accurately ripped
7 | (8/8) Accurately ripped
8 | (8/8) Accurately ripped
[AccurateRip ID: 000c6289-00503132-6508ab08] found.
Track [ CRC | V2 ] Status
01 [bda8a1ac|8e440e99] (04+26/30) Accurately ripped
02 [7e2d9424|f3a32e49] (04+26/30) Accurately ripped
03 [f221e601|0ff5b4ef] (04+26/30) Accurately ripped
04 [88fe16da|05af4d97] (04+26/30) Accurately ripped
05 [51d7de04|2a7a82ee] (04+26/30) Accurately ripped
06 [a5dc51f0|a85b6216] (04+26/30) Accurately ripped
07 [ccb1eda7|76782651] (04+26/30) Accurately ripped
08 [c4cc6c21|e68770fd] (04+26/30) Accurately ripped

Track Peak [ CRC32 ] [W/O NULL] [ LOG ]
– 90,6 [7BAF80CF] [91F7E407]
01 79,5 [9E7A2D68] [3C845A09] CRC32
02 83,0 [C14DA6AA] [40797CD8] CRC32
03 81,5 [6076977A] [5CB29837] CRC32
04 87,8 [C6B37605] [6A38E329] CRC32
05 13,2 [0ABE1B5F] [30427F51] CRC32
06 71,2 [DF9DB32F] [1ACBF2B2] CRC32
07 90,6 [92FEFF50] [D004FCAF] CRC32
08 76,6 [5AC61F44] [481DF642] CRC32

foobar2000 1.2 / Dynamic Range Meter 1.1.1
log date: 2015-02-25 17:24:09

––––––––––––––––––––––––––––––––––––––––
Analyzed: Slave / Just A Touch Of Love
––––––––––––––––––––––––––––––––––––––––

DR Peak RMS Duration Track
––––––––––––––––––––––––––––––––––––––––
DR14 -1.99 dB -17.77 dB 6:33 01-Just A Touch Of Love
DR13 -1.62 dB -16.91 dB 6:05 02-Are You Ready For Love
DR11 -1.77 dB -14.86 dB 4:37 03-Funky Lady (Foxy Lady)
DR13 -1.12 dB -15.56 dB 5:00 04-Roots
DR10 -17.57 dB -31.17 dB 0:26 05-Painted Pictures
DR13 -2.94 dB -19.16 dB 5:46 06-Thank You
DR12 -0.85 dB -14.43 dB 5:06 07-Shine
DR12 -2.31 dB -15.85 dB 3:26 08-Warning
––––––––––––––––––––––––––––––––––––––––

Number of tracks: 8
Official DR value: DR12

Samplerate: 44100 Hz
Channels: 2
Bits per sample: 16
Bitrate: 860 kbps
Codec: FLAC
================================================================================




Slave - Original Album Series (2009) 5CD Box Set [Re-Up]

Slave - Original Album Series (2009) 5CD Box Set [Re-Up]

CD5: Slave - Stone Jam (1980) [Time: 00:40:13]

The funk of the late '70s and early '80s can be divided into two main categories: hardcore funk (Parliament/Funkadelic, Cameo, Rick James, the Gap Band, the Ohio Players) and the type of smoother, so-called "sophisticated funk" associated with Rufus & Chaka Khan, Average White Band, Chic and Teena Marie. Slave first made a name for itself nationally playing the sweatiest, hardest funk, but when singer/drummer Steve Arrington's role in the Dayton, OH outfit increased, Slave shifted to more of a "sophisti-funk" approach. Except for "Sizzlin' Hot" and the title song, there's little on Slave's fifth album, Stone Jam, that can be called hardcore funk. From the laid-back hit "Watching You" to addictive jams like "Dreamin'," "Feel My Love" and "Let's Spend Some Time," this sleeker, consistently melodic Slave is every bit as appealing as the Slave that gave us such aggressive gems as "Slide" and "Screw Your Wig on Tite." Arrington's lead vocals played a major role in the success of this gold album (which Rhino reissued on CD in 1997), and the sexy lead singing of Starleana Young (who would soon make Aurra successful) certainly didn't hurt things either.

Alex Henderson, Allmusic.com

Tracklist:

01. Let's Spend Some Time (04:44)
02. Feel My Love (04:34)
03. Starting Over (04:32)
04. Sizzlin Hot (05:12)
05. Watching You (04:46)
06. Dreamin (04:20)
07. Never Get Away (05:15)
08. Stone Jam (06:46)


Exact Audio Copy V0.99 prebeta 5 from 4. May 2009

EAC extraction logfile from 8. November 2010, 12:31

Slave / Stone Jam

Used drive : PHILIPS DVDR1628P1 Adapter: 4 ID: 0

Read mode : Secure
Utilize accurate stream : Yes
Defeat audio cache : Yes
Make use of C2 pointers : No

Read offset correction : 618
Overread into Lead-In and Lead-Out : No
Fill up missing offset samples with silence : Yes
Delete leading and trailing silent blocks : No
Null samples used in CRC calculations : Yes
Used interface : Installed external ASPI interface
Gap handling : Appended to previous track

Used output format : User Defined Encoder
Selected bitrate : 128 kBit/s
Quality : High
Add ID3 tag : No
Command line compressor : C:\Program Files\Exact Audio Copy\Flac\flac.exe
Additional command line options : -8 -V -T "ARTIST=%a" -T "TITLE=%t" -T "ALBUM=%g" -T "DATE=%y" -T "TRACKNUMBER=%n" -T "TOTALTRACKS=%x" -T "GENRE=%m" -T "ALBUM ARTIST=%v" -T "ALBUMARTIST=%v" -T "COMMENT=EAC V0.99 prebeta 5, Secure Mode, Test & Copy, Accurat


TOC of the extracted CD

Track | Start | Length | Start sector | End sector
––––––––––––––––––––––––––––-
1 | 0:00.00 | 4:44.47 | 0 | 21346
2 | 4:44.47 | 4:34.35 | 21347 | 41931
3 | 9:19.07 | 4:32.18 | 41932 | 62349
4 | 13:51.25 | 5:12.60 | 62350 | 85809
5 | 19:04.10 | 4:46.27 | 85810 | 107286
6 | 23:50.37 | 4:20.65 | 107287 | 126851
7 | 28:11.27 | 5:15.10 | 126852 | 150486
8 | 33:26.37 | 6:46.60 | 150487 | 180996


Track 1

Filename C:\addis gugsa killed my hdd\01 - Let's Spend Some Time.wav

Pre-gap length 0:00:02.00

Peak level 97.2 %
Track quality 100.0 %
Test CRC 8E5FE9F6
Copy CRC 8E5FE9F6
Track not present in AccurateRip database
Copy OK

Track 2

Filename C:\addis gugsa killed my hdd\02 - Feel My Love.wav

Pre-gap length 0:00:04.46

Peak level 97.2 %
Track quality 100.0 %
Test CRC 118355DE
Copy CRC 118355DE
Track not present in AccurateRip database
Copy OK

Track 3

Filename C:\addis gugsa killed my hdd\03 - Starting Over.wav

Pre-gap length 0:00:03.36

Peak level 97.2 %
Track quality 100.0 %
Test CRC 53063420
Copy CRC 53063420
Track not present in AccurateRip database
Copy OK

Track 4

Filename C:\addis gugsa killed my hdd\04 - Sizzlin Hot.wav

Pre-gap length 0:00:04.00

Peak level 97.2 %
Track quality 99.9 %
Test CRC D6B7555C
Copy CRC D6B7555C
Track not present in AccurateRip database
Copy OK

Track 5

Filename C:\addis gugsa killed my hdd\05 - Watching You.wav

Pre-gap length 0:00:03.38

Peak level 97.2 %
Track quality 100.0 %
Test CRC 8740865F
Copy CRC 8740865F
Track not present in AccurateRip database
Copy OK

Track 6

Filename C:\addis gugsa killed my hdd\06 - Dreamin.wav

Pre-gap length 0:00:02.69

Peak level 97.2 %
Track quality 100.0 %
Test CRC 05DC6449
Copy CRC 05DC6449
Track not present in AccurateRip database
Copy OK

Track 7

Filename C:\addis gugsa killed my hdd\07 - Never Get Away.wav

Peak level 97.2 %
Track quality 99.9 %
Test CRC 92B93B7F
Copy CRC 92B93B7F
Track not present in AccurateRip database
Copy OK

Track 8

Filename C:\addis gugsa killed my hdd\08 - Stone Jam.wav

Pre-gap length 0:00:03.42

Peak level 97.2 %
Track quality 99.9 %
Test CRC BFAD2FFE
Copy CRC BFAD2FFE
Track not present in AccurateRip database
Copy OK


None of the tracks are present in the AccurateRip database

No errors occurred

End of status report

[CUETools log; Date: 25.02.2015 20:41:09; Version: 2.1.4]
[CTDB TOCID: pfYbeO7DjcHgXEXoQUp3A0dKryM-] found.
Track | CTDB Status
1 | (5/5) Accurately ripped
2 | (5/5) Accurately ripped
3 | (5/5) Accurately ripped
4 | (5/5) Accurately ripped
5 | (5/5) Accurately ripped
6 | (5/5) Accurately ripped
7 | (5/5) Accurately ripped
8 | (5/5) Accurately ripped
[AccurateRip ID: 000bdb66-004f8568-5f096d08] found.
Track [ CRC | V2 ] Status
01 [7e1bd042|55f00104] (04+20/24) Accurately ripped
02 [95337966|5ac0f721] (04+20/24) Accurately ripped
03 [c9f1a042|8d2d7f9f] (04+20/24) Accurately ripped
04 [0045c71e|b03d7cc8] (04+20/24) Accurately ripped
05 [f6fd1374|dbcd397f] (04+20/24) Accurately ripped
06 [22b8923d|ac7a78b8] (04+20/24) Accurately ripped
07 [872ae324|e807453e] (04+20/24) Accurately ripped
08 [31939042|1cf42d55] (04+20/24) Accurately ripped

Track Peak [ CRC32 ] [W/O NULL] [ LOG ]
– 97,2 [648416B1] [D7020C10]
01 97,2 [8E5FE9F6] [9123203C] CRC32
02 97,2 [118355DE] [AFB43613] CRC32
03 97,2 [53063420] [00C5573E] CRC32
04 97,2 [D6B7555C] [0E2502E0] CRC32
05 97,2 [8740865F] [6D996462] CRC32
06 97,2 [05DC6449] [A479CC33] CRC32
07 97,2 [92B93B7F] [E6F621D7] CRC32
08 97,2 [BFAD2FFE] [3AFD9CFC] CRC32

foobar2000 1.2 / Dynamic Range Meter 1.1.1
log date: 2015-02-25 17:23:58

––––––––––––––––––––––––––––––––––––––––
Analyzed: Slave / Stone Jam
––––––––––––––––––––––––––––––––––––––––

DR Peak RMS Duration Track
––––––––––––––––––––––––––––––––––––––––
DR9 -0.24 dB -11.07 dB 4:45 01-Let's Spend Some Time
DR10 -0.24 dB -11.78 dB 4:34 02-Feel My Love
DR9 -0.24 dB -11.69 dB 4:32 03-Starting Over
DR9 -0.24 dB -11.11 dB 5:13 04-Sizzlin Hot
DR10 -0.24 dB -11.84 dB 4:46 05-Watching You
DR9 -0.24 dB -10.49 dB 4:21 06-Dreamin
DR10 -0.24 dB -12.18 dB 5:15 07-Never Get Away
DR9 -0.24 dB -10.92 dB 6:47 08-Stone Jam
––––––––––––––––––––––––––––––––––––––––

Number of tracks: 8
Official DR value: DR9

Samplerate: 44100 Hz
Channels: 2
Bits per sample: 16
Bitrate: 944 kbps
Codec: FLAC
================================================================================




Slave - Original Album Series (2009) 5CD Box Set [Re-Up]

All thanks to original releaser

More interesting music in My Blog