Subcategories

Stan Getz - The Girl From Ipanema: The Bossa Nova Years (1989) 4 CD Box Set [Re-Up]

Posted By: Designol
Stan Getz - The Girl From Ipanema: The Bossa Nova Years (1989) 4 CD Box Set [Re-Up]

Stan Getz - The Girl From Ipanema: The Bossa Nova Years (1989) 4 CD Box Set
EAC | FLAC | Image (Cue&Log) ~ 1.24 Gb | Mp3 (CBR320) ~ 510 Mb | Scans ~ 49 Mb
Mainstream Jazz, Cool, Bossa Nova | Label: PolyGram/Verve | # 823 611-2 | Time: 03:40:46

This five-LP box set (which has been reissued on CD) contains nearly all of Stan Getz's classic bossa nova sessions, five wonderful yet diverse LPs (Jazz Samba, Big Band Bossa Nova, Jazz Samba Encore, Stan Getz/Laurindo Almedia, and Getz/Gilberto). The cool-toned tenor is heard on his groundbreaking collaboration with guitarist Charlie Byrd (which resulted in the best-selling "Desafinado"), is showcased with a big band arranged by Gary McFarland (introducing "No More Blues" and "One Note Samba"), stars in recordings with guitarists Laurindo Almeida and Luiz Bonfa, and is heard at the famous meeting with composer/pianist Antonio Carlos Jobim, guitarist João Gilberto, and singer Astrud Gilberto, which resulted in the major hit "The Girl From Ipanema." This essential set finishes off with three previously unissued performances from a 1964 Carnegie Hall Concert, concluding with a remake of "The Girl From Ipanema." These recordings stand as proof that it is possible for good music to sell.

Review by Scott Yanow, Allmusic.com

Stan Getz - The Girl From Ipanema: The Bossa Nova Years (1989) 4 CD Box Set [Re-Up]





Stan Getz - The Girl From Ipanema: The Bossa Nova Years (1989) 4 CD Box Set [Re-Up]

CD1 (Time: 01:07:16):


Tracklist:

01. Desafinado (05:52)
02. Samba Dees Days (03:35)
03. O Pato (02:31)
04. Sambe Triste (04:47)
05. Samba De Uma So (06:12)
06. E Luxo So (03:43)
07. Baia (06:44)
08. Manha De Carnival (05:48)
09. Balanco No Samba (03:03)
10. Melancolico (04:42)
11. Entre Amigos (03:00)
12. Chega De Saudade (04:17)
13. Noite Triste (04:58)
14. Samba De Uma Nota So (03:27)
15. Bim Bom (04:30)


Exact Audio Copy V1.0 beta 3 from 29. August 2011

Отчёт EAC об извлечении, выполненном 23. января 2012, 22:02

Stan Getz / The Girl From Ipanema - The Bossa Nova Years (disc 1)

Дисковод: HL-DT-STDVD-RAM GH22NP21 Adapter: 0 ID: 0

Режим чтения : Достоверность
Использование точного потока : Да
Отключение кэша аудио : Да
Использование указателей C2 : Нет

Коррекция смещения при чтении : 102
Способность читать области Lead-in и Lead-out : Нет
Заполнение пропущенных сэмплов тишиной : Да
Удаление блоков с тишиной в начале и конце : Нет
При вычислениях CRC использовались нулевые сэмплы : Да
Интерфейс : Встроенный Win32-интерфейс для Win NT/2000

Выходной формат : Пользовательский кодировщик
Выбранный битрейт : 1024 kBit/s
Качество : Высокий
Добавление ID3-тега : Нет
Утилита сжатия : C:\Program Files\Exact Audio Copy\FLAC\FLAC.EXE
Дополнительные параметры : -8 -V -T "ARTIST=%artist%" -T "TITLE=%title%" -T "ALBUM=%albumtitle%" -T "DATE=%year%" -T "TRACKNUMBER=%tracknr%" -T "GENRE=%genre%" -T "COMMENT=%comment%" %hascover%–picture="%coverfile%"%hascover% %source% -o %dest%


TOC извлечённого CD

Трек | Старт | Длительность | Начальный сектор | Конечный сектор
––––––––––––––––––––––––––––––––––-
1 | 0:00.32 | 5:52.53 | 32 | 26484
2 | 5:53.10 | 3:35.47 | 26485 | 42656
3 | 9:28.57 | 2:31.73 | 42657 | 54054
4 | 12:00.55 | 4:47.32 | 54055 | 75611
5 | 16:48.12 | 6:12.68 | 75612 | 103579
6 | 23:01.05 | 3:43.30 | 103580 | 120334
7 | 26:44.35 | 6:44.15 | 120335 | 150649
8 | 33:28.50 | 5:48.47 | 150650 | 176796
9 | 39:17.22 | 3:03.43 | 176797 | 190564
10 | 42:20.65 | 4:42.10 | 190565 | 211724
11 | 47:03.00 | 3:00.12 | 211725 | 225236
12 | 50:03.12 | 4:17.15 | 225237 | 244526
13 | 54:20.27 | 4:58.25 | 244527 | 266901
14 | 59:18.52 | 3:27.28 | 266902 | 282454
15 | 62:46.05 | 4:30.42 | 282455 | 302746


Характеристики диапазона извлечения и сообщения об ошибках

Выбранный диапазон

Имя файла D:\Раздачи\Stan Getz The Girl From Ipanema - The Bossa Nova Years, (4CD) 1989 (lossless)\disk1\Stan Getz - The Girl From Ipanema - The Bossa Nova Years (disc 1).wav

Пиковый уровень 98.5 %
Скорость извлечения 3.1 X
Качество диапазона 100.0 %
CRC теста 8395C8BB
CRC копии 8395C8BB
Копирование… OK

Ошибок не произошло


AccurateRip: сводка

Трек 1 : извлечено точно (доверие 18) [F2685B40] (AR v1)
Трек 2 : извлечено точно (доверие 18) [9C0F94B3] (AR v1)
Трек 3 : извлечено точно (доверие 17) [1C84D628] (AR v1)
Трек 4 : извлечено точно (доверие 18) [B3383983] (AR v1)
Трек 5 : извлечено точно (доверие 18) [D867B111] (AR v1)
Трек 6 : извлечено точно (доверие 18) [6ED44AB7] (AR v1)
Трек 7 : извлечено точно (доверие 17) [DE6B542E] (AR v1)
Трек 8 : извлечено точно (доверие 18) [6A1A3994] (AR v1)
Трек 9 : извлечено точно (доверие 18) [2BA9539C] (AR v1)
Трек 10 : извлечено точно (доверие 18) [333E118C] (AR v1)
Трек 11 : извлечено точно (доверие 18) [C1026116] (AR v1)
Трек 12 : извлечено точно (доверие 18) [9CC6DF15] (AR v1)
Трек 13 : извлечено точно (доверие 18) [AD113C07] (AR v1)
Трек 14 : извлечено точно (доверие 16) [D88D09FC] (AR v1)
Трек 15 : извлечено точно (доверие 17) [6C56BC71] (AR v1)

Все треки извлечены точно

Конец отчёта

==== Контрольная сумма отчёта 7B6A5D4F81D57D20231BFD4BA20BA8791BAF8BEDA63796959B7893644933071C ====

foobar2000 1.2 / Dynamic Range Meter 1.1.1
log date: 2016-02-12 19:52:29

––––––––––––––––––––––––––––––––––––––––
Analyzed: Stan Getz / The Girl From Ipanema - The Bossa Nova Years (disc 1)
––––––––––––––––––––––––––––––––––––––––

DR Peak RMS Duration Track
––––––––––––––––––––––––––––––––––––––––
DR14 -1.71 dB -18.46 dB 5:53 01-Desafinado
DR11 -2.10 dB -16.10 dB 3:36 02-Samba Dees Days
DR12 -0.22 dB -16.54 dB 2:32 03-O Pato
DR12 -0.46 dB -17.06 dB 4:47 04-Sambe Triste
DR13 -1.29 dB -17.68 dB 6:13 05-Samba De Uma So
DR11 -1.46 dB -16.56 dB 3:43 06-E Luxo So
DR12 -1.24 dB -17.66 dB 6:44 07-Baia
DR13 -0.67 dB -17.28 dB 5:49 08-Manha De Carnival
DR12 -0.31 dB -15.11 dB 3:04 09-Balanco No Samba
DR12 -0.20 dB -16.10 dB 4:42 10-Melancolico
DR13 -1.11 dB -17.19 dB 3:00 11-Entre Amigos
DR12 -1.30 dB -16.19 dB 4:17 12-Chega De Saudade
DR12 -0.26 dB -17.51 dB 4:58 13-Noite Triste
DR10 -1.78 dB -14.95 dB 3:27 14-Samba De Uma Nota So
DR11 -0.13 dB -13.92 dB 4:31 15-Bim Bom
––––––––––––––––––––––––––––––––––––––––

Number of tracks: 15
Official DR value: DR12

Samplerate: 44100 Hz
Channels: 2
Bits per sample: 16
Bitrate: 816 kbps
Codec: FLAC
================================================================================




Stan Getz - The Girl From Ipanema: The Bossa Nova Years (1989) 4 CD Box Set [Re-Up]

CD2 (Time: 00:46:45):


Tracklist:

01. Sambalero (02:08)
02. So Danco Samba (03:37)
03. Insensatez (03:23)
04. O Morro Nao Tem Vez (06:53)
05. Samba De Duas Notas (04:19)
06. Menina Flor (04:11)
07. Mania De Maria (02:44)
08. Saudade Vem Correndo (03:39)
09. Um Abraco No Getz (04:22)
10. Ebony Samba (Second Version) (04:36)
11. Ebony Samba (First Version) (03:51)
12. Tribute To Stan (02:55)


Exact Audio Copy V1.0 beta 3 from 29. August 2011

Отчёт EAC об извлечении, выполненном 23. января 2012, 20:02

Stan Getz / The Girl From Ipanema - The Bossa Nova Years, Disc 2

Дисковод: HL-DT-STDVD-RAM GH22NP21 Adapter: 0 ID: 0

Режим чтения : Достоверность
Использование точного потока : Да
Отключение кэша аудио : Да
Использование указателей C2 : Нет

Коррекция смещения при чтении : 102
Способность читать области Lead-in и Lead-out : Нет
Заполнение пропущенных сэмплов тишиной : Да
Удаление блоков с тишиной в начале и конце : Нет
При вычислениях CRC использовались нулевые сэмплы : Да
Интерфейс : Встроенный Win32-интерфейс для Win NT/2000

Выходной формат : Пользовательский кодировщик
Выбранный битрейт : 1024 kBit/s
Качество : Высокий
Добавление ID3-тега : Нет
Утилита сжатия : C:\Program Files\Exact Audio Copy\FLAC\FLAC.EXE
Дополнительные параметры : -8 -V -T "ARTIST=%artist%" -T "TITLE=%title%" -T "ALBUM=%albumtitle%" -T "DATE=%year%" -T "TRACKNUMBER=%tracknr%" -T "GENRE=%genre%" -T "COMMENT=%comment%" %hascover%–picture="%coverfile%"%hascover% %source% -o %dest%


TOC извлечённого CD

Трек | Старт | Длительность | Начальный сектор | Конечный сектор
––––––––––––––––––––––––––––––––––-
1 | 0:00.32 | 2:08.43 | 32 | 9674
2 | 2:09.00 | 3:37.52 | 9675 | 26001
3 | 5:46.52 | 3:23.33 | 26002 | 41259
4 | 9:10.10 | 6:53.62 | 41260 | 72296
5 | 16:03.72 | 4:19.25 | 72297 | 91746
6 | 20:23.22 | 4:11.23 | 91747 | 110594
7 | 24:34.45 | 2:44.70 | 110595 | 122964
8 | 27:19.40 | 3:39.65 | 122965 | 139454
9 | 30:59.30 | 4:22.55 | 139455 | 159159
10 | 35:22.10 | 4:36.45 | 159160 | 179904
11 | 39:58.55 | 3:51.72 | 179905 | 197301
12 | 43:50.52 | 2:55.35 | 197302 | 210461


Характеристики диапазона извлечения и сообщения об ошибках

Выбранный диапазон

Имя файла D:\Раздачи\Stan Getz The Girl From Ipanema - The Bossa Nova Years, (4CD) 1989 (lossless)\disk2\Stan Getz - The Girl From Ipanema - The Bossa Nova Years, Disc 2.wav

Пиковый уровень 100.0 %
Скорость извлечения 2.5 X
Качество диапазона 100.0 %
CRC теста BA733F02
CRC копии BA733F02
Копирование… OK

Ошибок не произошло


AccurateRip: сводка

Трек 1 : извлечено точно (доверие 13) [DD58D96A] (AR v1)
Трек 2 : извлечено точно (доверие 13) [979957BC] (AR v1)
Трек 3 : извлечено точно (доверие 13) [9DEA7EEC] (AR v1)
Трек 4 : извлечено точно (доверие 13) [73ADC5EC] (AR v1)
Трек 5 : извлечено точно (доверие 13) [36A1E75C] (AR v1)
Трек 6 : извлечено точно (доверие 13) [EB4AC3C9] (AR v1)
Трек 7 : извлечено точно (доверие 13) [261AEEA5] (AR v1)
Трек 8 : извлечено точно (доверие 13) [DEE44294] (AR v1)
Трек 9 : извлечено точно (доверие 13) [FE703C52] (AR v1)
Трек 10 : извлечено точно (доверие 13) [0EE656CA] (AR v1)
Трек 11 : извлечено точно (доверие 14) [9C010494] (AR v1)
Трек 12 : извлечено точно (доверие 14) [3A069BD4] (AR v1)

Все треки извлечены точно

Конец отчёта

==== Контрольная сумма отчёта 654646B947F8E671EF8DCDC0673BF87040CFBB2CE9BE890266F061553B9922FB ====

foobar2000 1.2 / Dynamic Range Meter 1.1.1
log date: 2016-02-12 19:52:43

––––––––––––––––––––––––––––––––––––––––
Analyzed: Stan Getz / The Girl From Ipanema - The Bossa Nova Years, Disc 2
––––––––––––––––––––––––––––––––––––––––

DR Peak RMS Duration Track
––––––––––––––––––––––––––––––––––––––––
DR9 -2.76 dB -15.52 dB 2:09 01-Sambalero
DR10 -2.28 dB -15.56 dB 3:38 02-So Danco Samba
DR10 -1.96 dB -16.26 dB 3:23 03-Insensatez
DR11 -1.52 dB -16.07 dB 6:54 04-O Morro Nao Tem Vez
DR10 -1.26 dB -14.22 dB 4:19 05-Samba De Duas Notas
DR10 -0.78 dB -14.20 dB 4:11 06-Menina Flor
DR9 -1.38 dB -14.08 dB 2:45 07-Mania De Maria
DR9 -2.28 dB -14.01 dB 3:40 08-Saudade Vem Correndo
DR11 -1.81 dB -14.40 dB 4:23 09-Um Abraco No Getz
DR10 -2.61 dB -15.94 dB 4:37 10-Ebony Samba (Second Version)
DR10 -1.65 dB -15.22 dB 3:52 11-Ebony Samba (First Version)
DR10 0.00 dB -14.60 dB 2:55 12-Tribute To Stan
––––––––––––––––––––––––––––––––––––––––

Number of tracks: 12
Official DR value: DR10

Samplerate: 44100 Hz
Channels: 2
Bits per sample: 16
Bitrate: 838 kbps
Codec: FLAC
================================================================================




Stan Getz - The Girl From Ipanema: The Bossa Nova Years (1989) 4 CD Box Set [Re-Up]

CD3 (Time: 00:52:46):


Tracklist:

01. The Girl from Ipanema (05:24)
02. Doralice (02:45)
03. Para Machuchar Meu Coracao (To Hurt My Heart) (05:06)
04. Desafinado (04:14)
05. Corcovado (Quiet Nights of Quiet Stars) (04:16)
06. So Danco Samba (I Only Dance Samba) (03:39)
07. O Grande Amor (05:28)
08. Vivo Sohando (02:56)
09. Corcovado (Quiet Nights of Quiet Stars) (02:29)
10. It Might as Well Be Spring (04:24)
11. Eu E Voce (Me and You) (02:28)
12. Only Trust Your Heart (04:24)
13. Telephone Song (01:52)
14. One Note Samba (03:14)


Exact Audio Copy V1.0 beta 3 from 29. August 2011

Отчёт EAC об извлечении, выполненном 23. января 2012, 20:49

Stan Getz / The Girl From Ipanema - The Bossa Nova Years, Disc 3

Дисковод: HL-DT-STDVD-RAM GH22NP21 Adapter: 0 ID: 0

Режим чтения : Достоверность
Использование точного потока : Да
Отключение кэша аудио : Да
Использование указателей C2 : Нет

Коррекция смещения при чтении : 102
Способность читать области Lead-in и Lead-out : Нет
Заполнение пропущенных сэмплов тишиной : Да
Удаление блоков с тишиной в начале и конце : Нет
При вычислениях CRC использовались нулевые сэмплы : Да
Интерфейс : Встроенный Win32-интерфейс для Win NT/2000

Выходной формат : Пользовательский кодировщик
Выбранный битрейт : 1024 kBit/s
Качество : Высокий
Добавление ID3-тега : Нет
Утилита сжатия : C:\Program Files\Exact Audio Copy\FLAC\FLAC.EXE
Дополнительные параметры : -8 -V -T "ARTIST=%artist%" -T "TITLE=%title%" -T "ALBUM=%albumtitle%" -T "DATE=%year%" -T "TRACKNUMBER=%tracknr%" -T "GENRE=%genre%" -T "COMMENT=%comment%" %hascover%–picture="%coverfile%"%hascover% %source% -o %dest%


TOC извлечённого CD

Трек | Старт | Длительность | Начальный сектор | Конечный сектор
––––––––––––––––––––––––––––––––––-
1 | 0:00.32 | 5:24.15 | 32 | 24346
2 | 5:24.47 | 2:45.70 | 24347 | 36791
3 | 8:10.42 | 5:06.70 | 36792 | 59811
4 | 13:17.37 | 4:14.23 | 59812 | 78884
5 | 17:31.60 | 4:16.42 | 78885 | 98126
6 | 21:48.27 | 3:39.53 | 98127 | 114604
7 | 25:28.05 | 5:28.05 | 114605 | 139209
8 | 30:56.10 | 2:56.42 | 139210 | 152451
9 | 33:52.52 | 2:29.55 | 152452 | 163681
10 | 36:22.32 | 4:24.48 | 163682 | 183529
11 | 40:47.05 | 2:28.07 | 183530 | 194636
12 | 43:15.12 | 4:24.53 | 194637 | 214489
13 | 47:39.65 | 1:52.57 | 214490 | 222946
14 | 49:32.47 | 3:14.50 | 222947 | 237546


Характеристики диапазона извлечения и сообщения об ошибках

Выбранный диапазон

Имя файла D:\Раздачи\Stan Getz The Girl From Ipanema - The Bossa Nova Years, (4CD) 1989 (lossless)\disk3\Stan Getz - The Girl From Ipanema - The Bossa Nova Years, Disc 3.wav

Пиковый уровень 100.0 %
Скорость извлечения 2.6 X
Качество диапазона 99.9 %
CRC теста D3267584
CRC копии D3267584
Копирование… OK

Ошибок не произошло


AccurateRip: сводка

Трек 1 : извлечено точно (доверие 19) [E6D20A1D] (AR v1)
Трек 2 : извлечено точно (доверие 19) [C435BC83] (AR v1)
Трек 3 : извлечено точно (доверие 19) [975AF230] (AR v1)
Трек 4 : извлечено точно (доверие 19) [E2D3B9B0] (AR v1)
Трек 5 : извлечено точно (доверие 19) [D6E074FD] (AR v1)
Трек 6 : извлечено точно (доверие 19) [0E4F8DDC] (AR v1)
Трек 7 : извлечено точно (доверие 19) [C3A10B54] (AR v1)
Трек 8 : извлечено точно (доверие 19) [721671C4] (AR v1)
Трек 9 : извлечено точно (доверие 19) [C2C7C832] (AR v1)
Трек 10 : извлечено точно (доверие 19) [17AE2421] (AR v1)
Трек 11 : извлечено точно (доверие 19) [4E4128C1] (AR v1)
Трек 12 : извлечено точно (доверие 19) [A76124A7] (AR v1)
Трек 13 : извлечено точно (доверие 19) [5F9DC631] (AR v1)
Трек 14 : извлечено точно (доверие 18) [F8A77A59] (AR v1)

Все треки извлечены точно

Конец отчёта

==== Контрольная сумма отчёта 3AB16E63B1142006678BF854776CC8A1E7A01701C2E850A7F4024658CBBD4E28 ====

foobar2000 1.2 / Dynamic Range Meter 1.1.1
log date: 2016-02-12 19:52:59

––––––––––––––––––––––––––––––––––––––––
Analyzed: Stan Getz / The Girl From Ipanema - The Bossa Nova Years, Disc 3
––––––––––––––––––––––––––––––––––––––––

DR Peak RMS Duration Track
––––––––––––––––––––––––––––––––––––––––
DR10 -1.11 dB -15.25 dB 5:24 01-The Girl from Ipanema
DR12 -1.59 dB -15.44 dB 2:46 02-Doralice
DR10 -1.37 dB -14.01 dB 5:07 03-Para Machuchar Meu Coracao (To Hurt My Heart)
DR10 -1.08 dB -14.36 dB 4:14 04-Desafinado
DR10 -1.98 dB -14.94 dB 4:17 05-Corcovado (Quiet Nights of Quiet Stars)
DR10 -0.69 dB -14.04 dB 3:40 06-So Danco Samba (I Only Dance Samba)
DR10 -1.22 dB -14.82 dB 5:28 07-O Grande Amor
DR10 -0.76 dB -13.57 dB 2:57 08-Vivo Sohando
DR10 -1.54 dB -14.61 dB 2:30 09-Corcovado (Quiet Nights of Quiet Stars)
DR10 -0.46 dB -14.67 dB 4:25 10-It Might as Well Be Spring
DR11 0.00 dB -14.31 dB 2:28 11-Eu E Voce (Me and You)
DR12 -2.76 dB -18.92 dB 4:25 12-Only Trust Your Heart
DR12 -1.72 dB -17.69 dB 1:53 13-Telephone Song
DR12 -1.65 dB -17.57 dB 3:15 14-One Note Samba
––––––––––––––––––––––––––––––––––––––––

Number of tracks: 14
Official DR value: DR11

Samplerate: 44100 Hz
Channels: 2
Bits per sample: 16
Bitrate: 759 kbps
Codec: FLAC
================================================================================




Stan Getz - The Girl From Ipanema: The Bossa Nova Years (1989) 4 CD Box Set [Re-Up]

CD4 (Time: 00:53:57):


Tracklist:

01. Corcovado (05:14)
02. Menina Moca (05:42)
03. Once Again (06:42)
04. Winter Moon (05:17)
05. Do What You Do, Do (04:35)
06. Samba Da Samba (04:55)
07. Maracatu-Too (05:02)
08. Eu E Voce (04:15)
09. Corcovado (05:39)
10. The Girl From Ipanema (06:31)


Exact Audio Copy V1.0 beta 3 from 29. August 2011

Отчёт EAC об извлечении, выполненном 23. января 2012, 22:53

Stan Getz / The Girl From Ipanema - The Bossa Nova Years Disc 4

Дисковод: HL-DT-STDVD-RAM GH22NP21 Adapter: 0 ID: 0

Режим чтения : Достоверность
Использование точного потока : Да
Отключение кэша аудио : Да
Использование указателей C2 : Нет

Коррекция смещения при чтении : 102
Способность читать области Lead-in и Lead-out : Нет
Заполнение пропущенных сэмплов тишиной : Да
Удаление блоков с тишиной в начале и конце : Нет
При вычислениях CRC использовались нулевые сэмплы : Да
Интерфейс : Встроенный Win32-интерфейс для Win NT/2000

Выходной формат : Пользовательский кодировщик
Выбранный битрейт : 1024 kBit/s
Качество : Высокий
Добавление ID3-тега : Нет
Утилита сжатия : C:\Program Files\Exact Audio Copy\FLAC\FLAC.EXE
Дополнительные параметры : -8 -V -T "ARTIST=%artist%" -T "TITLE=%title%" -T "ALBUM=%albumtitle%" -T "DATE=%year%" -T "TRACKNUMBER=%tracknr%" -T "GENRE=%genre%" -T "COMMENT=%comment%" %hascover%–picture="%coverfile%"%hascover% %source% -o %dest%


TOC извлечённого CD

Трек | Старт | Длительность | Начальный сектор | Конечный сектор
––––––––––––––––––––––––––––––––––-
1 | 0:00.33 | 5:14.37 | 33 | 23619
2 | 5:14.70 | 5:42.33 | 23620 | 49302
3 | 10:57.28 | 6:42.45 | 49303 | 79497
4 | 17:39.73 | 5:17.70 | 79498 | 103342
5 | 22:57.68 | 4:35.60 | 103343 | 124027
6 | 27:33.53 | 4:55.30 | 124028 | 146182
7 | 32:29.08 | 5:02.60 | 146183 | 168892
8 | 37:31.68 | 4:15.37 | 168893 | 188054
9 | 41:47.30 | 5:39.23 | 188055 | 213502
10 | 47:26.53 | 6:31.17 | 213503 | 242844


Характеристики диапазона извлечения и сообщения об ошибках

Выбранный диапазон

Имя файла D:\Раздачи\Stan Getz The Girl From Ipanema - The Bossa Nova Years, (4CD) 1989 (lossless)\disk1\Stan Getz - The Girl From Ipanema - The Bossa Nova Years Disc 4.wav

Пиковый уровень 94.0 %
Скорость извлечения 2.6 X
Качество диапазона 100.0 %
CRC теста 7D387621
CRC копии 7D387621
Копирование… OK

Ошибок не произошло


AccurateRip: сводка

Трек 1 : извлечено точно (доверие 19) [73E46A2E] (AR v1)
Трек 2 : извлечено точно (доверие 19) [B750DD33] (AR v1)
Трек 3 : извлечено точно (доверие 19) [400172BE] (AR v1)
Трек 4 : извлечено точно (доверие 19) [944CF5D1] (AR v1)
Трек 5 : извлечено точно (доверие 19) [E5144557] (AR v1)
Трек 6 : извлечено точно (доверие 19) [93F20072] (AR v1)
Трек 7 : извлечено точно (доверие 19) [AE4DC332] (AR v1)
Трек 8 : извлечено точно (доверие 19) [8AF8C6D9] (AR v1)
Трек 9 : извлечено точно (доверие 19) [2B8456B2] (AR v1)
Трек 10 : извлечено точно (доверие 19) [4A9CA486] (AR v1)

Все треки извлечены точно

Конец отчёта

==== Контрольная сумма отчёта 5E31A0E8A38477849A7A2DB3021BA6B2E2583E5B26A07BAEB76E2288240F29F3 ====

foobar2000 1.2 / Dynamic Range Meter 1.1.1
log date: 2016-02-12 19:53:18

––––––––––––––––––––––––––––––––––––––––
Analyzed: Stan Getz / The Girl From Ipanema - The Bossa Nova Years Disc 4
––––––––––––––––––––––––––––––––––––––––

DR Peak RMS Duration Track
––––––––––––––––––––––––––––––––––––––––
DR11 -3.00 dB -17.67 dB 5:14 01-Corcovado
DR11 -1.44 dB -14.73 dB 5:42 02-Menina Moca
DR12 -1.93 dB -17.48 dB 6:43 03-Once Again
DR11 -4.90 dB -19.32 dB 5:18 04-Winter Moon
DR11 -3.21 dB -16.47 dB 4:36 05-Do What You Do, Do
DR11 -2.07 dB -17.46 dB 4:55 06-Samba Da Samba
DR11 -0.54 dB -15.79 dB 5:03 07-Maracatu-Too
DR12 -2.45 dB -19.03 dB 4:15 08-Eu E Voce
DR14 -2.57 dB -21.47 dB 5:39 09-Corcovado
DR13 -3.60 dB -21.02 dB 6:31 10-The Girl From Ipanema
––––––––––––––––––––––––––––––––––––––––

Number of tracks: 10
Official DR value: DR12

Samplerate: 44100 Hz
Channels: 2
Bits per sample: 16
Bitrate: 796 kbps
Codec: FLAC
================================================================================




Stan Getz - The Girl From Ipanema: The Bossa Nova Years (1989) 4 CD Box Set [Re-Up]

All thanks to original releaser - 40years

More interesting music in My Blog