Subcategories
Tags
Language
Tags

Steve Roach, Kevin Braheny, Michael Stearns - Desert Solitaire (1989)

Posted By: Designol
Steve Roach, Kevin Braheny, Michael Stearns - Desert Solitaire (1989)

Steve Roach, Kevin Braheny, Michael Stearns - Desert Solitaire (1989)
EAC | FLAC | Image (Cue&Log) ~ 263 Mb | Mp3 (CBR320) ~ 169 Mb | Scans included
Ambient, Progressive Electronic | Label: Fortuna Records | # 17070-2 | 01:05:38

The second of two collaborations with Kevin Braheny inspired by the desert, this album pays homage to the Edward Abbey book of the same title. It inadvertently became a memorial to that Southwestern nature writer when Abbey died shortly after the music was recorded. Featuring some powerful work by Michael Stearns, this album taps into the psychological depths of stark Southwestern landscapes through a subtle set of soundscapes depicting the hidden dangers, unseen gifts, and intoxication that the desert promises.

Review by Linda Kohanov, Allmusic.com

Steve Roach, Kevin Braheny, Michael Stearns - Desert Solitaire (1989)




Tracklist:

01. Flatlands (4:53)
02. Labyrinth (6:58)
03. Specter (9:37)
04. The Canyon's Embrace (3:35)
05. Cloud Of Promise (6:40)
06. Knowledge & Dust (3:27)
07. Shiprock (4:02)
08. Highnoon (10:32)
09. Empty Time (5:54)
10. From the Heart of Darkness (3:52)
11. Desert Solitaire (6:08)


Exact Audio Copy V1.0 beta 3 from 29. August 2011

Отчёт EAC об извлечении, выполненном 11. мая 2014, 12:25

Steve Roach, Kevin Braheny, Michael Stearns / Desert Solitaire

Дисковод: PLEXTOR CD-R PREMIUM2 Adapter: 3 ID: 0

Режим чтения : Достоверность
Использование точного потока : Да
Отключение кэша аудио : Да
Использование указателей C2 : Нет

Коррекция смещения при чтении : 30
Способность читать области Lead-in и Lead-out : Да
Заполнение пропущенных сэмплов тишиной : Да
Удаление блоков с тишиной в начале и конце : Нет
При вычислениях CRC использовались нулевые сэмплы : Да
Интерфейс : Встроенный Win32-интерфейс для Win NT/2000

Выходной формат : Внутренние WAV-операции
Формат сэмплов : 44.100 Гц; 16 бит; стерео


TOC извлечённого CD

Трек | Старт | Длительность | Начальный сектор | Конечный сектор
––––––––––––––––––––––––––––––––––-
1 | 0:00.33 | 4:52.50 | 33 | 21982
2 | 4:53.08 | 6:57.57 | 21983 | 53314
3 | 11:50.65 | 9:37.18 | 53315 | 96607
4 | 21:28.08 | 3:35.25 | 96608 | 112757
5 | 25:03.33 | 6:39.52 | 112758 | 142734
6 | 31:43.10 | 3:26.65 | 142735 | 158249
7 | 35:10.00 | 4:02.15 | 158250 | 176414
8 | 39:12.15 | 10:32.25 | 176415 | 223839
9 | 49:44.40 | 5:54.25 | 223840 | 250414
10 | 55:38.65 | 3:52.20 | 250415 | 267834
11 | 59:31.10 | 6:07.38 | 267835 | 295397


Характеристики диапазона извлечения и сообщения об ошибках

Выбранный диапазон

Имя файла D:\Steve Roach, Kevin Braheny, Michael Stearns - Desert Solitaire - 1989\Steve Roach, Kevin Braheny, Michael Stearns - Desert Solitaire.wav

Пиковый уровень 79.8 %
Скорость извлечения 6.5 X
Качество диапазона 100.0 %
CRC теста C5CDB5DD
CRC копии C5CDB5DD
Копирование… OK

Ошибок не произошло


AccurateRip: сводка

Трек 1 : извлечено точно (доверие 5) [A114E2BE] (AR v2)
Трек 2 : извлечено точно (доверие 5) [24507336] (AR v2)
Трек 3 : извлечено точно (доверие 5) [8913F05B] (AR v2)
Трек 4 : извлечено точно (доверие 5) [9E5B0D7A] (AR v2)
Трек 5 : извлечено точно (доверие 5) [6351A8AA] (AR v2)
Трек 6 : извлечено точно (доверие 5) [31F351AC] (AR v2)
Трек 7 : извлечено точно (доверие 5) [1460957F] (AR v2)
Трек 8 : извлечено точно (доверие 5) [A4461D6A] (AR v2)
Трек 9 : извлечено точно (доверие 5) [14253ECC] (AR v2)
Трек 10 : извлечено точно (доверие 5) [B6192DA9] (AR v2)
Трек 11 : извлечено точно (доверие 5) [F4AB8D22] (AR v2)

Все треки извлечены точно

Конец отчёта

–– CUETools DB Plugin V2.1.5

[CTDB TOCID: HU3BN9IDxoAR.9P_zUmSgzMxaNY-] found
Submit result: HU3BN9IDxoAR.9P_zUmSgzMxaNY- has been confirmed
Track | CTDB Status
1 | (1/1) Accurately ripped
2 | (1/1) Accurately ripped
3 | (1/1) Accurately ripped
4 | (1/1) Accurately ripped
5 | (1/1) Accurately ripped
6 | (1/1) Accurately ripped
7 | (1/1) Accurately ripped
8 | (1/1) Accurately ripped
9 | (1/1) Accurately ripped
10 | (1/1) Accurately ripped
11 | (1/1) Accurately ripped


==== Контрольная сумма отчёта 71D2CED6096628B0FC3B70A8E48E32ED28D367C01E3C223CA0333A356F6B6DB5 ====

foobar2000 1.2 / Dynamic Range Meter 1.1.1
log date: 2014-06-22 16:19:40

––––––––––––––––––––––––––––––––––––––––
Analyzed: Steve Roach, Kevin Braheny, Michael Stearns / Desert Solitaire
––––––––––––––––––––––––––––––––––––––––

DR Peak RMS Duration Track
––––––––––––––––––––––––––––––––––––––––
DR13 -1.95 dB -17.17 dB 4:53 01-Flatlands
DR13 -3.49 dB -21.39 dB 6:58 02-Labyrinth
DR13 -2.58 dB -21.74 dB 9:37 03-Specter
DR10 -6.78 dB -21.10 dB 3:35 04-The Canyon's Embrace
DR11 -12.84 dB -28.99 dB 6:40 05-Cloud Of Promise
DR10 -7.30 dB -21.04 dB 3:27 06-Knowledge & Dust
DR10 -10.25 dB -24.90 dB 4:02 07-Shiprock
DR15 -6.04 dB -26.25 dB 10:32 08-Highnoon
DR14 -9.85 dB -31.38 dB 5:54 09-Empty Time
DR11 -6.39 dB -22.06 dB 3:52 10-From the Heart of Darkness
DR12 -11.12 dB -26.82 dB 6:08 11-Desert Solitaire
––––––––––––––––––––––––––––––––––––––––

Number of tracks: 11
Official DR value: DR12

Samplerate: 44100 Hz
Channels: 2
Bits per sample: 16
Bitrate: 519 kbps
Codec: FLAC
================================================================================

Steve Roach, Kevin Braheny, Michael Stearns - Desert Solitaire (1989)

Steve Roach, Kevin Braheny, Michael Stearns - Desert Solitaire (1989)

All thanks to original releaser - Stripakulina

More interesting music in My Blog