Tags
Language
Tags

VA - The Official Album Of The 2002 FIFA World Cup (2002) {Epic France}

Posted By: TestTickles
VA - The Official Album Of The 2002 FIFA World Cup (2002) {Epic France}

VA - The Official Album Of The 2002 FIFA World Cup (2002) {Epic France}
EAC Rip | FLAC with CUE and LOG | scans | 545 mb
MP3 CBR 320 kbps | RAR | 169 mb
Genre: Latin pop, house, freestyle, tribal, soft rock, Europop, Euro House, ambient, electro

The Official Album Of The 2002 FIFA World Cup is a 2002 compilation CD honoring the 2002 FIFA World Cup. This is the French pressing with a few songs not available on other pressings of this disc around the world, released by Epic Records.

VA - The Official Album Of The 2002 FIFA World Cup (2002) {Epic France}

01. Anastacia - Boom (Official Song Of 2002 World Cup) (3:20)
02. Love United - Live For Love United (5:08)
03. Bomfunk Mc's featuring Jessica Folcker - (Crack It) Something Going On (3:49)
04. Jennifer Lopez - Let's Get Loud (4:00)
05. Safri Duo meets Ayla - Sunrise (3:18)
06. Lara Fabian - World At Your Feet (3:31)
07. A1 - Let It Out (3:50)
08. Nelly Furtado - Party (4:01)
09. G.O.D. - True East Side (3:57)
10. Die Toten Hosen - We Will Be Heroes (3:40)
11. Vangelis - Anthem (Remixed By Js16) (The Official Anthem Of The 2002 World Cup) (3:44)
12. Elisa - Fever (4:04)
13. OV7 - Bringin The World Back Home (4:01)
14. Mondo Grosso - BLZ (4:00)
15. Monica Naranjo - Shake The House (3:32)
16. Opera Babes - Vittoria (Aida) (3:09)
17. Bongo Maffin - Brave, Strong & True (4:11)
18. Chayanne - World Of Make Believe (3:58)
19. Communion featuring Carlinhos Brown - Gol (2:24)
20. Vangelis - Anthem (The Official Anthem Of The 2002 World Cup) (4:32)

Anastacia, Love United, Bomfunk Mc's featuring Jessica Folcker, Jennifer Lopez, Safri Duo meets Ayla, Lara Fabian, A1, Nelly Furtado, G.O.D., Die Toten Hosen, Vangelis, Elisa, OV7, Mondo Grosso, Monica Naranjo, Opera Babes, Bongo Maffin, Chayanne, Communion featuring Carlinhos Brown, Vangelis

Exact Audio Copy V0.99 prebeta 5 from 4. May 2009

EAC extraction logfile from 16. January 2010, 7:20

Various Artists / The Official Album Of The 2002 FIFA World Cup

Used drive : TSSTcorpCD/DVDW TS-L632D Adapter: 0 ID: 1

Read mode : Secure
Utilize accurate stream : Yes
Defeat audio cache : Yes
Make use of C2 pointers : No

Read offset correction : 6
Overread into Lead-In and Lead-Out : No
Fill up missing offset samples with silence : Yes
Delete leading and trailing silent blocks : No
Null samples used in CRC calculations : Yes
Used interface : Native Win32 interface for Win NT & 2000
Gap handling : Appended to previous track

Used output format : User Defined Encoder
Selected bitrate : 128 kBit/s
Quality : High
Add ID3 tag : No
Command line compressor : C:\Program Files\Exact Audio Copy\Flac\flac.exe
Additional command line options : -V -8 -T "artist=%a" -T "title=%t" -T "album=%g" -T "date=%y" -T "tracknumber=%n" -T "genre=%m" %s


TOC of the extracted CD

Track | Start | Length | Start sector | End sector
––––––––––––––––––––––––––––-
1 | 0:00.00 | 3:19.38 | 0 | 14962
2 | 3:19.38 | 5:08.15 | 14963 | 38077
3 | 8:27.53 | 3:49.02 | 38078 | 55254
4 | 12:16.55 | 3:59.60 | 55255 | 73239
5 | 16:16.40 | 3:17.45 | 73240 | 88059
6 | 19:34.10 | 3:31.33 | 88060 | 103917
7 | 23:05.43 | 3:49.44 | 103918 | 121136
8 | 26:55.12 | 4:00.51 | 121137 | 139187
9 | 30:55.63 | 3:56.47 | 139188 | 156934
10 | 34:52.35 | 3:40.03 | 156935 | 173437
11 | 38:32.38 | 3:43.60 | 173438 | 190222
12 | 42:16.23 | 4:04.10 | 190223 | 208532
13 | 46:20.33 | 4:00.52 | 208533 | 226584
14 | 50:21.10 | 3:59.50 | 226585 | 244559
15 | 54:20.60 | 3:31.70 | 244560 | 260454
16 | 57:52.55 | 3:09.13 | 260455 | 274642
17 | 61:01.68 | 4:11.00 | 274643 | 293467
18 | 65:12.68 | 3:57.47 | 293468 | 311289
19 | 69:10.40 | 2:24.28 | 311290 | 322117
20 | 71:34.68 | 4:32.24 | 322118 | 342541


Track 1

Filename C:\cuntfist\FLAC\VA - The Official Album Of The 2002 FIFA World Cup (2002) [FLAC] {Epic France}\01 - Anastacia - Boom (Official Song Of 2002 World cup).wav

Pre-gap length 0:00:02.00

Peak level 98.8 %
Track quality 100.0 %
Test CRC C3063B32
Copy CRC C3063B32
Track not present in AccurateRip database
Copy OK

Track 2

Filename C:\cuntfist\FLAC\VA - The Official Album Of The 2002 FIFA World Cup (2002) [FLAC] {Epic France}\02 - Love United - Live For Love United.wav

Peak level 98.3 %
Track quality 100.0 %
Test CRC A0CC5AC8
Copy CRC A0CC5AC8
Track not present in AccurateRip database
Copy OK

Track 3

Filename C:\cuntfist\FLAC\VA - The Official Album Of The 2002 FIFA World Cup (2002) [FLAC] {Epic France}\03 - Boomkunk MC's featuring Jessica Folcker - (Crack It) Something Going On.wav

Peak level 99.8 %
Track quality 100.0 %
Test CRC 7F9DDE58
Copy CRC 7F9DDE58
Track not present in AccurateRip database
Copy OK

Track 4

Filename C:\cuntfist\FLAC\VA - The Official Album Of The 2002 FIFA World Cup (2002) [FLAC] {Epic France}\04 - Jennifer Lopez - Let's Get Loud.wav

Peak level 89.0 %
Track quality 100.0 %
Test CRC B2C84639
Copy CRC B2C84639
Track not present in AccurateRip database
Copy OK

Track 5

Filename C:\cuntfist\FLAC\VA - The Official Album Of The 2002 FIFA World Cup (2002) [FLAC] {Epic France}\05 - Safri Duo meets Ayla - Sunrise.wav

Peak level 99.8 %
Track quality 100.0 %
Test CRC 6933AFAC
Copy CRC 6933AFAC
Track not present in AccurateRip database
Copy OK

Track 6

Filename C:\cuntfist\FLAC\VA - The Official Album Of The 2002 FIFA World Cup (2002) [FLAC] {Epic France}\06 - Lara Fabian - World at Your Feet.wav

Peak level 99.8 %
Track quality 100.0 %
Test CRC 466130F2
Copy CRC 466130F2
Track not present in AccurateRip database
Copy OK

Track 7

Filename C:\cuntfist\FLAC\VA - The Official Album Of The 2002 FIFA World Cup (2002) [FLAC] {Epic France}\07 - A1 - Let It Out.wav

Peak level 94.3 %
Track quality 100.0 %
Test CRC 82C5482B
Copy CRC 82C5482B
Track not present in AccurateRip database
Copy OK

Track 8

Filename C:\cuntfist\FLAC\VA - The Official Album Of The 2002 FIFA World Cup (2002) [FLAC] {Epic France}\08 - Nelly Furtado - Party.wav

Peak level 94.2 %
Track quality 100.0 %
Test CRC 4D5D973F
Copy CRC 4D5D973F
Track not present in AccurateRip database
Copy OK

Track 9

Filename C:\cuntfist\FLAC\VA - The Official Album Of The 2002 FIFA World Cup (2002) [FLAC] {Epic France}\09 - G.O.D. - True East Side.wav

Peak level 94.3 %
Track quality 100.0 %
Test CRC D3B1E3C8
Copy CRC D3B1E3C8
Track not present in AccurateRip database
Copy OK

Track 10

Filename C:\cuntfist\FLAC\VA - The Official Album Of The 2002 FIFA World Cup (2002) [FLAC] {Epic France}\10 - Die Toten Hosen - We Will Be Heroes.wav

Peak level 99.8 %
Track quality 100.0 %
Test CRC F47DD2DA
Copy CRC F47DD2DA
Track not present in AccurateRip database
Copy OK

Track 11

Filename C:\cuntfist\FLAC\VA - The Official Album Of The 2002 FIFA World Cup (2002) [FLAC] {Epic France}\11 - Vangelis - Anthem (Remixed By Js16) (The Official Anthem Of The 2002 World Cup).wav

Peak level 99.6 %
Track quality 99.9 %
Test CRC 84E3B196
Copy CRC 84E3B196
Track not present in AccurateRip database
Copy OK

Track 12

Filename C:\cuntfist\FLAC\VA - The Official Album Of The 2002 FIFA World Cup (2002) [FLAC] {Epic France}\12 - Elisa - Fever.wav

Peak level 99.8 %
Track quality 100.0 %
Test CRC 26424153
Copy CRC 26424153
Track not present in AccurateRip database
Copy OK

Track 13

Filename C:\cuntfist\FLAC\VA - The Official Album Of The 2002 FIFA World Cup (2002) [FLAC] {Epic France}\13 - OV7 - Bringin The world Back Home.wavhome.wav

Peak level 96.5 %
Track quality 100.0 %
Test CRC 160DAF8D
Copy CRC 160DAF8D
Track not present in AccurateRip database
Copy OK

Track 14

Filename C:\cuntfist\FLAC\VA - The Official Album Of The 2002 FIFA World Cup (2002) [FLAC] {Epic France}\14 - Mondo Grosso - BLZ.wav

Pre-gap length 0:00:01.48

Peak level 99.8 %
Track quality 100.0 %
Test CRC 05093870
Copy CRC 05093870
Track not present in AccurateRip database
Copy OK

Track 15

Filename C:\cuntfist\FLAC\VA - The Official Album Of The 2002 FIFA World Cup (2002) [FLAC] {Epic France}\15 - Monica Naranjo - Shake The House.wav

Peak level 99.8 %
Track quality 100.0 %
Test CRC BA30A95E
Copy CRC BA30A95E
Track not present in AccurateRip database
Copy OK

Track 16

Filename C:\cuntfist\FLAC\VA - The Official Album Of The 2002 FIFA World Cup (2002) [FLAC] {Epic France}\16 - Opera Babes - Vittoria (Aida).wav

Peak level 96.5 %
Track quality 100.0 %
Test CRC 48F4F6C2
Copy CRC 48F4F6C2
Track not present in AccurateRip database
Copy OK

Track 17

Filename C:\cuntfist\FLAC\VA - The Official Album Of The 2002 FIFA World Cup (2002) [FLAC] {Epic France}\17 - Bongo Maffin - Brave, strong & True.wav

Peak level 99.8 %
Track quality 100.0 %
Test CRC 5AF92AD2
Copy CRC 5AF92AD2
Track not present in AccurateRip database
Copy OK

Track 18

Filename C:\cuntfist\FLAC\VA - The Official Album Of The 2002 FIFA World Cup (2002) [FLAC] {Epic France}\18 - Chayanne-World Of Make Believe.wav

Peak level 92.3 %
Track quality 100.0 %
Test CRC 8EE8924E
Copy CRC 8EE8924E
Track not present in AccurateRip database
Copy OK

Track 19

Filename C:\cuntfist\FLAC\VA - The Official Album Of The 2002 FIFA World Cup (2002) [FLAC] {Epic France}\19 - Communion featuring Carlinhos Brown - Gol.wav
Pre-gap length 0:00:01.42

Peak level 99.5 %
Track quality 100.0 %
Test CRC DA13C90C
Copy CRC DA13C90C
Track not present in AccurateRip database
Copy OK

Track 20

Filename C:\cuntfist\FLAC\VA - The Official Album Of The 2002 FIFA World Cup (2002) [FLAC] {Epic France}\20 - Vangelis - Anthem (The Official Anthem Of The 2002 World Cup).wav

Peak level 99.8 %
Track quality 99.9 %
Test CRC 53B8EAD6
Copy CRC 53B8EAD6
Track not present in AccurateRip database
Copy OK


None of the tracks are present in the AccurateRip database

No errors occurred

End of status report


VA - The Official Album Of The 2002 FIFA World Cup (2002) {Epic France}


Thank you to the original uploader.