Tags
Language
Tags

Tangerine Dream - Hyperborea (1983) (Repost)

Posted By: gribovar
Tangerine Dream - Hyperborea (1983) (Repost)

Tangerine Dream - Hyperborea (1983)
EAC Rip | FLAC (image+.cue+log) - 234 MB | MP3 CBR 320 kbps (LAME 3.93) - 99 MB | Covers - 19 MB
Genre: Electronic, Berlin School | RAR 3% Rec. | Label: Virgin (CDV 2292)

Tangerine Dream set the stage for the style of "artsy" soundtrack music that dominated the '80s. Although Hyperborea is not a soundtrack, it was clearly influential on some of the work the group was hired to do for Risky Business, Flashpoint, Dreamscape, Firestarter, Legend, and close to 20 others. There have been at least a dozen members in this trio over the years, but the assembly of Chris Franke, Edgar Froese, and Johannes Schmoelling proved to be one of the most prolific and influential. Hyperborea was a turning point for the band - a distinctive departure from the free-form psychedelica-and-moog prog rock improvisations, it was an album of crispness, structure, and a little bravery too - a showcase for artists with enough chops to adjust to the new technology without getting lost in it. Getting its hands on the popular new keyboards of the mid-'80s, the band found wonderful textures, richly overlapping sequences, and on some level a chance to reinvent themselves, and with great results. Recorded in Berlin in 1983, it was the shape of things to come for the remainder of the decade.

Tracklist:
01. No Man's Land
02. Hyperborea
03. Cinnamon Road
04. Sphinx Lightning

Total time: 42:02

Exact Audio Copy V1.0 beta 1 from 15. November 2010

EAC extraction logfile from 12. July 2012, 20:50

Tangerine Dream / Hyperborea

Used drive : TEAC CD-W552E Adapter: 1 ID: 1

Read mode : Secure
Utilize accurate stream : Yes
Defeat audio cache : Yes
Make use of C2 pointers : No

Read offset correction : 6
Overread into Lead-In and Lead-Out : No
Fill up missing offset samples with silence : Yes
Delete leading and trailing silent blocks : No
Null samples used in CRC calculations : Yes
Used interface : Installed external ASPI interface

Used output format : Internal WAV Routines
Sample format : 44.100 Hz; 16 Bit; Stereo


TOC of the extracted CD

Track | Start | Length | Start sector | End sector
––––––––––––––––––––––––––––-
1 | 0:00.00 | 9:16.35 | 0 | 41734
2 | 9:16.35 | 8:46.15 | 41735 | 81199
3 | 18:02.50 | 4:03.47 | 81200 | 99471
4 | 22:06.22 | 19:56.03 | 99472 | 189174


Range status and errors

Selected range

Filename K:\Upload\Tangerine Dream - 1983 - Hyperborea (Virgin Records Ltd., CDV 2292)_Upload\Tangerine Dream - Hyperborea.wav

Peak level 100.0 %
Extraction speed 4.4 X
Range quality 100.0 %
Test CRC 6CE5A27F
Copy CRC 6CE5A27F
Copy OK

No errors occurred


AccurateRip summary

Track 1 accurately ripped (confidence 7) [FE3C81B8]
Track 2 accurately ripped (confidence 7) [A79AB4E1]
Track 3 accurately ripped (confidence 7) [FDCC90D0]
Track 4 accurately ripped (confidence 6) [7DF8BA85]

All tracks accurately ripped

End of status report

==== Log checksum 44A1193AB65EA5F49CC51F83C4AFC0A91B02A52F095734EBB202187550255DD5 ====

[CUETools log; Date: 01.04.2021 0:05:23; Version: 2.1.4]
[CTDB TOCID: 0jo9PK4_lyNPoYBIe_p8u7Yt_9k-] found.
Track | CTDB Status
1 | (191/194) Accurately ripped
2 | (192/194) Accurately ripped
3 | (190/194) Accurately ripped
4 | (187/194) Accurately ripped
[AccurateRip ID: 000647be-00197eb2-2f09da04] found.
Track [ CRC | V2 ] Status
01 [fe3c81b8|74d22b41] (031+050/133) Accurately ripped
02 [a79ab4e1|274f7137] (032+051/136) Accurately ripped
03 [fdcc90d0|12aafaad] (032+051/136) Accurately ripped
04 [7df8ba85|fc33b640] (032+050/134) Accurately ripped
Offsetted by 181:
01 [bdc9a8f9] (014/133) Accurately ripped
02 [4cf2b305] (014/136) Accurately ripped
03 [40fff8a4] (014/136) Accurately ripped
04 [7ba17791] (014/134) Accurately ripped

Track Peak [ CRC32 ] [W/O NULL] [ LOG ]
– 100,0 [6CE5A27F] [0CE22650] CRC32
01 100,0 [930715FC] [E3AA139D]
02 96,1 [6AF0EC72] [E6E3B4F1]
03 100,0 [F71BD2B4] [54BEA9E2]
04 100,0 [8F65965D] [4C0C42C4]

Thanks to technick

See also:
Tangerine Dream - The Electronic Journey (2010) [10CD Box Set]
Tangerine Dream - The Dream Roots Collection [5CD Box Set] (1996)
Tangerine Dream - Electronic Meditation (1970) [Reissue 1996]
Tangerine Dream - Alpha Centauri (1971) [Reissue 1996]
Tangerine Dream - Alpha Centauri (1971) [Reissue 2011]
Tangerine Dream - Zeit (1972) [Reissue 1996]
Tangerine Dream - Atem (1973) [Reissue 2011]
Tangerine Dream - Phaedra (1974) [Original Edition]
Tangerine Dream - Phaedra (1974) [Definitive Edition 1995]
Tangerine Dream - Rubycon (1975) [Non-remastered, Reissue 1988]
Tangerine Dream - Rubycon (1975) [Definitive Edition 1995]
Tangerine Dream - Ricochet (1975) [Definitive Edition 1995]
Tangerine Dream - Stratosfear (1976) [Definitive Edition 1995]
Tangerine Dream - Encore (1977)
Tangerine Dream - Sorcerer (OST) (1977) [Reissue 2011]
Tangerine Dream - Force Majeure (1979) [Reissue 1995]
Tangerine Dream - Tangram (1980)
Tangerine Dream - Pergamon (1980) [Reissue 1996]
Tangerine Dream - White Eagle (1982) [Reissue 1995]
Tangerine Dream - Logos Live (1982) [Definitive Edition 1995]
Tangerine Dream - Wavelength [OST] (1983)
Tangerine Dream - Poland - The Warsaw Concert (1984) [Reissue 2011]
Tangerine Dream - Firestarter ...ion Picture Soundtrack] (1984)
Tangerine Dream - Underwater Sunlight (1986) [Reissue 1996]
Tangerine Dream - Legend (OST) (1986) [Reissue 1995]
Tangerine Dream - Tyger (1987) [Reissue 1996]
Tangerine Dream - Three O'Clock High [OST] (1987)
Tangerine Dream - Optical Race (1988)
Tangerine Dream - Live Miles (1988) [Reissue 2003]
Tangerine Dream - Lily On The Beach (1989)
Tangerine Dream - Melrose (1990)
Tangerine Dream - Dead Solid Perfect (OST) (1990)
Tangerine Dream - The Park Is Mine (OST) (1991)
Tangerine Dream - Rockoon (1992) [Reissue 2000]
Tangerine Dream - Deadly Care (OST) (1992)
Tangerine Dream - Quinoa (1992) [Reissue 2009]
Tangerine Dream - Catch Me If You Can (OST) (1994)
Tangerine Dream - Tyranny Of Beauty (1995)
Tangerine Dream - Goblins' Club (1996)
Tangerine Dream - Zoning (OST) (1996)
Tangerine Dream - The Analogue Space Years 1969-1973 (1998)
Tangerine Dream - The Hollywood Years Vol. 1 (1998)
Tangerine Dream - The Hollywood Years Vol. 2 (1998)
Tangerine Dream - Antique Dreams (2000)
Tangerine Dream - Soundmill Navigator (2000)
Tangerine Dream - The Bootleg Box Set Vol. 1 [7CD] (2003)
Tangerine Dream - Purgatorio (2004)
Tangerine Dream - Arizona Live '92 (2004) [Reissue 2009]
Tangerine Dream - Phaedra 2005 (2005) [Japanese Edition 2009]
Tangerine Dream - Cleveland - June 24th 1986 (2005)
Tangerine Dream - Blue Dawn (2006)
Tangerine Dream - The Essential Tangerine Dream (2006)
Tangerine Dream - Plays Tangerine Dream (2006)
Tangerine Dream - Springtime In Nagasaki (2007)
Tangerine Dream - Views From A Red Train (2008)
Tangerine Dream - Booster (2008)
Tangerine Dream - Booster Vol. 2 (2008)
Tangerine Dream - The Antholog... Space Years Volume One (2008)
Tangerine Dream - Music For Sports: Cool Races (2009)
Tangerine Dream - Music For Sports: Power And Motion (2009)
Tangerine Dream - DM V (Dream Mixes V) (2010)
Tangerine Dream - The London Eye Concert (2010)
Tangerine Dream - Zeitgeist Concert [3CD Box Set] (2010)
Tangerine Dream - The Virgin Years 1974-1978 [3CD Box Set] (2011)
Tangerine Dream - The Official...ies Vol.1 [4CD Box Set] (2015)
Tangerine Dream - Live At Coventry Cathedral 1975 (2007) [DVD]
Tangerine Dream - Madcap's Flaming Duty [DVD] (2007)
Tangerine Dream - 35th Phaedra Anniversary Concert [2DVD] (2007)
Edgar Froese - 2 Albums (1974-1995)
Edgar Froese - Ages (1978) [Reissue 1997]
Edgar Froese - Pinnacles (1983)