Subcategories
Tags
Language
Tags

Tangerine Dream - Autumn In Hiroshima (2008)

Posted By: gribovar
Tangerine Dream - Autumn In Hiroshima (2008)

Tangerine Dream - Autumn In Hiroshima (2008)
EAC Rip | APE (image+.cue+log) - 342 MB | MP3 CBR 320 kbps (LAME 3.93) - 136 MB | Covers included
Genre: Progressive Electronic, Berlin School, New Age | RAR 3% Rec. | Label: Eastgate (032 CD)

Autumn In Hiroshima is the third part of 'The Five Atomic Seasons'. A musical journey accompanying Mr. H.T. to an old Zen Monastery where he is living for a short period of time and getting introduced to the secrets of life and death. Within this rather unemotional period he learns about the contemplative views which he has to develop within himself in contrast to the desastrous life out there everybody is confronted with in these days. Instead of giving up hope after the blasts he feels an enormous energy and change of consciousness which guides him directly to something very strange…

Tracklist:
01. Trauma
02. Reset
03. Awareness (1st Teaching)
04. Novice (2nd Teaching)
05. Strange Voices
06. Fathom (3rd Teaching)
07. Oracular World (4th Teaching)
08. Remembering Ayumi
09. Mellow Submersion (5th Teaching)
10. Answers (6th Teaching)
11. Touching Truth
12. Insight (7th Teaching)
13. Omniscience (8th Teaching)
14. Nothing And All

Total time: 57:08

Exact Audio Copy V0.99 prebeta 5 from 4. May 2009

EAC extraction logfile from 7. February 2010, 3:17

Tangerine Dream / Autumn In Hiroshima

Used drive : ASUS DRW-1814BL Adapter: 0 ID: 0

Read mode : Secure
Utilize accurate stream : Yes
Defeat audio cache : Yes
Make use of C2 pointers : No

Read offset correction : 6
Overread into Lead-In and Lead-Out : No
Fill up missing offset samples with silence : Yes
Delete leading and trailing silent blocks : No
Null samples used in CRC calculations : Yes
Used interface : Native Win32 interface for Win NT & 2000

Used output format : Internal WAV Routines
Sample format : 44.100 Hz; 16 Bit; Stereo


TOC of the extracted CD

Track | Start | Length | Start sector | End sector
––––––––––––––––––––––––––––-
1 | 0:00.00 | 9:25.38 | 0 | 42412
2 | 9:25.38 | 3:59.55 | 42413 | 60392
3 | 13:25.18 | 4:59.26 | 60393 | 82843
4 | 18:24.44 | 4:46.06 | 82844 | 104299
5 | 23:10.50 | 1:08.42 | 104300 | 109441
6 | 24:19.17 | 4:09.54 | 109442 | 128170
7 | 28:28.71 | 2:48.25 | 128171 | 140795
8 | 31:17.21 | 2:42.52 | 140796 | 152997
9 | 33:59.73 | 2:27.03 | 152998 | 164025
10 | 36:27.01 | 5:38.28 | 164026 | 189403
11 | 42:05.29 | 1:21.11 | 189404 | 195489
12 | 43:26.40 | 5:32.51 | 195490 | 220440
13 | 48:59.16 | 5:57.20 | 220441 | 247235
14 | 54:56.36 | 2:11.02 | 247236 | 257062


Range status and errors

Selected range

Filename D:\EAC\Tangerine Dream - Autumn In Hiroshima.wav

Peak level 98.8 %
Range quality 100.0 %
Test CRC 024998AE
Copy CRC 024998AE
Copy OK

No errors occurred


AccurateRip summary

Track 1 accurately ripped (confidence 6) [4B042B9B]
Track 2 accurately ripped (confidence 6) [C2A396FE]
Track 3 accurately ripped (confidence 6) [CF199702]
Track 4 accurately ripped (confidence 6) [92DBD9DC]
Track 5 accurately ripped (confidence 6) [420F840D]
Track 6 accurately ripped (confidence 6) [3F6D4428]
Track 7 accurately ripped (confidence 6) [E794FA20]
Track 8 accurately ripped (confidence 6) [5B3882A8]
Track 9 accurately ripped (confidence 6) [7DBDE10A]
Track 10 accurately ripped (confidence 6) [206CC4D7]
Track 11 accurately ripped (confidence 6) [ED8E39C9]
Track 12 accurately ripped (confidence 6) [F2F77B7D]
Track 13 accurately ripped (confidence 6) [AE4F02F3]
Track 14 accurately ripped (confidence 6) [7FEC910A]

All tracks accurately ripped

End of status report

[CUETools log; Date: 12.04.2021 17:16:52; Version: 2.1.4]
[CTDB TOCID: F62dcLr4LznMBtXONxh.TVSegCk-] found.
Track | CTDB Status
1 | (50/50) Accurately ripped
2 | (50/50) Accurately ripped
3 | (50/50) Accurately ripped
4 | (50/50) Accurately ripped
5 | (50/50) Accurately ripped
6 | (50/50) Accurately ripped
7 | (50/50) Accurately ripped
8 | (50/50) Accurately ripped
9 | (50/50) Accurately ripped
10 | (50/50) Accurately ripped
11 | (50/50) Accurately ripped
12 | (50/50) Accurately ripped
13 | (50/50) Accurately ripped
14 | (50/50) Accurately ripped
[AccurateRip ID: 001ff7a9-0146f9a7-c90d630e] found.
Track [ CRC | V2 ] Status
01 [4b042b9b|716a9dc8] (14+10/40) Accurately ripped
02 [c2a396fe|138d7b8a] (14+10/39) Accurately ripped
03 [cf199702|a3a602f2] (14+10/40) Accurately ripped
04 [92dbd9dc|d3196aa4] (14+10/40) Accurately ripped
05 [420f840d|f993f133] (14+10/40) Accurately ripped
06 [3f6d4428|3a964140] (14+10/40) Accurately ripped
07 [e794fa20|12d6161f] (14+10/41) Accurately ripped
08 [5b3882a8|df4abed8] (14+10/40) Accurately ripped
09 [7dbde10a|fbf48e13] (14+10/40) Accurately ripped
10 [206cc4d7|bb36d2e2] (14+10/40) Accurately ripped
11 [ed8e39c9|5b366a42] (14+10/40) Accurately ripped
12 [f2f77b7d|b0dde08d] (14+10/41) Accurately ripped
13 [ae4f02f3|ed1d0617] (14+10/41) Accurately ripped
14 [7fec910a|e850cea4] (14+10/40) Accurately ripped
Offsetted by -48:
01 [fb51c892] (04/40) Accurately ripped
02 [4160a8c1] (04/39) Accurately ripped
03 [c2888314] (04/40) Accurately ripped
04 [e7c0be91] (04/40) Accurately ripped
05 [ada88089] (04/40) Accurately ripped
06 [b1e34114] (04/40) Accurately ripped
07 [919c84ca] (04/41) Accurately ripped
08 [5b42101c] (04/40) Accurately ripped
09 [a2c94e65] (04/40) Accurately ripped
10 [f17bed92] (04/40) Accurately ripped
11 [d479ebd1] (04/40) Accurately ripped
12 [665926ee] (04/41) Accurately ripped
13 [6679f63e] (04/41) Accurately ripped
14 [5797a8a4] (04/40) Accurately ripped

Track Peak [ CRC32 ] [W/O NULL] [ LOG ]
– 98,8 [024998AE] [CF77A5ED] CRC32
01 98,8 [99BB1C4D] [0A9E9A10]
02 98,8 [E77F9F78] [6B512A3D]
03 98,8 [9DC4CDD1] [266E12FC]
04 98,8 [CD7DF65F] [16BB9DE5]
05 98,8 [A9D6A59D] [AE25851A]
06 98,8 [8BBD4338] [A1111B44]
07 98,8 [415EE8FA] [EE5ACF05]
08 98,8 [6E1FB150] [DCD44732]
09 98,8 [81BCC7A8] [E84BF4A3]
10 98,8 [42CAA380] [27F4F31B]
11 98,8 [67D70B81] [4A6E7880]
12 98,8 [0B6E82B5] [1E89D1CC]
13 98,8 [C88A638A] [B2F5D803]
14 89,8 [5FC260BF] [B5F79CAF]

Thanks to the original releaser

See also:
Tangerine Dream - The Electronic Journey (2010) [10CD Box Set]
Tangerine Dream - The Dream Roots Collection [5CD Box Set] (1996)
Tangerine Dream - Electronic Meditation (1970) [Reissue 1996]
Tangerine Dream - Alpha Centauri (1971) [Reissue 1996]
Tangerine Dream - Alpha Centauri (1971) [Reissue 2011]
Tangerine Dream - Zeit (1972) [Reissue 1996]
Tangerine Dream - Atem (1973) [Reissue 2011]
Tangerine Dream - Phaedra (1974) [Original Edition]
Tangerine Dream - Phaedra (1974) [Definitive Edition 1995]
Tangerine Dream - Rubycon (1975) [Non-remastered, Reissue 1988]
Tangerine Dream - Rubycon (1975) [Definitive Edition 1995]
Tangerine Dream - Ricochet (1975) [Definitive Edition 1995]
Tangerine Dream - Stratosfear (1976) [Definitive Edition 1995]
Tangerine Dream - Encore (1977)
Tangerine Dream - Sorcerer (OST) (1977) [Reissue 2011]
Tangerine Dream - Force Majeure (1979) [Reissue 1995]
Tangerine Dream - Tangram (1980)
Tangerine Dream - Pergamon (1980) [Reissue 1996]
Tangerine Dream - White Eagle (1982) [Reissue 1995]
Tangerine Dream - Logos Live (1982) [Definitive Edition 1995]
Tangerine Dream - Hyperborea (1983)
Tangerine Dream - Wavelength [OST] (1983)
Tangerine Dream - Poland - The Warsaw Concert (1984) [Reissue 2011]
Tangerine Dream - Firestarter ...ion Picture Soundtrack] (1984)
Tangerine Dream - Underwater Sunlight (1986) [Reissue 1996]
Tangerine Dream - Green Desert [Recorded 1973] (1986)
Tangerine Dream - Legend (OST) (1986) [Reissue 1995]
Tangerine Dream - Tyger (1987) [Reissue 1992, US version]
Tangerine Dream - Tyger (1987) [Reissue 1996]
Tangerine Dream - Three O'Clock High [OST] (1987)
Tangerine Dream - Optical Race (1988)
Tangerine Dream - Live Miles (1988) [Reissue 2003]
Tangerine Dream - Lily On The Beach (1989)
Tangerine Dream - Melrose (1990)
Tangerine Dream - Dead Solid Perfect (OST) (1990)
Tangerine Dream - The Park Is Mine (OST) (1991)
Tangerine Dream - Rockoon (1992) [Reissue 2000]
Tangerine Dream - Deadly Care (OST) (1992)
Tangerine Dream - Quinoa (1992) [Reissue 2009]
Tangerine Dream - The Story Of Tangerine Dream (1992)
Tangerine Dream - Catch Me If You Can (OST) (1994)
Tangerine Dream - Tyranny Of Beauty (1995)
Tangerine Dream - Goblins' Club (1996)
Tangerine Dream - Zoning (OST) (1996)
Tangerine Dream - The Analogue Space Years 1969-1973 (1998)
Tangerine Dream - The Hollywood Years Vol. 1 (1998)
Tangerine Dream - The Hollywood Years Vol. 2 (1998)
Tangerine Dream - Atlantic Bridges [Recorded 1988-1997] (1998)
Tangerine Dream - Antique Dreams (2000)
Tangerine Dream - Soundmill Navigator (2000)
Tangerine Dream - The Bootleg Box Set Vol. 1 [7CD] (2003)
Tangerine Dream - Purgatorio (2004)
Tangerine Dream - Arizona Live '92 (2004) [Reissue 2009]
Tangerine Dream - Phaedra 2005 (2005) [Japanese Edition 2009]
Tangerine Dream - Cleveland - June 24th 1986 (2005)
Tangerine Dream - Blue Dawn (2006)
Tangerine Dream - The Essential Tangerine Dream (2006)
Tangerine Dream - Plays Tangerine Dream (2006)
Tangerine Dream - Springtime In Nagasaki (2007)
Tangerine Dream - Views From A Red Train (2008)
Tangerine Dream - Booster (2008)
Tangerine Dream - Booster Vol. 2 (2008)
Tangerine Dream - The Antholog... Space Years Volume One (2008)
Tangerine Dream - Booster III (2009)
Tangerine Dream - Axiat [Recorded 1999-2005] (2009)
Tangerine Dream - Music For Sports: Cool Races (2009)
Tangerine Dream - Music For Sports: Power And Motion (2009)
Tangerine Dream - DM V (Dream Mixes V) (2010)
Tangerine Dream - The London Eye Concert (2010)
Tangerine Dream - Zeitgeist Concert [3CD Box Set] (2010)
Tangerine Dream - The Virgin Years 1974-1978 [3CD Box Set] (2011)
Tangerine Dream - Booster IV (2011)
Tangerine Dream - Booster V (2012)
Tangerine Dream - The Official...ies Vol.1 [4CD Box Set] (2015)
Tangerine Dream - Live At The Tempodrome Berlin (2006) [DVD]
Tangerine Dream - Live At Coventry Cathedral 1975 (2007) [DVD]
Tangerine Dream - Madcap's Flaming Duty [DVD] (2007)
Tangerine Dream - 35th Phaedra Anniversary Concert [2DVD] (2007)
Edgar Froese - 2 Albums (1974-1995)
Edgar Froese - Ages (1978) [Reissue 1997]
Edgar Froese - Pinnacles (1983)