Subcategories
Tags
Language
Tags

Tangerine Dream - Rockface: Live in Berkeley / San Francisco 1988 (2003)

Posted By: gribovar
Tangerine Dream - Rockface: Live in Berkeley / San Francisco 1988 (2003)

Tangerine Dream - Rockface: Live in Berkeley / San Francisco 1988 (2003)
EAC Rip | APE (image+.cue+log) - 760 MB | MP3 CBR 320 kbps (LAME 3.93) - 255 MB | Covers included
Genre: Progressive Electronic, Berlin School | RAR 3% Rec. | Label: TDI Music (TDI CD035)

In late 2003 TD surprised their fans with the announcement of Rockface, a live recording from the 1988 North America tour. The double album was finally released on December 18th, 2003 and features a virtually untouched soundboard recording of the third-last gig of that tour, recorded in Berkeley/San FranciAfter several bootlegs and fan releases this album is the first official recording from that tour featuring the short-time line-up Froese/Haslinger/Wadephul. The sound quality is excellent for a live album, though not always studio standard. One minor flaw is the missing of about three minutes of music on the first disc (according to official information from TDI the sound engineer had to change tapes at that moment). The missing part is located in the midst of the track Parabola and consists of unreleased music very reminiscent of the composition I Hear You Now by Jon & Vangelis. Anyway the music is mixed quite well, so the missing part can be hardly noticed if the listener cannot compare the music to other fan or bootleg recordings of the same tour.
For a large part, the music material consists of compositions from the album Optical Race (1988) which is understandable as the tour was performed to promote that first album on TD's new US-based label Private Music (owned by ex-member Peter Baumann at that time). On the other hand there are adaptions of some TD classics from Phaedra (1974) and Logos Live (1982), some tracks from forthcoming soundtrack albums like Miracle Mile, Destination Berlin (both 1989) and Canyon Dreams (1991) as well as a handful of new compositions that are not featured on any studio or soundtrack album. Thus, fans who like Tangerine Dream's music of the late eighties will find this album highly enjoyable.
There is hardly any Tangerine Dream release without an error in the track listing or the liner notes. On this release the liner notes say "This concert was recorded during the band's North American tour in June/July 1988" which is obviously wrong, as the tour took place between August 25th and September 28th.

CD 1 Tracklist:
01. Mothers Of Rain
02. After The Call
03. Tyger (Instrumental)
04. Alchemy Of The Heart
05. Papyrus (Piano)
06. Phaedra 88
07. Live Miles
08. Logos 88
09. Parabola

Total time: 55:40

CD 2 Tracklist:
01. Table Bay
02. Nomad's Scale
03. Cat Scan
04. Atlas Eyes
05. Marakesh
06. Eden's Gate
07. Ghazal

Encores:
08. Alexander Square
09. The Silent League
10. Canyon Voices
11. Optical Race

Total time: 51:54

Exact Audio Copy V0.99 prebeta 5 from 4. May 2009

EAC extraction logfile from 26. December 2009, 23:04

Tangerine Dream / Rockface

Used drive : ASUS DRW-1814BL Adapter: 0 ID: 0

Read mode : Secure
Utilize accurate stream : Yes
Defeat audio cache : Yes
Make use of C2 pointers : No

Read offset correction : 6
Overread into Lead-In and Lead-Out : No
Fill up missing offset samples with silence : Yes
Delete leading and trailing silent blocks : No
Null samples used in CRC calculations : Yes
Used interface : Native Win32 interface for Win NT & 2000

Used output format : Internal WAV Routines
Sample format : 44.100 Hz; 16 Bit; Stereo


TOC of the extracted CD

Track | Start | Length | Start sector | End sector
––––––––––––––––––––––––––––-
1 | 0:00.00 | 5:21.69 | 0 | 24143
2 | 5:21.69 | 5:36.65 | 24144 | 49408
3 | 10:58.59 | 4:58.36 | 49409 | 71794
4 | 15:57.20 | 4:10.42 | 71795 | 90586
5 | 20:07.62 | 3:45.44 | 90587 | 107505
6 | 23:53.31 | 4:23.48 | 107506 | 127278
7 | 28:17.04 | 10:19.64 | 127279 | 173767
8 | 38:36.68 | 5:55.42 | 173768 | 200434
9 | 44:32.35 | 11:07.37 | 200435 | 250496


Range status and errors

Selected range

Filename D:\EAC\Tangerine Dream - Rockface (CD 1).wav

Peak level 100.0 %
Range quality 100.0 %
Copy CRC 7E29E518
Copy OK

No errors occurred


AccurateRip summary

Track 1 accurately ripped (confidence 3) [15E71BFE]
Track 2 accurately ripped (confidence 3) [B8D0A71D]
Track 3 accurately ripped (confidence 3) [77B0B098]
Track 4 accurately ripped (confidence 3) [D6AC7A39]
Track 5 accurately ripped (confidence 3) [A0975DF1]
Track 6 accurately ripped (confidence 3) [13F5E134]
Track 7 accurately ripped (confidence 3) [40CB4851]
Track 8 accurately ripped (confidence 3) [5EC94EF8]
Track 9 accurately ripped (confidence 3) [B9E0DD29]

All tracks accurately ripped

End of status report

[CUETools log; Date: 15.04.2021 17:50:41; Version: 2.1.4]
[CTDB TOCID: ibOiEBQwfTzWcW9AjgfrmxCoTn8-] found.
Track | CTDB Status
1 | (12/13) Accurately ripped
2 | (12/13) Accurately ripped
3 | (12/13) Accurately ripped
4 | (12/13) Accurately ripped
5 | (12/13) Accurately ripped
6 | (12/13) Accurately ripped
7 | (12/13) Accurately ripped
8 | (12/13) Accurately ripped
9 | (13/13) Accurately ripped
[AccurateRip ID: 0010b6fc-007cb081-800d0b09] found.
Track [ CRC | V2 ] Status
01 [15e71bfe|756c4811] (09+05/14) Accurately ripped
02 [b8d0a71d|22b237d3] (09+05/14) Accurately ripped
03 [77b0b098|34313e9f] (09+05/14) Accurately ripped
04 [d6ac7a39|e1b0cefd] (09+05/14) Accurately ripped
05 [a0975df1|3b17797c] (09+05/14) Accurately ripped
06 [13f5e134|1fbb8ad0] (09+05/14) Accurately ripped
07 [40cb4851|9a960e1d] (09+06/15) Accurately ripped
08 [5ec94ef8|5e49f5b7] (09+05/14) Accurately ripped
09 [b9e0dd29|61a8de33] (09+05/14) Accurately ripped

Track Peak [ CRC32 ] [W/O NULL] [ LOG ]
– 100,0 [7E29E518] [80EC72CA] CRC32
01 100,0 [66B2586A] [6F24E007]
02 100,0 [37E83350] [3A208A75]
03 100,0 [1CCF3F06] [2C12F3C8]
04 100,0 [E042DEC3] [41BEE3B5]
05 96,8 [C2F12D65] [0D4BA9FA]
06 98,8 [930D9830] [7C472A9B]
07 99,9 [C01EECE5] [E498C1EF]
08 100,0 [29C585BA] [B05D72E6]
09 100,0 [D01802FD] [578D20BB]

Exact Audio Copy V0.99 prebeta 5 from 4. May 2009

EAC extraction logfile from 27. December 2009, 0:03

Tangerine Dream / Rockface

Used drive : ASUS DRW-1814BL Adapter: 0 ID: 0

Read mode : Secure
Utilize accurate stream : Yes
Defeat audio cache : Yes
Make use of C2 pointers : No

Read offset correction : 6
Overread into Lead-In and Lead-Out : No
Fill up missing offset samples with silence : Yes
Delete leading and trailing silent blocks : No
Null samples used in CRC calculations : Yes
Used interface : Native Win32 interface for Win NT & 2000

Used output format : Internal WAV Routines
Sample format : 44.100 Hz; 16 Bit; Stereo


TOC of the extracted CD

Track | Start | Length | Start sector | End sector
––––––––––––––––––––––––––––-
1 | 0:00.00 | 2:20.49 | 0 | 10548
2 | 2:20.49 | 9:00.02 | 10549 | 51050
3 | 11:20.51 | 5:34.62 | 51051 | 76162
4 | 16:55.38 | 4:28.31 | 76163 | 96293
5 | 21:23.69 | 7:59.08 | 96294 | 132226
6 | 29:23.02 | 1:38.00 | 132227 | 139576
7 | 31:01.02 | 5:13.51 | 139577 | 163102
8 | 36:14.53 | 5:11.34 | 163103 | 186461
9 | 41:26.12 | 1:39.28 | 186462 | 193914
10 | 43:05.40 | 4:48.61 | 193915 | 215575
11 | 47:54.26 | 3:59.17 | 215576 | 233517


Range status and errors

Selected range

Filename D:\EAC\Tangerine Dream - Rockface (CD 2).wav

Peak level 100.0 %
Range quality 100.0 %
Copy CRC CE6AA46A
Copy OK

No errors occurred


AccurateRip summary

Track 1 accurately ripped (confidence 3) [3758B117]
Track 2 accurately ripped (confidence 3) [EEB8C4D3]
Track 3 accurately ripped (confidence 3) [FA313DFC]
Track 4 accurately ripped (confidence 3) [BC4331C8]
Track 5 accurately ripped (confidence 3) [9840F844]
Track 6 accurately ripped (confidence 3) [64C91DD2]
Track 7 accurately ripped (confidence 3) [C6227872]
Track 8 accurately ripped (confidence 3) [69F7E394]
Track 9 accurately ripped (confidence 3) [D7261207]
Track 10 accurately ripped (confidence 3) [EC2EB0C6]
Track 11 accurately ripped (confidence 3) [DB6D7EAB]

All tracks accurately ripped

End of status report

[CUETools log; Date: 15.04.2021 17:51:36; Version: 2.1.4]
[CTDB TOCID: MsIFKubAciPE4x.Ho5ZTPo22zYc-] found.
Track | CTDB Status
1 | (13/14) Accurately ripped
2 | (13/14) Accurately ripped
3 | (13/14) Accurately ripped
4 | (13/14) Accurately ripped
5 | (13/14) Accurately ripped
6 | (13/14) Accurately ripped
7 | (14/14) Accurately ripped
8 | (14/14) Accurately ripped
9 | (13/14) Accurately ripped
10 | (14/14) Accurately ripped
11 | (14/14) Accurately ripped
[AccurateRip ID: 0016dd43-00c3b75b-aa0c290b] found.
Track [ CRC | V2 ] Status
01 [3758b117|3fd916f5] (09+05/14) Accurately ripped
02 [eeb8c4d3|b88ad91a] (09+05/14) Accurately ripped
03 [fa313dfc|9d17cbee] (09+05/14) Accurately ripped
04 [bc4331c8|b371675d] (09+05/14) Accurately ripped
05 [9840f844|56195c2e] (09+05/14) Accurately ripped
06 [64c91dd2|d0caa716] (09+05/14) Accurately ripped
07 [c6227872|8032a90d] (09+05/14) Accurately ripped
08 [69f7e394|351c05e1] (09+05/14) Accurately ripped
09 [d7261207|48c6497d] (09+05/14) Accurately ripped
10 [ec2eb0c6|327d52e7] (09+05/14) Accurately ripped
11 [db6d7eab|72e099e4] (09+05/14) Accurately ripped

Track Peak [ CRC32 ] [W/O NULL] [ LOG ]
– 100,0 [CE6AA46A] [334DB14C] CRC32
01 62,8 [F929E8D4] [2328FA69]
02 100,0 [AB3DCF58] [9A541910]
03 96,6 [EBD06AC0] [81B6C5B3]
04 96,4 [16D16572] [176727F4]
05 100,0 [0814446A] [2D9C57B6]
06 100,0 [59B83E1A] [09FB5F70]
07 100,0 [2DCD1253] [573CA9CA]
08 100,0 [430CACF8] [2EA66508]
09 97,1 [37475078] [1CEFE143]
10 100,0 [CD41F3CE] [D06614A4]
11 100,0 [9D8A1101] [8E41A8A8]

Thanks to the original releaser

See also:
Tangerine Dream - The Electronic Journey (2010) [10CD Box Set]
Tangerine Dream - The Dream Roots Collection [5CD Box Set] (1996)
Tangerine Dream - Electronic Meditation (1970) [Reissue 1996]
Tangerine Dream - Alpha Centauri (1971) [Reissue 1996]
Tangerine Dream - Alpha Centauri (1971) [Reissue 2011]
Tangerine Dream - Zeit (1972) [Reissue 1996]
Tangerine Dream - Atem (1973) [Reissue 2011]
Tangerine Dream - Phaedra (1974) [Original Edition]
Tangerine Dream - Phaedra (1974) [Definitive Edition 1995]
Tangerine Dream - Rubycon (1975) [Non-remastered, Reissue 1988]
Tangerine Dream - Rubycon (1975) [Definitive Edition 1995]
Tangerine Dream - Ricochet (1975) [Definitive Edition 1995]
Tangerine Dream - Stratosfear (1976) [Definitive Edition 1995]
Tangerine Dream - Encore (1977)
Tangerine Dream - Sorcerer (OST) (1977) [Reissue 2011]
Tangerine Dream - Force Majeure (1979) [Reissue 1995]
Tangerine Dream - Tangram (1980)
Tangerine Dream - Pergamon (1980) [Reissue 1996]
Tangerine Dream - White Eagle (1982) [Reissue 1995]
Tangerine Dream - Logos Live (1982) [Definitive Edition 1995]
Tangerine Dream - Hyperborea (1983)
Tangerine Dream - Wavelength [OST] (1983)
Tangerine Dream - Poland - The Warsaw Concert (1984) [Reissue 2011]
Tangerine Dream - Firestarter ...ion Picture Soundtrack] (1984)
Tangerine Dream - Underwater Sunlight (1986) [Non-Remastered]
Tangerine Dream - Underwater Sunlight (1986) [Reissue 1996]
Tangerine Dream - Green Desert [Recorded 1973] (1986)
Tangerine Dream - Legend (OST) (1986) [Reissue 1995]
Tangerine Dream - Tyger (1987) [Reissue 1992, US version]
Tangerine Dream - Tyger (1987) [Reissue 1996]
Tangerine Dream - Three O'Clock High [OST] (1987)
Tangerine Dream - Optical Race (1988)
Tangerine Dream - Live Miles (1988) [Reissue 2003]
Tangerine Dream - Lily On The Beach (1989)
Tangerine Dream - Melrose (1990)
Tangerine Dream - Dead Solid Perfect (OST) (1990)
Tangerine Dream - The Park Is Mine (OST) (1991)
Tangerine Dream - Rockoon (1992) [Reissue 2000]
Tangerine Dream - Deadly Care (OST) (1992)
Tangerine Dream - Quinoa (1992) [Reissue 2009]
Tangerine Dream - The Story Of Tangerine Dream (1992)
Tangerine Dream - Catch Me If You Can (OST) (1994)
Tangerine Dream - Tyranny Of Beauty (1995)
Tangerine Dream - Goblins' Club (1996)
Tangerine Dream - Zoning (OST) (1996)
Tangerine Dream - The Analogue Space Years 1969-1973 (1998)
Tangerine Dream - The Hollywood Years Vol. 1 (1998)
Tangerine Dream - The Hollywood Years Vol. 2 (1998)
Tangerine Dream - Atlantic Bridges [Recorded 1988-1997] (1998)
Tangerine Dream - Antique Dreams (2000)
Tangerine Dream - Soundmill Navigator (2000)
Tangerine Dream - The Bootleg Box Set Vol. 1 [7CD] (2003)
Tangerine Dream - Purgatorio (2004)
Tangerine Dream - Arizona Live '92 (2004) [Reissue 2009]
Tangerine Dream - Phaedra 2005 (2005) [Japanese Edition 2009]
Tangerine Dream - Cleveland - June 24th 1986 (2005)
Tangerine Dream - Blue Dawn (2006)
Tangerine Dream - The Essential Tangerine Dream (2006)
Tangerine Dream - Plays Tangerine Dream (2006)
Tangerine Dream - Springtime In Nagasaki (2007)
Tangerine Dream - Summer In Nagasaki (2007)
Tangerine Dream - Autumn In Hiroshima (2008)
Tangerine Dream - Views From A Red Train (2008)
Tangerine Dream - Booster (2008)
Tangerine Dream - Booster Vol. 2 (2008)
Tangerine Dream - The Antholog... Space Years Volume One (2008)
Tangerine Dream - Booster III (2009)
Tangerine Dream - Axiat [Recorded 1999-2005] (2009)
Tangerine Dream - Music For Sports: Cool Races (2009)
Tangerine Dream - Music For Sports: Power And Motion (2009)
Tangerine Dream - DM V (Dream Mixes V) (2010)
Tangerine Dream - The London Eye Concert (2010)
Tangerine Dream - Zeitgeist Concert [3CD Box Set] (2010)
Tangerine Dream - The Virgin Years 1974-1978 [3CD Box Set] (2011)
Tangerine Dream - Booster IV (2011)
Tangerine Dream - Booster V (2012)
Tangerine Dream - The Official...ies Vol.1 [4CD Box Set] (2015)
Tangerine Dream - Live At The Tempodrome Berlin (2006) [DVD]
Tangerine Dream - Live At Coventry Cathedral 1975 (2007) [DVD]
Tangerine Dream - Madcap's Flaming Duty [DVD] (2007)
Tangerine Dream - 35th Phaedra Anniversary Concert [2DVD] (2007)
Edgar Froese - 2 Albums (1974-1995)
Edgar Froese - Ages (1978) [Reissue 1997]
Edgar Froese - Pinnacles (1983)