Subcategories
Tags
Language
Tags

Tangerine Dream - The Story Of Tangerine Dream (1992)

Posted By: gribovar
Tangerine Dream - The Story Of Tangerine Dream (1992)

Tangerine Dream - The Story Of Tangerine Dream (1992)
EAC Rip | FLAC (tracks+.cue+log) - 683 MB | MP3 CBR 320 kbps (LAME 3.93) - 295 MB | Covers - 32 MB
Genre: Progressive Electronic, Berlin School, New Age | RAR 3% Rec. | Label: Jive (74321 11709 2)

In 1992 one more Compilation was released with well-known music from 'The Pink Years' and 'The Blue Years'. This compilation contains no new material; the music material on disc one is absolutely identical to the 1989 Compilation The Best Of Tangerine Dream.

CD 1 Tracklist:
01. Central Park (New York)
02. Tyger
03. Livemiles (Part II) (Extract)
04. Dolphin Dance
05. Song Of The Whale
Part One: From Dawn
Part Two: From Dusk
06. Le Parc (L.A. Streethawk)
07. Yellowstone Park (Rocky Mountains)
08. Poland (Extract)
09. Astral Voyager
10. Wahn

Total time: 01:12:25

CD 2 Tracklist:
01. Journey Through A Burning Brain
02. Green Desert
03. Horizon

Total time: 52:51

Exact Audio Copy V1.0 beta 3 from 29. August 2011

EAC extraction logfile from 2. April 2013, 19:54

Tangerine Dream / The Story Of Tangerine Dream

Used drive : Optiarc DVD RW AD-7710H Adapter: 0 ID: 1

Read mode : Secure
Utilize accurate stream : Yes
Defeat audio cache : Yes
Make use of C2 pointers : No

Read offset correction : 48
Overread into Lead-In and Lead-Out : No
Fill up missing offset samples with silence : Yes
Delete leading and trailing silent blocks : No
Null samples used in CRC calculations : Yes
Used interface : Native Win32 interface for Win NT & 2000
Gap handling : Appended to previous track

Used output format : User Defined Encoder
Selected bitrate : 128 kBit/s
Quality : High
Add ID3 tag : No
Command line compressor : D:\programs\Exact Audio Copy v .1.0 beta 3\Exact Audio Copy\Flac\flac.exe
Additional command line options : -V -8 -T "Genre=%genre%" -T "Artist=%artist%" -T "Title=%title%" -T "Album=%albumtitle%" -T "Date=%year%" -T "Tracknumber=%tracknr%" -T "Comment=ripped by attami" %source%


TOC of the extracted CD

Track | Start | Length | Start sector | End sector
––––––––––––––––––––––––––––-
1 | 0:00.00 | 3:42.62 | 0 | 16711
2 | 3:42.62 | 5:48.60 | 16712 | 42871
3 | 9:31.47 | 6:13.28 | 42872 | 70874
4 | 15:45.00 | 5:07.47 | 70875 | 93946
5 | 20:52.47 | 19:13.28 | 93947 | 180449
6 | 40:06.00 | 3:22.07 | 180450 | 195606
7 | 43:28.07 | 6:15.20 | 195607 | 223751
8 | 49:43.27 | 11:04.28 | 223752 | 273579
9 | 60:47.55 | 7:08.35 | 273580 | 305714
10 | 67:56.15 | 4:29.32 | 305715 | 325921


Track 1

Filename D:\track+.cue_attami\Tangerine Dream - The Story Of Tangerine Dream (1992)\CD 1\1 - 01. Central Park (New York).wav

Pre-gap length 0:00:02.00

Peak level 80.7 %
Extraction speed 1.2 X
Track quality 100.0 %
Test CRC 03B3CCE9
Copy CRC 03B3CCE9
Accurately ripped (confidence 2) [E238B615] (AR v2)
Copy OK

Track 2

Filename D:\track+.cue_attami\Tangerine Dream - The Story Of Tangerine Dream (1992)\CD 1\1 - 02. Tyger.wav

Pre-gap length 0:00:03.17

Peak level 48.3 %
Extraction speed 1.5 X
Track quality 100.0 %
Test CRC 9534FB7A
Copy CRC 9534FB7A
Accurately ripped (confidence 2) [992D32A6] (AR v2)
Copy OK

Track 3

Filename D:\track+.cue_attami\Tangerine Dream - The Story Of Tangerine Dream (1992)\CD 1\1 - 03. Livemiles (Part II) (Extract).wav

Pre-gap length 0:00:00.65

Peak level 100.0 %
Extraction speed 1.6 X
Track quality 100.0 %
Test CRC 36CF929A
Copy CRC 36CF929A
Accurately ripped (confidence 2) [4AB2E1BF] (AR v2)
Copy OK

Track 4

Filename D:\track+.cue_attami\Tangerine Dream - The Story Of Tangerine Dream (1992)\CD 1\1 - 04. Dolphin Dance.wav

Pre-gap length 0:00:01.60

Peak level 98.2 %
Extraction speed 1.8 X
Track quality 100.0 %
Test CRC 4DAEB18E
Copy CRC 4DAEB18E
Accurately ripped (confidence 2) [82C4D863] (AR v2)
Copy OK

Track 5

Filename D:\track+.cue_attami\Tangerine Dream - The Story Of Tangerine Dream (1992)\CD 1\1 - 05. Song Of The Whale.wav

Pre-gap length 0:00:03.15

Peak level 91.7 %
Extraction speed 2.2 X
Track quality 99.9 %
Test CRC 1EB85C5C
Copy CRC 1EB85C5C
Accurately ripped (confidence 2) [7460A4EB] (AR v2)
Copy OK

Track 6

Filename D:\track+.cue_attami\Tangerine Dream - The Story Of Tangerine Dream (1992)\CD 1\1 - 06. Le Parc (L.A. - Streethawk).wav

Pre-gap length 0:00:00.13

Peak level 86.1 %
Extraction speed 2.1 X
Track quality 100.0 %
Test CRC EF4C9E46
Copy CRC EF4C9E46
Accurately ripped (confidence 2) [1237FACC] (AR v2)
Copy OK

Track 7

Filename D:\track+.cue_attami\Tangerine Dream - The Story Of Tangerine Dream (1992)\CD 1\1 - 07. Yellowstone Park (Rocky Mountains).wav

Pre-gap length 0:00:02.37

Peak level 67.9 %
Extraction speed 2.4 X
Track quality 100.0 %
Test CRC 34816B81
Copy CRC 34816B81
Accurately ripped (confidence 2) [CC5B17E7] (AR v2)
Copy OK

Track 8

Filename D:\track+.cue_attami\Tangerine Dream - The Story Of Tangerine Dream (1992)\CD 1\1 - 08. Poland (Extract).wav

Pre-gap length 0:00:02.20

Peak level 76.5 %
Extraction speed 2.7 X
Track quality 100.0 %
Test CRC 4871679C
Copy CRC 4871679C
Accurately ripped (confidence 2) [A010A8AF] (AR v2)
Copy OK

Track 9

Filename D:\track+.cue_attami\Tangerine Dream - The Story Of Tangerine Dream (1992)\CD 1\1 - 09. Astral Voyager.wav

Pre-gap length 0:00:02.13

Peak level 81.1 %
Extraction speed 2.7 X
Track quality 100.0 %
Test CRC 3154605D
Copy CRC 3154605D
Accurately ripped (confidence 12) [97779920] (AR v1)
Copy OK

Track 10

Filename D:\track+.cue_attami\Tangerine Dream - The Story Of Tangerine Dream (1992)\CD 1\1 - 10. Wahn.wav

Pre-gap length 0:00:01.05

Peak level 86.6 %
Extraction speed 2.7 X
Track quality 100.0 %
Test CRC C39D8B57
Copy CRC C39D8B57
Accurately ripped (confidence 11) [BA00ADA5] (AR v1)
Copy OK


All tracks accurately ripped

No errors occurred

End of status report

==== Log checksum 3658A7CA23D29649A4322A30CE79ED480A2D389B16E9D7FEDAA7DA515B0F8059 ====

[CUETools log; Date: 12.04.2021 14:52:35; Version: 2.1.4]
[CTDB TOCID: jLor_yJZ6VvQJdXDFZhXej.OBNM-] found.
Track | CTDB Status
1 | (115/117) Accurately ripped
2 | (116/117) Accurately ripped
3 | (115/117) Accurately ripped
4 | (116/117) Accurately ripped
5 | (114/117) Accurately ripped
6 | (116/117) Accurately ripped
7 | (115/117) Accurately ripped
8 | (113/117) Accurately ripped
9 | (113/117) Accurately ripped
10 | (114/117) Accurately ripped
[AccurateRip ID: 001a6398-00d99df9-9110f90a] found.
Track [ CRC | V2 ] Status
01 [76d4b597|e238b615] (13+24/48) Accurately ripped
02 [6e20bc15|992d32a6] (13+25/49) Accurately ripped
03 [e94be1ac|4ab2e1bf] (13+25/49) Accurately ripped
04 [1277c2ff|82c4d863] (13+25/49) Accurately ripped
05 [8fc8239c|7460a4eb] (13+23/47) Accurately ripped
06 [3b571e15|1237facc] (14+25/50) Accurately ripped
07 [34a58691|cc5b17e7] (13+23/47) Accurately ripped
08 [f7979de2|a010a8af] (13+23/47) Accurately ripped
09 [97779920|98de418b] (13+23/47) Accurately ripped
10 [ba00ada5|5cde2071] (12+24/47) Accurately ripped
Offsetted by 819:
01 [f8e3786d] (00/48) No match (V2 was not tested)
02 [821411f9] (00/49) No match (V2 was not tested)
03 [9999db14] (00/49) No match (V2 was not tested)
04 [ebe236c0] (00/49) No match (V2 was not tested)
05 [f2d1fca8] (00/47) No match (V2 was not tested)
06 [55460ebf] (00/50) No match (V2 was not tested)
07 [c2aab30c] (00/47) No match (V2 was not tested)
08 [90543e3c] (00/47) No match (V2 was not tested)
09 [c6379bec] (00/47) No match (V2 was not tested)
10 [db1ba001] (00/47) No match (V2 was not tested)

Track Peak [ CRC32 ] [W/O NULL] [ LOG ]
– 100,0 [40070AD5] [66CC92B0]
01 80,7 [03B3CCE9] [2701F720] CRC32
02 48,3 [9534FB7A] [048F59FE] CRC32
03 100,0 [36CF929A] [8F92B122] CRC32
04 98,2 [4DAEB18E] [64E5D015] CRC32
05 91,7 [1EB85C5C] [A9DB5BBD] CRC32
06 86,1 [EF4C9E46] [88DFA554] CRC32
07 67,9 [34816B81] [CBF9E311] CRC32
08 76,5 [4871679C] [3B99C21C] CRC32
09 81,1 [3154605D] [091277DE] CRC32
10 86,6 [C39D8B57] [012880AC] CRC32

Exact Audio Copy V1.0 beta 3 from 29. August 2011

EAC extraction logfile from 2. April 2013, 21:00

Tangerine Dream / The Story Of Tangerine Dream

Used drive : Optiarc DVD RW AD-7710H Adapter: 0 ID: 1

Read mode : Secure
Utilize accurate stream : Yes
Defeat audio cache : Yes
Make use of C2 pointers : No

Read offset correction : 48
Overread into Lead-In and Lead-Out : No
Fill up missing offset samples with silence : Yes
Delete leading and trailing silent blocks : No
Null samples used in CRC calculations : Yes
Used interface : Native Win32 interface for Win NT & 2000
Gap handling : Appended to previous track

Used output format : User Defined Encoder
Selected bitrate : 128 kBit/s
Quality : High
Add ID3 tag : No
Command line compressor : D:\programs\Exact Audio Copy v .1.0 beta 3\Exact Audio Copy\Flac\flac.exe
Additional command line options : -V -8 -T "Genre=%genre%" -T "Artist=%artist%" -T "Title=%title%" -T "Album=%albumtitle%" -T "Date=%year%" -T "Tracknumber=%tracknr%" -T "Comment=ripped by attami" %source%


TOC of the extracted CD

Track | Start | Length | Start sector | End sector
––––––––––––––––––––––––––––-
1 | 0:00.33 | 12:27.50 | 33 | 56107
2 | 12:28.08 | 19:33.50 | 56108 | 144132
3 | 32:01.58 | 20:50.50 | 144133 | 237932


Track 1

Filename D:\track+.cue_attami\Tangerine Dream - The Story Of Tangerine Dream (1992)\CD 2\2 - 01. Journy Through A Burning Brain.wav

Pre-gap length 0:00:02.33

Peak level 75.2 %
Extraction speed 1.3 X
Track quality 99.9 %
Test CRC 9FEC7FC1
Copy CRC 9FEC7FC1
Accurately ripped (confidence 5) [9339CD2B] (AR v1)
Copy OK

Track 2

Filename D:\track+.cue_attami\Tangerine Dream - The Story Of Tangerine Dream (1992)\CD 2\2 - 02. Green Desert.wav

Pre-gap length 0:00:05.50

Peak level 97.1 %
Extraction speed 1.9 X
Track quality 100.0 %
Test CRC 224859AE
Copy CRC 224859AE
Accurately ripped (confidence 5) [4DACE177] (AR v1)
Copy OK

Track 3

Filename D:\track+.cue_attami\Tangerine Dream - The Story Of Tangerine Dream (1992)\CD 2\2 - 03. Horizon.wav

Pre-gap length 0:00:06.50

Peak level 89.4 %
Extraction speed 2.3 X
Track quality 99.9 %
Test CRC 3BF37089
Copy CRC 3BF37089
Accurately ripped (confidence 5) [1391F6EC] (AR v1)
Copy OK


All tracks accurately ripped

No errors occurred

End of status report

==== Log checksum D573205F6D55C822BD49A47F9341A569D323C2928E02E0A495F96B0AE4AD3C0D ====

[CUETools log; Date: 12.04.2021 14:53:04; Version: 2.1.4]
Pregap length 00:00:33.
[CTDB TOCID: XY1rdv_t0nsrIGF5Cppu8HXif7U-] found.
Track | CTDB Status
1 | (19/19) Accurately ripped
2 | (19/19) Accurately ripped
3 | (19/19) Accurately ripped
[AccurateRip ID: 0006afbf-0016d53c-1d0c6403] found.
Track [ CRC | V2 ] Status
01 [9339cd2b|610ef313] (06+04/10) Accurately ripped
02 [4dace177|17e99598] (06+03/09) Accurately ripped
03 [1391f6ec|a2ddd7a9] (06+03/09) Accurately ripped

Track Peak [ CRC32 ] [W/O NULL] [ LOG ]
– 97,1 [B8AB1401] [BEAD170C]
01 75,2 [9FEC7FC1] [63F4B06D] CRC32
02 97,1 [224859AE] [1DE1BA21] CRC32
03 89,4 [3BF37089] [E68A7D5D] CRC32

Thanks to attami

See also:
Tangerine Dream - The Electronic Journey (2010) [10CD Box Set]
Tangerine Dream - The Dream Roots Collection [5CD Box Set] (1996)
Tangerine Dream - Electronic Meditation (1970) [Reissue 1996]
Tangerine Dream - Alpha Centauri (1971) [Reissue 1996]
Tangerine Dream - Alpha Centauri (1971) [Reissue 2011]
Tangerine Dream - Zeit (1972) [Reissue 1996]
Tangerine Dream - Atem (1973) [Reissue 2011]
Tangerine Dream - Phaedra (1974) [Original Edition]
Tangerine Dream - Phaedra (1974) [Definitive Edition 1995]
Tangerine Dream - Rubycon (1975) [Non-remastered, Reissue 1988]
Tangerine Dream - Rubycon (1975) [Definitive Edition 1995]
Tangerine Dream - Ricochet (1975) [Definitive Edition 1995]
Tangerine Dream - Stratosfear (1976) [Definitive Edition 1995]
Tangerine Dream - Encore (1977)
Tangerine Dream - Sorcerer (OST) (1977) [Reissue 2011]
Tangerine Dream - Force Majeure (1979) [Reissue 1995]
Tangerine Dream - Tangram (1980)
Tangerine Dream - Pergamon (1980) [Reissue 1996]
Tangerine Dream - White Eagle (1982) [Reissue 1995]
Tangerine Dream - Logos Live (1982) [Definitive Edition 1995]
Tangerine Dream - Hyperborea (1983)
Tangerine Dream - Wavelength [OST] (1983)
Tangerine Dream - Poland - The Warsaw Concert (1984) [Reissue 2011]
Tangerine Dream - Firestarter ...ion Picture Soundtrack] (1984)
Tangerine Dream - Underwater Sunlight (1986) [Reissue 1996]
Tangerine Dream - Green Desert [Recorded 1973] (1986)
Tangerine Dream - Legend (OST) (1986) [Reissue 1995]
Tangerine Dream - Tyger (1987) [Reissue 1992, US version]
Tangerine Dream - Tyger (1987) [Reissue 1996]
Tangerine Dream - Three O'Clock High [OST] (1987)
Tangerine Dream - Optical Race (1988)
Tangerine Dream - Live Miles (1988) [Reissue 2003]
Tangerine Dream - Lily On The Beach (1989)
Tangerine Dream - Melrose (1990)
Tangerine Dream - Dead Solid Perfect (OST) (1990)
Tangerine Dream - The Park Is Mine (OST) (1991)
Tangerine Dream - Rockoon (1992) [Reissue 2000]
Tangerine Dream - Deadly Care (OST) (1992)
Tangerine Dream - Quinoa (1992) [Reissue 2009]
Tangerine Dream - Catch Me If You Can (OST) (1994)
Tangerine Dream - Tyranny Of Beauty (1995)
Tangerine Dream - Goblins' Club (1996)
Tangerine Dream - Zoning (OST) (1996)
Tangerine Dream - The Analogue Space Years 1969-1973 (1998)
Tangerine Dream - The Hollywood Years Vol. 1 (1998)
Tangerine Dream - The Hollywood Years Vol. 2 (1998)
Tangerine Dream - Atlantic Bridges [Recorded 1988-1997] (1998)
Tangerine Dream - Antique Dreams (2000)
Tangerine Dream - Soundmill Navigator (2000)
Tangerine Dream - The Bootleg Box Set Vol. 1 [7CD] (2003)
Tangerine Dream - Purgatorio (2004)
Tangerine Dream - Arizona Live '92 (2004) [Reissue 2009]
Tangerine Dream - Phaedra 2005 (2005) [Japanese Edition 2009]
Tangerine Dream - Cleveland - June 24th 1986 (2005)
Tangerine Dream - Blue Dawn (2006)
Tangerine Dream - The Essential Tangerine Dream (2006)
Tangerine Dream - Plays Tangerine Dream (2006)
Tangerine Dream - Springtime In Nagasaki (2007)
Tangerine Dream - Views From A Red Train (2008)
Tangerine Dream - Booster (2008)
Tangerine Dream - Booster Vol. 2 (2008)
Tangerine Dream - The Antholog... Space Years Volume One (2008)
Tangerine Dream - Booster III (2009)
Tangerine Dream - Axiat [Recorded 1999-2005] (2009)
Tangerine Dream - Music For Sports: Cool Races (2009)
Tangerine Dream - Music For Sports: Power And Motion (2009)
Tangerine Dream - DM V (Dream Mixes V) (2010)
Tangerine Dream - The London Eye Concert (2010)
Tangerine Dream - Zeitgeist Concert [3CD Box Set] (2010)
Tangerine Dream - The Virgin Years 1974-1978 [3CD Box Set] (2011)
Tangerine Dream - Booster IV (2011)
Tangerine Dream - Booster V (2012)
Tangerine Dream - The Official...ies Vol.1 [4CD Box Set] (2015)
Tangerine Dream - Live At The Tempodrome Berlin (2006) [DVD]
Tangerine Dream - Live At Coventry Cathedral 1975 (2007) [DVD]
Tangerine Dream - Madcap's Flaming Duty [DVD] (2007)
Tangerine Dream - 35th Phaedra Anniversary Concert [2DVD] (2007)
Edgar Froese - 2 Albums (1974-1995)
Edgar Froese - Ages (1978) [Reissue 1997]
Edgar Froese - Pinnacles (1983)