Subcategories
Tags
Language
Tags

Tangerine Dream - Under Cover - Chapter One (2010)

Posted By: gribovar
Tangerine Dream - Under Cover - Chapter One (2010)

Tangerine Dream - Under Cover - Chapter One (2010)
EAC Rip | FLAC (image+.cue+log) - 495 MB | MP3 CBR 320 kbps (LAME 3.93) - 182 MB | Covers included
Genre: Electronic, Synth-pop, Rock | RAR 3% Rec. | Label: Eastgate (046 CD)

Under Cover, though regarded a 'just-for-fun' project by Tangerine Dream themselves might become TD's most controversial album of recent years - using vocals once more and being the first album consisting of only cover versions of well-known rock and pop songs. TD have done a handful of cover versions over the years, but most of them instrumental versions mostly played as encores during their concerts, including Jimi Hendrix' Purple Haze or The Beatles' Eleanor Rigby, Back In The U.S.S.R. and Tomorrow Never Knows. The compositions, originally interpreted by international renowned artists like R.E.M., David Bowie, Kraftwerk, The Eagles or Pink Floyd were re-arranged and performed by TD's current live line-up, supported on eight tracks by vocalist Christian Hausl who already had performed with TD on Madcap's Flaming Duty (2007).
Tracklist:
01. Cry Little Sister
02. Everybody Hurts
03. Precious
04. Space Oddity
05. The Model
06. Wicked Game
07. Hotel California
08. Suzanne
09. Heroes
10. Forever Young
11. Iris
12. Norwegian Wood
13. Hallelujah
14. Wish You Were Here

Total time: 01:16:56

Exact Audio Copy V0.99 prebeta 5 from 4. May 2009

EAC extraction logfile from 9. January 2011, 2:41

Tangerine Dream / Under Cover Chapter One

Used drive : ASUS DRW-1814BL Adapter: 0 ID: 0

Read mode : Secure
Utilize accurate stream : Yes
Defeat audio cache : Yes
Make use of C2 pointers : No

Read offset correction : 6
Overread into Lead-In and Lead-Out : No
Fill up missing offset samples with silence : Yes
Delete leading and trailing silent blocks : No
Null samples used in CRC calculations : Yes
Used interface : Native Win32 interface for Win NT & 2000

Used output format : Internal WAV Routines
Sample format : 44.100 Hz; 16 Bit; Stereo


TOC of the extracted CD

Track | Start | Length | Start sector | End sector
––––––––––––––––––––––––––––-
1 | 0:00.00 | 5:40.36 | 0 | 25535
2 | 5:40.36 | 5:06.30 | 25536 | 48515
3 | 10:46.66 | 4:20.69 | 48516 | 68084
4 | 15:07.60 | 5:34.53 | 68085 | 93187
5 | 20:42.38 | 5:30.03 | 93188 | 117940
6 | 26:12.41 | 4:28.36 | 117941 | 138076
7 | 30:41.02 | 7:39.31 | 138077 | 172532
8 | 38:20.33 | 5:23.67 | 172533 | 196824
9 | 43:44.25 | 4:35.17 | 196825 | 217466
10 | 48:19.42 | 5:40.44 | 217467 | 243010
11 | 54:00.11 | 4:08.64 | 243011 | 261674
12 | 58:09.00 | 5:33.15 | 261675 | 286664
13 | 63:42.15 | 6:19.50 | 286665 | 315139
14 | 70:01.65 | 6:53.71 | 315140 | 346185


Range status and errors

Selected range

Filename D:\EAC\Tangerine Dream - Under Cover Chapter One.wav

Peak level 98.6 %
Range quality 100.0 %
Test CRC 5BD75C5A
Copy CRC 5BD75C5A
Copy OK

No errors occurred


AccurateRip summary

Track 1 not present in database
Track 2 not present in database
Track 3 not present in database
Track 4 not present in database
Track 5 not present in database
Track 6 not present in database
Track 7 not present in database
Track 8 not present in database
Track 9 not present in database
Track 10 not present in database
Track 11 not present in database
Track 12 not present in database
Track 13 not present in database
Track 14 not present in database

None of the tracks are present in the AccurateRip database

End of status report

[CUETools log; Date: 03.05.2021 12:34:34; Version: 2.1.4]
[CTDB TOCID: N0LLH1W5o6ZvX6r2S1zPbNRsbQA-] found.
Track | CTDB Status
1 | (33/34) Accurately ripped
2 | (33/34) Accurately ripped
3 | (33/34) Accurately ripped
4 | (33/34) Accurately ripped
5 | (33/34) Accurately ripped
6 | (33/34) Accurately ripped
7 | (33/34) Accurately ripped
8 | (33/34) Accurately ripped
9 | (33/34) Accurately ripped
10 | (33/34) Accurately ripped
11 | (33/34) Accurately ripped
12 | (33/34) Accurately ripped
13 | (33/34) Accurately ripped
14 | (33/34) Accurately ripped
[AccurateRip ID: 00269e1d-019d357d-b412070e] found.
Track [ CRC | V2 ] Status
01 [fd9b92ef|ca10930e] (04+07/16) Accurately ripped
02 [0ba68962|d2128db8] (04+07/16) Accurately ripped
03 [443441d9|284a99be] (04+07/16) Accurately ripped
04 [41cf4232|dfdbfeb0] (04+07/16) Accurately ripped
05 [bb1f3525|9f186030] (04+07/16) Accurately ripped
06 [f05e57cd|2a8626ab] (04+07/16) Accurately ripped
07 [e0af8ea0|d26a7e61] (04+07/16) Accurately ripped
08 [d5796e29|942f6c6e] (04+07/16) Accurately ripped
09 [cb5d0d3d|5ea35afe] (04+07/16) Accurately ripped
10 [62c7cc87|e7263405] (04+07/16) Accurately ripped
11 [5e5533e0|cd609647] (04+07/16) Accurately ripped
12 [1529823a|ec661cfe] (04+07/16) Accurately ripped
13 [0ae6868e|057e800a] (04+07/16) Accurately ripped
14 [573f2959|7faaea2c] (04+07/16) Accurately ripped
Offsetted by 6:
01 [af92c3f7] (00/16) No match (V2 was not tested)
02 [55ae8113] (00/16) No match (V2 was not tested)
03 [d699723f] (00/16) No match (V2 was not tested)
04 [7f9ebae4] (00/16) No match (V2 was not tested)
05 [95a92f6a] (00/16) No match (V2 was not tested)
06 [000c4049] (00/16) No match (V2 was not tested)
07 [0615152d] (00/16) No match (V2 was not tested)
08 [68bd6e63] (00/16) No match (V2 was not tested)
09 [5aa4c746] (00/16) No match (V2 was not tested)
10 [b93bae66] (00/16) No match (V2 was not tested)
11 [2dc1e6a4] (00/16) No match (V2 was not tested)
12 [b080228a] (00/16) No match (V2 was not tested)
13 [a691a8e2] (00/16) No match (V2 was not tested)
14 [1fd5c420] (00/16) No match (V2 was not tested)

Track Peak [ CRC32 ] [W/O NULL] [ LOG ]
– 98,6 [5BD75C5A] [28D44539] CRC32
01 98,6 [2424740F] [9EE6D53C]
02 98,6 [BEBF2733] [2372D2B1]
03 98,6 [D70943A8] [762D8363]
04 98,6 [8A030C40] [F566D17E]
05 97,9 [35B50796] [08C0F097]
06 98,6 [7512903F] [021FA0EC]
07 98,6 [24508781] [C8866560]
08 97,8 [92587905] [6E0BE609]
09 98,6 [F1FF4B9E] [5E459643]
10 98,6 [083E6650] [CD071AE8]
11 98,6 [87888BD9] [B44DF1FB]
12 98,6 [6FB033E9] [627A3C46]
13 94,5 [9A883A93] [6EF91519]
14 98,6 [F113DB6D] [6087E35C]

Thanks to the original releaser

See also:
Tangerine Dream - The Electronic Journey (2010) [10CD Box Set]
Tangerine Dream - The Dream Roots Collection [5CD Box Set] (1996)
Tangerine Dream - Electronic Meditation (1970) [Reissue 1996]
Tangerine Dream - Alpha Centauri (1971) [Reissue 1996]
Tangerine Dream - Alpha Centauri (1971) [Reissue 2011]
Tangerine Dream - Zeit (1972) [Reissue 1996]
Tangerine Dream - Atem (1973) [Reissue 2011]
Tangerine Dream - Phaedra (1974) [Original Edition]
Tangerine Dream - Phaedra (1974) [Definitive Edition 1995]
Tangerine Dream - Rubycon (1975) [Non-remastered, Reissue 1988]
Tangerine Dream - Rubycon (1975) [Definitive Edition 1995]
Tangerine Dream - Ricochet (1975) [Definitive Edition 1995]
Tangerine Dream - Stratosfear (1976) [Definitive Edition 1995]
Tangerine Dream - Encore (1977)
Tangerine Dream - Sorcerer (OST) (1977) [Reissue 2011]
Tangerine Dream - Force Majeure (1979) [Reissue 1995]
Tangerine Dream - Tangram (1980)
Tangerine Dream - Pergamon (1980) [Reissue 1996]
Tangerine Dream - White Eagle (1982) [Reissue 1995]
Tangerine Dream - Logos Live (1982) [Definitive Edition 1995]
Tangerine Dream - Hyperborea (1983)
Tangerine Dream - Wavelength [OST] (1983)
Tangerine Dream - Poland - The Warsaw Concert (1984) [Reissue 2011]
Tangerine Dream - Firestarter ...ion Picture Soundtrack] (1984)
Tangerine Dream - Underwater Sunlight (1986) [Non-Remastered]
Tangerine Dream - Underwater Sunlight (1986) [Reissue 1996]
Tangerine Dream - Green Desert [Recorded 1973] (1986)
Tangerine Dream - Legend (OST) (1986) [Reissue 1995]
Tangerine Dream - Tyger (1987) [Reissue 1992, US version]
Tangerine Dream - Tyger (1987) [Reissue 1996]
Tangerine Dream - Three O'Clock High [OST] (1987)
Tangerine Dream - Optical Race (1988)
Tangerine Dream - Live Miles (1988) [Reissue 2003]
Tangerine Dream - Lily On The Beach (1989)
Tangerine Dream - Melrose (1990)
Tangerine Dream - Dead Solid Perfect (OST) (1990)
Tangerine Dream - The Park Is Mine (OST) (1991)
Tangerine Dream - Rockoon (1992) [Reissue 2000]
Tangerine Dream - Deadly Care (OST) (1992)
Tangerine Dream - Quinoa (1992) [Reissue 2009]
Tangerine Dream - The Story Of Tangerine Dream (1992)
Tangerine Dream - Catch Me If You Can (OST) (1994)
Tangerine Dream - Tyranny Of Beauty (1995)
Tangerine Dream - Goblins' Club (1996)
Tangerine Dream - Zoning (OST) (1996)
Tangerine Dream - The Analogue Space Years 1969-1973 (1998)
Tangerine Dream - The Hollywood Years Vol. 1 (1998)
Tangerine Dream - The Hollywood Years Vol. 2 (1998)
Tangerine Dream - Atlantic Bridges [Recorded 1988-1997] (1998)
Tangerine Dream - Antique Dreams (2000)
Tangerine Dream - Soundmill Navigator (2000)
Tangerine Dream - The Bootleg Box Set Vol. 1 [7CD] (2003)
Tangerine Dream - Rockface: Li...ey / San Francisco 1988 (2003)
Tangerine Dream - Purgatorio (2004)
Tangerine Dream - Arizona Live '92 (2004) [Reissue 2009]
Tangerine Dream - Phaedra 2005 (2005) [Japanese Edition 2009]
Tangerine Dream - Cleveland - June 24th 1986 (2005)
Tangerine Dream - Blue Dawn (2006)
Tangerine Dream - The Essential Tangerine Dream (2006)
Tangerine Dream - Plays Tangerine Dream (2006)
Tangerine Dream - One Times One (2007)
Tangerine Dream - Springtime In Nagasaki (2007)
Tangerine Dream - Summer In Nagasaki (2007)
Tangerine Dream - Autumn In Hiroshima (2008)
Tangerine Dream - Views From A Red Train (2008)
Tangerine Dream - Booster (2008)
Tangerine Dream - Booster Vol. 2 (2008)
Tangerine Dream - The Antholog... Space Years Volume One (2008)
Tangerine Dream - Flame (2009)
Tangerine Dream - Booster III (2009)
Tangerine Dream - Axiat [Recorded 1999-2005] (2009)
Tangerine Dream - Music For Sports: Cool Races (2009)
Tangerine Dream - Music For Sports: Power And Motion (2009)
Tangerine Dream - DM V (Dream Mixes V) (2010)
Tangerine Dream - The Endless Season (2010)
Tangerine Dream - The London Eye Concert (2010)
Tangerine Dream - Zeitgeist Concert [3CD Box Set] (2010)
Tangerine Dream - Mona Da Vinci (2011)
Tangerine Dream - The Virgin Years 1974-1978 [3CD Box Set] (2011)
Tangerine Dream - Booster IV (2011)
Tangerine Dream - Booster V (2012)
Tangerine Dream - The Official...ies Vol.1 [4CD Box Set] (2015)
Tangerine Dream - Live At The Tempodrome Berlin (2006) [DVD]
Tangerine Dream - Live At Coventry Cathedral 1975 (2007) [DVD]
Tangerine Dream - Madcap's Flaming Duty [DVD] (2007)
Tangerine Dream - 35th Phaedra Anniversary Concert [2DVD] (2007)
Edgar Froese - 2 Albums (1974-1995)
Edgar Froese - Ages (1978) [Reissue 1997]
Edgar Froese - Pinnacles (1983)