Subcategories
Please register here if you want to download anything!

If domain in your address bar is different from the list below
PLEASE LEAVE THAT SITE IMMEDIATELY
❗IT'S A DANGEROUS FAKE❗



Spicy Magazines for Men! ;-)

Ten Years After - All The Best (2012) 2CDs [Re-Up]

Posted By: Designol
Ten Years After - All The Best (2012) 2CDs [Re-Up]

Ten Years After - All The Best (2012) 2CDs
EAC | FLAC | Image (Cue&Log) ~ 1 Gb | Mp3 (CBR320) ~ 372 Mb | Scans included | 02:34:39
Blues-Rock, British Blues, Classic Rock, Hard Rock | Label: EMI | # 50999 6 23594 2 9

Hard-rocking British blues band led by virtuosic guitarist Alvin Lee and best known for their legendary Woodstock performance. 2012 Compilation. 34 Tracks. Including 3 BBC recordings, previously unavailable on CD.

British blues-rock quartet Ten Years After originally consisted of Alvin Lee (born December 19, 1944, died March 6, 2013), guitar and vocals; Chick Churchill (born January 2, 1949), keyboards; Leo Lyons (born November 30, 1944) bass; and Ric Lee (born October 20, 1945), drums. The group was formed in 1967 and signed to Decca in England. Their first album was not a success, but their second, the live Undead (1968) containing "I'm Going Home," a six-minute blues workout by the fleet-fingered Alvin, hit the charts on both sides of the Atlantic. Stonedhenge (1969) hit the U.K. Top Ten in early 1969. Ten Years After's U.S. breakthrough came as a result of their appearance at Woodstock, at which they played a nine-minute version of "I'm Going Home." Their next album, Ssssh, reached the U.S. Top 20, and Cricklewood Green, containing the hit single "Love Like a Man," reached number four. Watt completed the group's Decca contract, after which they signed with Columbia and moved in a more mainstream pop direction, typified by the gold-selling 1971 album A Space in Time and its Top 40 single, "I'd Love to Change the World."

Subsequent efforts in that direction were less successful, however, and Ten Years After split up after the release of Positive Vibrations in 1974. They reunited in 1988 for concerts in Europe and recorded their first new album in 15 years, About Time, in 1989 before disbanding once again. In 2001, Ric Lee was preparing the back catalog for re-release when he discovered the Live at the Fillmore East 1970 tapes. He approached Alvin Lee about getting back together to promote the lost album, but Alvin declined. The rest of the band was up for it, though, and together with guitarist Joe Gooch, Ten Years After started touring again. In addition to touring the world, this new incarnation recorded its first new material in about a decade and a half and released Now in 2004, adding the live double-CD set Roadworks in 2005. Alvin Lee died on March 6, 2013 at the age of 68 due to complications from a routine surgery. Ten Years After continued to tour after Alvin's death with a lineup featuring Chick Churchill and Ric Lee plus two new members: guitarist/vocalist Marcus Bonfanti and bassist Colin Hodgkinson. This incarnation released its first studio album, A Sting in the Tale, in 2017.

Biography by William Ruhlmann, Allmusic.com

Ten Years After - All The Best (2012) 2CDs [Re-Up]



Tracklist:

CD1:

01. Love Like a Man [Single Edit] (3:06)
02. I'm Coming On (3:47)
03. My Baby Left Me (4:57)
04. Think about the Times (4:42)
05. I'd Love to Change the World (3:44)
06. Working on the Road (4:17)
07. I Say Yeah (5:16)
08. Gonna Run (6:02)
09. Bad Scene (3:32)
10. One of These Days (5:41)
11. To No One (3:50)
12. I Get All Shook Up (4:41)
13. Good Morning Little School Girl [Live] (7:18)
14. Choo Choo Mama [Live] (3:04)
15. Sweet Little Sixteen [Live] (4:19)
16. Roll over Beethoven [Live] (4:14)
17. Waiting for Judgement Day (4:32)

CD2:

01. You're Driving Me Crazy (2:25)
02. Baby Won't You Let Me Rock'n'Roll You (2:17)
03. If You Should Love Me (5:19)
04. Hard Monkeys (3:12)
05. Year 3.000 Blues (2:25)
06. Me and My Baby (4:12)
07. Goin' Back to Birmingham (2:38)
08. Nowhere to Run (4:01)
09. I Woke Up This Morning (5:27)
10. Positive Vibrations (4:18)
11. Convention Prevention (4:24)
12. I Wanted to Boogie (3:34)
13. I'm Writing You a Letter [John Peel Session 1972] (6:59)
14. There's a Feeling [John Peel Session 1972] (4:46)
15. Rock'n'Roll Music to the World [John Peel Session 1972] (4:14)
16. Spoonful [Live] (7:41)
17. I'm Going Home [Live] (9:48)


Exact Audio Copy V1.0 beta 4 from 7. December 2014

EAC extraction logfile from 14. February 2015, 21:14

Ten Years After / All the Best CD 1

Used drive : ASUS SDRW-08D1S-U Adapter: 1 ID: 1

Read mode : Secure
Utilize accurate stream : Yes
Defeat audio cache : Yes
Make use of C2 pointers : No

Read offset correction : 667
Overread into Lead-In and Lead-Out : No
Fill up missing offset samples with silence : Yes
Delete leading and trailing silent blocks : No
Null samples used in CRC calculations : Yes
Used interface : Native Win32 interface for Win NT & 2000

Used output format : User Defined Encoder
Selected bitrate : 128 kBit/s
Quality : High
Add ID3 tag : No
Command line compressor : C:\Program Files (x86)\Exact Audio Copy\Flac\flac.exe
Additional command line options : -V -8 -T "Date=%year%" -T "Genre=%genre%" %source%


TOC of the extracted CD

Track | Start | Length | Start sector | End sector
––––––––––––––––––––––––––––-
1 | 0:00.00 | 3:05.53 | 0 | 13927
2 | 3:05.53 | 3:47.00 | 13928 | 30952
3 | 6:52.53 | 4:56.48 | 30953 | 53200
4 | 11:49.26 | 4:42.17 | 53201 | 74367
5 | 16:31.43 | 3:44.30 | 74368 | 91197
6 | 20:15.73 | 4:16.47 | 91198 | 110444
7 | 24:32.45 | 5:15.45 | 110445 | 134114
8 | 29:48.15 | 6:01.56 | 134115 | 161245
9 | 35:49.71 | 3:31.59 | 161246 | 177129
10 | 39:21.55 | 5:40.55 | 177130 | 202684
11 | 45:02.35 | 3:49.61 | 202685 | 219920
12 | 48:52.21 | 4:41.14 | 219921 | 241009
13 | 53:33.35 | 7:17.68 | 241010 | 273852
14 | 60:51.28 | 3:03.55 | 273853 | 287632
15 | 63:55.08 | 4:18.62 | 287633 | 307044
16 | 68:13.70 | 4:13.73 | 307045 | 326092
17 | 72:27.68 | 4:31.71 | 326093 | 346488


Range status and errors

Selected range

Filename C:\Users\Олег\Desktop\CD1\Ten Years After - All the Best CD 1.wav

Peak level 99.8 %
Extraction speed 2.1 X
Range quality 100.0 %
Test CRC B8BA3414
Copy CRC B8BA3414
Copy OK

No errors occurred


AccurateRip summary

Track 1 accurately ripped (confidence 1) [022CDD32] (AR v2)
Track 2 accurately ripped (confidence 1) [BC1C7E33] (AR v2)
Track 3 accurately ripped (confidence 1) [F735E46C] (AR v2)
Track 4 accurately ripped (confidence 1) [0812D530] (AR v2)
Track 5 accurately ripped (confidence 1) [9462172B] (AR v2)
Track 6 accurately ripped (confidence 1) [C27EDCFD] (AR v2)
Track 7 accurately ripped (confidence 1) [6F7CFDD9] (AR v2)
Track 8 accurately ripped (confidence 1) [2D99F7C8] (AR v2)
Track 9 accurately ripped (confidence 1) [E2A65520] (AR v2)
Track 10 accurately ripped (confidence 1) [C402060C] (AR v2)
Track 11 accurately ripped (confidence 1) [DEB33A17] (AR v2)
Track 12 accurately ripped (confidence 1) [4332AC49] (AR v2)
Track 13 accurately ripped (confidence 1) [C17E8DE9] (AR v2)
Track 14 accurately ripped (confidence 1) [05EC18AC] (AR v2)
Track 15 accurately ripped (confidence 1) [71182751] (AR v2)
Track 16 accurately ripped (confidence 1) [6EAB9937] (AR v2)
Track 17 accurately ripped (confidence 1) [F1268880] (AR v2)

All tracks accurately ripped

End of status report

–– CUETools DB Plugin V2.1.4

[CTDB TOCID: mgkQoYQGN3yIaDW.fL8Ojz3UFBI-] found
Submit result: mgkQoYQGN3yIaDW.fL8Ojz3UFBI- has been confirmed
Track | CTDB Status
1 | (5/5) Accurately ripped
2 | (5/5) Accurately ripped
3 | (5/5) Accurately ripped
4 | (5/5) Accurately ripped
5 | (5/5) Accurately ripped
6 | (5/5) Accurately ripped
7 | (5/5) Accurately ripped
8 | (5/5) Accurately ripped
9 | (5/5) Accurately ripped
10 | (5/5) Accurately ripped
11 | (5/5) Accurately ripped
12 | (5/5) Accurately ripped
13 | (5/5) Accurately ripped
14 | (5/5) Accurately ripped
15 | (5/5) Accurately ripped
16 | (5/5) Accurately ripped
17 | (5/5) Accurately ripped


==== Log checksum EAA41E5E34131EF96638834B3FB0A409540D7C3A0ECD31DF830A1D2F45059A13 ====

foobar2000 1.2 / Dynamic Range Meter 1.1.1
log date: 2017-09-13 03:05:08

––––––––––––––––––––––––––––––––––––––––
Analyzed: Ten Years After / All the Best CD 1
––––––––––––––––––––––––––––––––––––––––

DR Peak RMS Duration Track
––––––––––––––––––––––––––––––––––––––––
DR8 -0.01 dB -8.62 dB 3:06 01-Love Like a Man [Single Edit]
DR8 -0.01 dB -8.48 dB 3:47 02-I'm Coming On
DR8 -0.01 dB -9.69 dB 4:57 03-My Baby Left Me
DR8 -0.01 dB -9.63 dB 4:42 04-Think about the Times
DR8 -0.01 dB -10.31 dB 3:44 05-I'd Love to Change the World
DR8 -0.01 dB -9.51 dB 4:17 06-Working on the Road
DR8 -0.01 dB -9.31 dB 5:16 07-I Say Yeah
DR10 -0.01 dB -11.01 dB 6:02 08-Gonna Run
DR9 -0.01 dB -10.60 dB 3:32 09-Bad Scene
DR8 -0.01 dB -10.21 dB 5:41 10-One of These Days
DR8 -0.01 dB -9.83 dB 3:50 11-To No One
DR12 -0.01 dB -13.91 dB 4:41 12-I Get All Shook Up
DR9 -0.01 dB -10.08 dB 7:18 13-Good Morning Little School Girl [Live]
DR9 -0.01 dB -9.69 dB 3:04 14-Choo Choo Mama [Live]
DR9 -0.01 dB -10.37 dB 4:19 15-Sweet Little Sixteen [Live]
DR8 -0.01 dB -9.96 dB 4:14 16-Roll over Beethoven [Live]
DR11 -0.01 dB -11.35 dB 4:32 17-Waiting for Judgement Day
––––––––––––––––––––––––––––––––––––––––

Number of tracks: 17
Official DR value: DR9

Samplerate: 44100 Hz
Channels: 2
Bits per sample: 16
Bitrate: 947 kbps
Codec: FLAC
================================================================================


Exact Audio Copy V1.0 beta 4 from 7. December 2014

EAC extraction logfile from 15. February 2015, 8:44

Ten Years After / All the Best CD 2

Used drive : ASUS SDRW-08D1S-U Adapter: 1 ID: 1

Read mode : Secure
Utilize accurate stream : Yes
Defeat audio cache : Yes
Make use of C2 pointers : No

Read offset correction : 667
Overread into Lead-In and Lead-Out : No
Fill up missing offset samples with silence : Yes
Delete leading and trailing silent blocks : No
Null samples used in CRC calculations : Yes
Used interface : Native Win32 interface for Win NT & 2000

Used output format : User Defined Encoder
Selected bitrate : 128 kBit/s
Quality : High
Add ID3 tag : No
Command line compressor : C:\Program Files (x86)\Exact Audio Copy\Flac\flac.exe
Additional command line options : -V -8 -T "Date=%year%" -T "Genre=%genre%" %source%


TOC of the extracted CD

Track | Start | Length | Start sector | End sector
––––––––––––––––––––––––––––-
1 | 0:00.00 | 2:24.65 | 0 | 10864
2 | 2:24.65 | 2:16.38 | 10865 | 21102
3 | 4:41.28 | 5:18.61 | 21103 | 45013
4 | 10:00.14 | 3:11.41 | 45014 | 59379
5 | 13:11.55 | 2:25.33 | 59380 | 70287
6 | 15:37.13 | 4:12.12 | 70288 | 89199
7 | 19:49.25 | 2:38.03 | 89200 | 101052
8 | 22:27.28 | 4:01.10 | 101053 | 119137
9 | 26:28.38 | 5:27.00 | 119138 | 143662
10 | 31:55.38 | 4:18.01 | 143663 | 163013
11 | 36:13.39 | 4:24.14 | 163014 | 182827
12 | 40:37.53 | 3:34.29 | 182828 | 198906
13 | 44:12.07 | 6:58.64 | 198907 | 230320
14 | 51:10.71 | 4:45.53 | 230321 | 251748
15 | 55:56.49 | 4:13.74 | 251749 | 270797
16 | 60:10.48 | 7:41.31 | 270798 | 305403
17 | 67:52.04 | 9:47.43 | 305404 | 349471


Range status and errors

Selected range

Filename C:\Users\Олег\Desktop\CD2\Ten Years After - All the Best CD 2.wav

Peak level 99.8 %
Extraction speed 2.2 X
Range quality 99.9 %
Test CRC 2B0CA3E4
Copy CRC 2B0CA3E4
Copy OK

No errors occurred


AccurateRip summary

Track 1 accurately ripped (confidence 2) [45E12D7F] (AR v2)
Track 2 accurately ripped (confidence 2) [7F549E0A] (AR v2)
Track 3 accurately ripped (confidence 2) [E0F54D65] (AR v2)
Track 4 accurately ripped (confidence 2) [5DC6F714] (AR v2)
Track 5 accurately ripped (confidence 2) [D55AA33B] (AR v2)
Track 6 accurately ripped (confidence 1) [C98FAD7E] (AR v2)
Track 7 accurately ripped (confidence 1) [01F983C7] (AR v2)
Track 8 accurately ripped (confidence 2) [A5221458] (AR v2)
Track 9 accurately ripped (confidence 2) [E2DE3C57] (AR v2)
Track 10 accurately ripped (confidence 2) [BB627614] (AR v2)
Track 11 accurately ripped (confidence 2) [BAFD02F4] (AR v2)
Track 12 accurately ripped (confidence 2) [508F31C3] (AR v2)
Track 13 accurately ripped (confidence 2) [782C7967] (AR v2)
Track 14 accurately ripped (confidence 2) [F5F74B3C] (AR v2)
Track 15 accurately ripped (confidence 2) [767B0463] (AR v2)
Track 16 accurately ripped (confidence 2) [C4D441E5] (AR v2)
Track 17 accurately ripped (confidence 2) [F84C3C7F] (AR v2)

All tracks accurately ripped

End of status report

–– CUETools DB Plugin V2.1.4

[CTDB TOCID: dgyWurwI.zTSPokUadN28Y9TQ2Y-] found
Submit result: dgyWurwI.zTSPokUadN28Y9TQ2Y- has been confirmed
Track | CTDB Status
1 | (5/5) Accurately ripped
2 | (5/5) Accurately ripped
3 | (5/5) Accurately ripped
4 | (5/5) Accurately ripped
5 | (5/5) Accurately ripped
6 | (5/5) Accurately ripped
7 | (5/5) Accurately ripped
8 | (5/5) Accurately ripped
9 | (5/5) Accurately ripped
10 | (5/5) Accurately ripped
11 | (5/5) Accurately ripped
12 | (5/5) Accurately ripped
13 | (5/5) Accurately ripped
14 | (5/5) Accurately ripped
15 | (5/5) Accurately ripped
16 | (5/5) Accurately ripped
17 | (5/5) Accurately ripped


==== Log checksum 2EBB78B284E8EC1032DC119706A477626A7126EF334FC314E9A1A99D56A76A29 ====

foobar2000 1.2 / Dynamic Range Meter 1.1.1
log date: 2017-09-13 03:05:41

––––––––––––––––––––––––––––––––––––––––
Analyzed: Ten Years After / All the Best CD 2
––––––––––––––––––––––––––––––––––––––––

DR Peak RMS Duration Track
––––––––––––––––––––––––––––––––––––––––
DR8 -0.01 dB -8.35 dB 2:25 01-You're Driving Me Crazy
DR8 -0.01 dB -9.06 dB 2:17 02-Baby Won't You Let Me Rock'n'Roll You
DR9 -0.01 dB -10.10 dB 5:19 03-If You Should Love Me
DR9 -0.01 dB -10.67 dB 3:12 04-Hard Monkeys
DR10 -0.01 dB -11.14 dB 2:25 05-Year 3.000 Blues
DR8 -0.01 dB -9.03 dB 4:12 06-Me and My Baby
DR8 -0.01 dB -8.54 dB 2:38 07-Goin' Back to Birmingham
DR9 -0.01 dB -9.37 dB 4:01 08-Nowhere to Run
DR9 -0.01 dB -9.62 dB 5:27 09-I Woke Up This Morning
DR8 -0.01 dB -8.65 dB 4:18 10-Positive Vibrations
DR9 -0.01 dB -9.95 dB 4:24 11-Convention Prevention
DR9 -0.01 dB -9.19 dB 3:34 12-I Wanted to Boogie
DR8 -0.01 dB -9.08 dB 6:59 13-I'm Writing You a Letter [John Peel Session 1972]
DR9 -0.01 dB -9.64 dB 4:46 14-There's a Feeling [John Peel Session 1972]
DR10 -0.01 dB -11.83 dB 4:14 15-Rock'n'Roll Music to the World [John Peel Session 1972]
DR9 -0.01 dB -10.08 dB 7:41 16-Spoonful [Live]
DR10 -0.01 dB -11.71 dB 9:48 17-I'm Going Home [Live]
––––––––––––––––––––––––––––––––––––––––

Number of tracks: 17
Official DR value: DR9

Samplerate: 44100 Hz
Channels: 2
Bits per sample: 16
Bitrate: 960 kbps
Codec: FLAC
================================================================================

Ten Years After - All The Best (2012) 2CDs [Re-Up]

Ten Years After - All The Best (2012) 2CDs [Re-Up]