Tags
Language
Tags
April 2024
Su Mo Tu We Th Fr Sa
31 1 2 3 4 5 6
7 8 9 10 11 12 13
14 15 16 17 18 19 20
21 22 23 24 25 26 27
28 29 30 1 2 3 4

VA - The Big Chill: (Original Motion Picture Soundtrack) (Deluxe Edition) (Remastered) (1983/2004)

Posted By: Rtax
VA - The Big Chill: (Original Motion Picture Soundtrack) (Deluxe Edition) (Remastered) (1983/2004)

VA - The Big Chill: (Original Motion Picture Soundtrack) (Deluxe Edition) (Remastered) (1983/2004)
EAC Rip | FLAC (tracks, cue, log) - 711 MB | MP3 CBR 320 kbps - 268 MB
1:57:31 | Stage & Screen, Soul, Funk, Pop, R&B, Rock | Label: Hip-O Select

This movie made Motown hot again and spawned two best-selling soundtrack albums, both of which you'll find on disc one. Disc two, meanwhile, adds another 19 tracks of classic '60s rock and soul for the ultimate baby-boom flashback! Includes I Heard It Through the Grapevine Marvin Gaye; Good Lovin' Rascals; Tell Him Exciters; When a Man Loves a Woman Percy Sledge; My Girl Temptations; We Ain't Got Nothin' Yet Blues Magoos; What Becomes of the Brokenhearted Jimmy Ruffin, and more. 38 classic tunes!

Writer/director Lawrence Kasdan's The Big Chill was one of Hollywood's first forays into baby-boomer navel-gazing, an examination of 60's idealism gone sour during the subsequent selfish excesses of the Me Decade and Go-Go 80's. It's Motown classics-dominated score became both a commercial sensation and generational touchstone, facets that often overlooked its status as one of the most artistically skillful pop song scores ever set to a film. This deluxe two CD edition won't defuse any of the often overweening nostalgia that's been its hallmark. Indeed, this slip-cased, expanded set (which includes the 1983 album's complete original track listing, as well as that of its 1984 sequel, More Songs From the Big Chill) often seems to relish in them on the new classic-rock dominated second disc, Bigger Chill: Music of a Generation. The second disc's tracks (which span more Motown, and a gamut from James Brown to Lesley Gore) are "inspired" by the film and not in it, but should more than please those enthralled by the original collection. Also included are previously unavailable instrumental versions of the Stones' "You Can't Always Get What You Want," Bert Kaempfert's "Strangers in the Night" and the mock TV "J.T. Lancer" theme, tracks that were the film's only "traditional" scoring touches. –Jerry McCulley

Disc 1
1. Marvin Gaye – I Heard It Through The Grapevine (05:01)
2. The Temptations – My Girl (02:43)
3. The Rascals – Good Lovin' (02:30)
4. The Miracles – Tracks Of My Tears (02:56)
5. Three Dog Night – Joy To The World (03:36)
6. The Temptations – Ain't Too Proud To Beg (02:33)
7. Aretha Franklin – (You Make Me Feel Like A) Natural Woman (02:42)
8. The Miracles – I Second That Emotion (02:48)
9. Procol Harum – A Whiter Shade Of Pale (04:03)
10. The Exciters – Tell Him (02:31)
11. Creedence Clearwater Revival – Bad Moon Rising (02:21)
12. Percy Sledge – When A Man Loves A Woman (02:57)
13. The Young Rascals – In The Midnight Hour (04:02)
14. The Spencer Davis Group – Gimme Some Lovin' (02:58)
15. The Band – The Weight (04:35)
16. The Beach Boys – Wouldn't It Be Nice (02:24)
17. Bert Kaempfert – Strangers In The Night (03:21)
18. The Rolling Stones – You Can't Always Get What You Want [Church Version] (01:24)
19. David Kurtz – "J.T. Lancer" Theme (01:28)

Disc 2
1. Four Tops – It's The Same Old Song (02:48)
2. Martha Reeves & The Vandellas – Dancing In The Street (02:40)
3. Marvin Gaye – What's Going On (03:54)
4. The Marvelettes – Too Many Fish In The Sea (02:30)
5. Marvin Gaye & Tammi Terrell – Ain't Nothing Like The Real Thing (02:16)
6. Jimmy Ruffin – What Becomes Of The Brokenhearted (03:01)
7. Junior Walker & The All Stars – Shotgun (02:59)
8. The Isley Brothers – Take Me In Your Arms (Rock Me A Little While) (02:40)
9. The Supremes – Ask Any Girl (02:46)
10. Lesley Gore – You Don't Own Me (02:32)
11. Spanky & Our Gang – Like To Get To Know You (03:18)
12. The Mamas & The Papas – Monday, Monday (03:28)
13. The Moody Blues – Nights In White Satin (07:32)
14. Joe Cocker – Feelin' Alright (04:14)
15. Wayne Fontana & The Mindbenders – Game Of Love (02:08)
16. James Brown – I Got You (I Feel Good) (02:48)
17. Blues Magoos – (We Ain't Got) Nothin' Yet (02:19)
18. The Zombies – Time Of The Season (03:34)
19. Howard Tate – Get It While You Can (02:44)
Exact Audio Copy V1.0 beta 3 from 29. August 2011

EAC extraction logfile from 24. October 2019, 11:18

Various Artists / The Big Chill Original Soundtrack Deluxe Edition

Used drive : PIONEER BD-RW BDR-209D Adapter: 1 ID: 0

Read mode : Secure
Utilize accurate stream : Yes
Defeat audio cache : Yes
Make use of C2 pointers : No

Read offset correction : 667
Overread into Lead-In and Lead-Out : No
Fill up missing offset samples with silence : Yes
Delete leading and trailing silent blocks : No
Null samples used in CRC calculations : Yes
Used interface : Native Win32 interface for Win NT & 2000
Gap handling : Appended to previous track

Used output format : User Defined Encoder
Selected bitrate : 1024 kBit/s
Quality : High
Add ID3 tag : No
Command line compressor : C:\Program Files (x86)\Exact Audio Copy\Flac\flac.exe
Additional command line options : -8 -e -p -V -T "ARTIST=%artist%" -T "TITLE=%title%" -T "ALBUM=%albumtitle%" -T "DATE=%year%" -T "TRACKNUMBER=%tracknr%" -T "GENRE=%genre%" -T "PERFORMER=%albuminterpret%" -T "COMPOSER=%composer%" %haslyrics%–tag-from-file=LYRICS="%lyricsfile%"%haslyrics% -T "ALBUMARTIST=%albumartist%" -T "DISCNUMBER=%cdnumber%" -T "TOTALDISCS=%totalcds%" -T "TOTALTRACKS=%numtracks%" -T "COMMENT=%comment%" %source% -o %dest%


TOC of the extracted CD

Track | Start | Length | Start sector | End sector
––––––––––––––––––––––––––––-
1 | 0:00.00 | 5:01.35 | 0 | 22609
2 | 5:01.35 | 2:43.53 | 22610 | 34887
3 | 7:45.13 | 2:30.71 | 34888 | 46208
4 | 10:16.09 | 2:56.54 | 46209 | 59462
5 | 13:12.63 | 3:36.17 | 59463 | 75679
6 | 16:49.05 | 2:33.01 | 75680 | 87155
7 | 19:22.06 | 2:42.33 | 87156 | 99338
8 | 22:04.39 | 2:48.28 | 99339 | 111966
9 | 24:52.67 | 4:03.05 | 111967 | 130196
10 | 28:55.72 | 2:31.72 | 130197 | 141593
11 | 31:27.69 | 2:21.50 | 141594 | 152218
12 | 33:49.44 | 2:57.60 | 152219 | 165553
13 | 36:47.29 | 4:02.35 | 165554 | 183738
14 | 40:49.64 | 2:58.15 | 183739 | 197103
15 | 43:48.04 | 4:35.70 | 197104 | 217798
16 | 48:23.74 | 2:24.23 | 217799 | 228621
17 | 50:48.22 | 3:21.47 | 228622 | 243743
18 | 54:09.69 | 1:24.40 | 243744 | 250083
19 | 55:34.34 | 1:28.73 | 250084 | 256756


Track 1

Filename C:\EACRips\VA - The Big Chill (1983) {Hip-O Select B0001940-02 RE 2004 CD} [FLAC]\CD1\01 - Marvin Gaye - I Heard It Through The Grapevine.wav

Pre-gap length 0:00:02.00

Peak level 89.0 %
Extraction speed 4.7 X
Track quality 99.9 %
Test CRC F9A44491
Copy CRC F9A44491
Accurately ripped (confidence 23) [3272863C] (AR v2)
Copy OK

Track 2

Filename C:\EACRips\VA - The Big Chill (1983) {Hip-O Select B0001940-02 RE 2004 CD} [FLAC]\CD1\02 - The Temptations - My Girl.wav

Pre-gap length 0:00:02.08

Peak level 62.1 %
Extraction speed 5.1 X
Track quality 100.0 %
Test CRC E12A0ED8
Copy CRC E12A0ED8
Accurately ripped (confidence 24) [228C956F] (AR v2)
Copy OK

Track 3

Filename C:\EACRips\VA - The Big Chill (1983) {Hip-O Select B0001940-02 RE 2004 CD} [FLAC]\CD1\03 - The Rascals - Good Lovin'.wav

Pre-gap length 0:00:01.96

Peak level 76.1 %
Extraction speed 5.4 X
Track quality 100.0 %
Test CRC 0FE185DF
Copy CRC 0FE185DF
Accurately ripped (confidence 24) [1818103C] (AR v2)
Copy OK

Track 4

Filename C:\EACRips\VA - The Big Chill (1983) {Hip-O Select B0001940-02 RE 2004 CD} [FLAC]\CD1\04 - Smokey Robinson, The Miracles - The Tracks Of My Tears.wav

Pre-gap length 0:00:02.36

Peak level 89.0 %
Extraction speed 5.8 X
Track quality 100.0 %
Test CRC 61C52F83
Copy CRC 61C52F83
Accurately ripped (confidence 24) [EF2FE960] (AR v2)
Copy OK

Track 5

Filename C:\EACRips\VA - The Big Chill (1983) {Hip-O Select B0001940-02 RE 2004 CD} [FLAC]\CD1\05 - Three Dog Night - Joy To The World.wav

Pre-gap length 0:00:02.12

Peak level 89.0 %
Extraction speed 6.3 X
Track quality 100.0 %
Test CRC 579908A9
Copy CRC 579908A9
Accurately ripped (confidence 24) [B44DC56F] (AR v2)
Copy OK

Track 6

Filename C:\EACRips\VA - The Big Chill (1983) {Hip-O Select B0001940-02 RE 2004 CD} [FLAC]\CD1\06 - The Temptations - Ain't Too Proud To Beg.wav

Pre-gap length 0:00:02.34

Peak level 73.5 %
Extraction speed 6.2 X
Track quality 100.0 %
Test CRC 076FFF12
Copy CRC 076FFF12
Accurately ripped (confidence 24) [EAD0D147] (AR v2)
Copy OK

Track 7

Filename C:\EACRips\VA - The Big Chill (1983) {Hip-O Select B0001940-02 RE 2004 CD} [FLAC]\CD1\07 - Aretha Franklin - (You Make Me Feel Like A) Natural Woman.wav

Pre-gap length 0:00:02.08

Peak level 89.0 %
Extraction speed 6.4 X
Track quality 100.0 %
Test CRC A1E8E257
Copy CRC A1E8E257
Accurately ripped (confidence 24) [D106DD28] (AR v2)
Copy OK

Track 8

Filename C:\EACRips\VA - The Big Chill (1983) {Hip-O Select B0001940-02 RE 2004 CD} [FLAC]\CD1\08 - Smokey Robinson, The Miracles - I Second That Emotion.wav

Pre-gap length 0:00:01.41

Peak level 85.7 %
Extraction speed 6.6 X
Track quality 100.0 %
Test CRC 416BE59C
Copy CRC 416BE59C
Accurately ripped (confidence 24) [4304216D] (AR v2)
Copy OK

Track 9

Filename C:\EACRips\VA - The Big Chill (1983) {Hip-O Select B0001940-02 RE 2004 CD} [FLAC]\CD1\09 - Procol Harum - A Whiter Shade Of Pale.wav

Pre-gap length 0:00:02.17

Peak level 74.1 %
Extraction speed 7.3 X
Track quality 100.0 %
Test CRC A4F352E3
Copy CRC A4F352E3
Accurately ripped (confidence 24) [70F92227] (AR v2)
Copy OK

Track 10

Filename C:\EACRips\VA - The Big Chill (1983) {Hip-O Select B0001940-02 RE 2004 CD} [FLAC]\CD1\10 - The Exciters - Tell Him.wav

Pre-gap length 0:00:01.06

Peak level 82.7 %
Extraction speed 7.0 X
Track quality 100.0 %
Test CRC 2F356BB3
Copy CRC 2F356BB3
Accurately ripped (confidence 24) [A298B886] (AR v2)
Copy OK

Track 11

Filename C:\EACRips\VA - The Big Chill (1983) {Hip-O Select B0001940-02 RE 2004 CD} [FLAC]\CD1\11 - Creedence Clearwater Revival - Bad Moon Rising.wav

Pre-gap length 0:00:02.56

Peak level 100.0 %
Extraction speed 7.0 X
Track quality 100.0 %
Test CRC 789F6784
Copy CRC 789F6784
Accurately ripped (confidence 24) [5373C539] (AR v2)
Copy OK

Track 12

Filename C:\EACRips\VA - The Big Chill (1983) {Hip-O Select B0001940-02 RE 2004 CD} [FLAC]\CD1\12 - Percy Sledge - When A Man Loves A Woman.wav

Pre-gap length 0:00:02.58

Peak level 92.4 %
Extraction speed 7.5 X
Track quality 100.0 %
Test CRC 6283E023
Copy CRC 6283E023
Accurately ripped (confidence 24) [39A84929] (AR v2)
Copy OK

Track 13

Filename C:\EACRips\VA - The Big Chill (1983) {Hip-O Select B0001940-02 RE 2004 CD} [FLAC]\CD1\13 - The Rascals - In The Midnight Hour.wav

Pre-gap length 0:00:02.57

Peak level 96.4 %
Extraction speed 8.0 X
Track quality 100.0 %
Test CRC 6755DC54
Copy CRC 6755DC54
Accurately ripped (confidence 24) [C6A69B51] (AR v2)
Copy OK

Track 14

Filename C:\EACRips\VA - The Big Chill (1983) {Hip-O Select B0001940-02 RE 2004 CD} [FLAC]\CD1\14 - The Spencer Davis Group - Gimme Some Lovin'.wav

Pre-gap length 0:00:02.57

Peak level 97.0 %
Extraction speed 7.8 X
Track quality 100.0 %
Test CRC A80B0CEF
Copy CRC A80B0CEF
Accurately ripped (confidence 24) [3318474C] (AR v2)
Copy OK

Track 15

Filename C:\EACRips\VA - The Big Chill (1983) {Hip-O Select B0001940-02 RE 2004 CD} [FLAC]\CD1\15 - The Band - The Weight.wav

Pre-gap length 0:00:02.58

Peak level 100.0 %
Extraction speed 8.5 X
Track quality 100.0 %
Test CRC 73DF92AF
Copy CRC 73DF92AF
Accurately ripped (confidence 24) [7C2C7563] (AR v2)
Copy OK

Track 16

Filename C:\EACRips\VA - The Big Chill (1983) {Hip-O Select B0001940-02 RE 2004 CD} [FLAC]\CD1\16 - The Beach Boys - Wouldn't It Be Nice.wav

Pre-gap length 0:00:02.56

Peak level 99.9 %
Extraction speed 7.6 X
Track quality 100.0 %
Test CRC D379175E
Copy CRC D379175E
Accurately ripped (confidence 24) [2B2B8022] (AR v2)
Copy OK

Track 17

Filename C:\EACRips\VA - The Big Chill (1983) {Hip-O Select B0001940-02 RE 2004 CD} [FLAC]\CD1\17 - Bert Kaempfert - Strangers in the Night.wav

Pre-gap length 0:00:02.57

Peak level 99.9 %
Extraction speed 8.4 X
Track quality 100.0 %
Test CRC 10383DDE
Copy CRC 10383DDE
Accurately ripped (confidence 23) [8BE76BD8] (AR v2)
Copy OK

Track 18

Filename C:\EACRips\VA - The Big Chill (1983) {Hip-O Select B0001940-02 RE 2004 CD} [FLAC]\CD1\18 - The Rolling Stones - You Can't Always Get What You Want [Church Version].wav

Pre-gap length 0:00:02.58

Peak level 98.8 %
Extraction speed 6.9 X
Track quality 100.0 %
Test CRC 193E3E7C
Copy CRC 193E3E7C
Accurately ripped (confidence 22) [31E27DED] (AR v2)
Copy OK

Track 19

Filename C:\EACRips\VA - The Big Chill (1983) {Hip-O Select B0001940-02 RE 2004 CD} [FLAC]\CD1\19 - David Kurtz - ''J.T. Lancer'' Theme.wav

Pre-gap length 0:00:02.58

Peak level 84.0 %
Extraction speed 5.4 X
Track quality 99.8 %
Test CRC B520276B
Copy CRC B520276B
Accurately ripped (confidence 23) [C96C87AF] (AR v2)
Copy OK


All tracks accurately ripped

No errors occurred

End of status report

–– CUETools DB Plugin V2.1.3

[CTDB TOCID: JJLp4ZdTjp9yTprgJyfK.3ndOXk-] found, Submit result: JJLp4ZdTjp9yTprgJyfK.3ndOXk- has been confirmed
[9d76dce2] (52/55) Accurately ripped
[08eaf8c7] (01/55) No match
[f0241461] (01/55) No match
[13686aa0] (01/55) No match


==== Log checksum 671CD02E3FC609B7972E8AE32492A189C26C1B264049D55EE520D124267FE2E6 ====


Exact Audio Copy V1.0 beta 3 from 29. August 2011

EAC extraction logfile from 24. October 2019, 23:38

Various Artists / The Big Chill Original Soundtrack Deluxe Edition

Used drive : PIONEER BD-RW BDR-209D Adapter: 1 ID: 0

Read mode : Secure
Utilize accurate stream : Yes
Defeat audio cache : Yes
Make use of C2 pointers : No

Read offset correction : 667
Overread into Lead-In and Lead-Out : No
Fill up missing offset samples with silence : Yes
Delete leading and trailing silent blocks : No
Null samples used in CRC calculations : Yes
Used interface : Native Win32 interface for Win NT & 2000
Gap handling : Appended to previous track

Used output format : User Defined Encoder
Selected bitrate : 1024 kBit/s
Quality : High
Add ID3 tag : No
Command line compressor : C:\Program Files (x86)\Exact Audio Copy\Flac\flac.exe
Additional command line options : -8 -e -p -V -T "ARTIST=%artist%" -T "TITLE=%title%" -T "ALBUM=%albumtitle%" -T "DATE=%year%" -T "TRACKNUMBER=%tracknr%" -T "GENRE=%genre%" -T "PERFORMER=%albuminterpret%" -T "COMPOSER=%composer%" %haslyrics%–tag-from-file=LYRICS="%lyricsfile%"%haslyrics% -T "ALBUMARTIST=%albumartist%" -T "DISCNUMBER=%cdnumber%" -T "TOTALDISCS=%totalcds%" -T "TOTALTRACKS=%numtracks%" -T "COMMENT=%comment%" %source% -o %dest%


TOC of the extracted CD

Track | Start | Length | Start sector | End sector
––––––––––––––––––––––––––––-
1 | 0:00.00 | 2:48.19 | 0 | 12618
2 | 2:48.19 | 2:40.40 | 12619 | 24658
3 | 5:28.59 | 3:54.19 | 24659 | 42227
4 | 9:23.03 | 2:30.43 | 42228 | 53520
5 | 11:53.46 | 2:16.37 | 53521 | 63757
6 | 14:10.08 | 3:01.58 | 63758 | 77390
7 | 17:11.66 | 2:59.45 | 77391 | 90860
8 | 20:11.36 | 2:40.25 | 90861 | 102885
9 | 22:51.61 | 2:46.22 | 102886 | 115357
10 | 25:38.08 | 2:32.65 | 115358 | 126822
11 | 28:10.73 | 3:18.43 | 126823 | 141715
12 | 31:29.41 | 3:28.20 | 141716 | 157335
13 | 34:57.61 | 7:32.70 | 157336 | 191305
14 | 42:30.56 | 4:14.02 | 191306 | 210357
15 | 46:44.58 | 2:08.46 | 210358 | 220003
16 | 48:53.29 | 2:48.62 | 220004 | 232665
17 | 51:42.16 | 2:19.30 | 232666 | 243120
18 | 54:01.46 | 3:34.20 | 243121 | 259190
19 | 57:35.66 | 2:44.61 | 259191 | 271551


Track 1

Filename C:\EACRips\VA - The Big Chill (1983) {Hip-O Select B0001940-02 RE 2004 CD} [FLAC]\CD2\01 - Four Tops - It's The Same Old Song.wav

Pre-gap length 0:00:02.00

Peak level 100.0 %
Extraction speed 4.7 X
Track quality 100.0 %
Test CRC F1D9BFD6
Copy CRC F1D9BFD6
Accurately ripped (confidence 19) [7DD8A43B] (AR v2)
Copy OK

Track 2

Filename C:\EACRips\VA - The Big Chill (1983) {Hip-O Select B0001940-02 RE 2004 CD} [FLAC]\CD2\02 - Martha & The Vandellas - Dancing In The Street.wav

Pre-gap length 0:00:02.94

Peak level 85.1 %
Extraction speed 4.9 X
Track quality 100.0 %
Test CRC C33A250E
Copy CRC C33A250E
Accurately ripped (confidence 19) [99B1C796] (AR v2)
Copy OK

Track 3

Filename C:\EACRips\VA - The Big Chill (1983) {Hip-O Select B0001940-02 RE 2004 CD} [FLAC]\CD2\03 - Marvin Gaye - What's Going On.wav

Pre-gap length 0:00:02.89

Peak level 86.4 %
Extraction speed 5.6 X
Track quality 100.0 %
Test CRC 220918D2
Copy CRC 220918D2
Accurately ripped (confidence 20) [4C998C22] (AR v2)
Copy OK

Track 4

Filename C:\EACRips\VA - The Big Chill (1983) {Hip-O Select B0001940-02 RE 2004 CD} [FLAC]\CD2\04 - The Marvelettes - Too Many Fish In The Sea.wav

Pre-gap length 0:00:02.57

Peak level 90.8 %
Extraction speed 5.5 X
Track quality 100.0 %
Test CRC F682772A
Copy CRC F682772A
Accurately ripped (confidence 20) [63AEF0DB] (AR v2)
Copy OK

Track 5

Filename C:\EACRips\VA - The Big Chill (1983) {Hip-O Select B0001940-02 RE 2004 CD} [FLAC]\CD2\05 - Marvin Gaye, Tammi Terrell - Ain't Nothing Like The Real Thing.wav

Pre-gap length 0:00:02.57

Peak level 100.0 %
Extraction speed 5.6 X
Track quality 100.0 %
Test CRC 60486902
Copy CRC 60486902
Accurately ripped (confidence 20) [FADBB301] (AR v2)
Copy OK

Track 6

Filename C:\EACRips\VA - The Big Chill (1983) {Hip-O Select B0001940-02 RE 2004 CD} [FLAC]\CD2\06 - Jimmy Ruffin - What Becomes Of The Brokenhearted.wav

Pre-gap length 0:00:02.57

Peak level 80.9 %
Extraction speed 6.1 X
Track quality 100.0 %
Test CRC 05658CDC
Copy CRC 05658CDC
Accurately ripped (confidence 20) [1B1BA00B] (AR v2)
Copy OK

Track 7

Filename C:\EACRips\VA - The Big Chill (1983) {Hip-O Select B0001940-02 RE 2004 CD} [FLAC]\CD2\07 - Jr. Walker & The All Stars - Shotgun.wav

Pre-gap length 0:00:02.60

Peak level 99.9 %
Extraction speed 5.5 X
Track quality 99.9 %
Test CRC 4C18A707
Copy CRC 4C18A707
Accurately ripped (confidence 20) [5F8CE9FC] (AR v2)
Copy OK

Track 8

Filename C:\EACRips\VA - The Big Chill (1983) {Hip-O Select B0001940-02 RE 2004 CD} [FLAC]\CD2\08 - The Isley Brothers - Take Me In Your Arms (Rock Me A Little While).wav

Pre-gap length 0:00:02.61

Peak level 99.7 %
Extraction speed 5.4 X
Track quality 99.9 %
Test CRC 7EC2B8CF
Copy CRC 7EC2B8CF
Accurately ripped (confidence 20) [5B6AB74D] (AR v2)
Copy OK

Track 9

Filename C:\EACRips\VA - The Big Chill (1983) {Hip-O Select B0001940-02 RE 2004 CD} [FLAC]\CD2\09 - The Supremes - Ask Any Girl.wav

Pre-gap length 0:00:02.57

Peak level 99.9 %
Extraction speed 6.7 X
Track quality 100.0 %
Test CRC 1907C590
Copy CRC 1907C590
Accurately ripped (confidence 20) [3C3E2AEC] (AR v2)
Copy OK

Track 10

Filename C:\EACRips\VA - The Big Chill (1983) {Hip-O Select B0001940-02 RE 2004 CD} [FLAC]\CD2\10 - Lesley Gore - You Don't Own Me.wav

Pre-gap length 0:00:02.57

Peak level 98.3 %
Extraction speed 6.8 X
Track quality 100.0 %
Test CRC 1502C791
Copy CRC 1502C791
Accurately ripped (confidence 20) [DC60120C] (AR v2)
Copy OK

Track 11

Filename C:\EACRips\VA - The Big Chill (1983) {Hip-O Select B0001940-02 RE 2004 CD} [FLAC]\CD2\11 - Spanky & Our Gang - Like To Get To Know You.wav

Pre-gap length 0:00:02.58

Peak level 100.0 %
Extraction speed 7.2 X
Track quality 100.0 %
Test CRC 6639DE74
Copy CRC 6639DE74
Accurately ripped (confidence 20) [B766C4A1] (AR v2)
Copy OK

Track 12

Filename C:\EACRips\VA - The Big Chill (1983) {Hip-O Select B0001940-02 RE 2004 CD} [FLAC]\CD2\12 - The Mamas & The Papas - Monday, Monday.wav

Pre-gap length 0:00:02.57

Peak level 88.0 %
Extraction speed 7.5 X
Track quality 100.0 %
Test CRC BFDC1F1E
Copy CRC BFDC1F1E
Accurately ripped (confidence 20) [12C06ED3] (AR v2)
Copy OK

Track 13

Filename C:\EACRips\VA - The Big Chill (1983) {Hip-O Select B0001940-02 RE 2004 CD} [FLAC]\CD2\13 - The Moody Blues - Nights In White Satin.wav

Pre-gap length 0:00:02.58

Peak level 100.0 %
Extraction speed 8.5 X
Track quality 100.0 %
Test CRC E7AD228D
Copy CRC E7AD228D
Accurately ripped (confidence 21) [627DB14A] (AR v2)
Copy OK

Track 14

Filename C:\EACRips\VA - The Big Chill (1983) {Hip-O Select B0001940-02 RE 2004 CD} [FLAC]\CD2\14 - Joe Cocker - Feelin' Alright.wav

Peak level 84.0 %
Extraction speed 8.3 X
Track quality 100.0 %
Test CRC 214B86A8
Copy CRC 214B86A8
Accurately ripped (confidence 20) [98A6AA73] (AR v2)
Copy OK

Track 15

Filename C:\EACRips\VA - The Big Chill (1983) {Hip-O Select B0001940-02 RE 2004 CD} [FLAC]\CD2\15 - Wayne Fontana & The Mindbenders - Game Of Love.wav

Pre-gap length 0:00:02.56

Peak level 100.0 %
Extraction speed 7.5 X
Track quality 100.0 %
Test CRC 26AF40E7
Copy CRC 26AF40E7
Accurately ripped (confidence 20) [11A161C3] (AR v2)
Copy OK

Track 16

Filename C:\EACRips\VA - The Big Chill (1983) {Hip-O Select B0001940-02 RE 2004 CD} [FLAC]\CD2\16 - James Brown - I Got You (I Feel Good).wav

Pre-gap length 0:00:02.58

Peak level 100.0 %
Extraction speed 8.1 X
Track quality 100.0 %
Test CRC FEE352B2
Copy CRC FEE352B2
Accurately ripped (confidence 20) [AAD718C9] (AR v2)
Copy OK

Track 17

Filename C:\EACRips\VA - The Big Chill (1983) {Hip-O Select B0001940-02 RE 2004 CD} [FLAC]\CD2\17 - Blues Magoos - (We Ain't Got) Nothin' Yet.wav

Pre-gap length 0:00:02.61

Peak level 100.0 %
Extraction speed 8.0 X
Track quality 100.0 %
Test CRC 438828C3
Copy CRC 438828C3
Accurately ripped (confidence 20) [C01C93BA] (AR v2)
Copy OK

Track 18

Filename C:\EACRips\VA - The Big Chill (1983) {Hip-O Select B0001940-02 RE 2004 CD} [FLAC]\CD2\18 - The Zombies - Time Of The Season.wav

Pre-gap length 0:00:02.57

Peak level 94.6 %
Extraction speed 8.7 X
Track quality 100.0 %
Test CRC 47DB9088
Copy CRC 47DB9088
Accurately ripped (confidence 19) [A8BE48FB] (AR v2)
Copy OK

Track 19

Filename C:\EACRips\VA - The Big Chill (1983) {Hip-O Select B0001940-02 RE 2004 CD} [FLAC]\CD2\19 - Howard Tate - Get It While You Can.wav

Pre-gap length 0:00:02.60

Peak level 99.9 %
Extraction speed 8.6 X
Track quality 100.0 %
Test CRC F5E7A1E7
Copy CRC F5E7A1E7
Accurately ripped (confidence 21) [82BA3371] (AR v2)
Copy OK


All tracks accurately ripped

No errors occurred

End of status report

–– CUETools DB Plugin V2.1.3

[CTDB TOCID: WGhsz4eIe2sJ751gH.AYgxX4_IQ-] found, Submit result: already submitted
[cf4ef450] (51/53) Accurately ripped
[46f01e1c] (01/53) No match
[0f41d9d6] (01/53) No match


==== Log checksum 96177C78F658081EA9B67EA19CB56BC009605C0507FA1B0AEAA25B3640FA0EF1 ====