Subcategories
Tags
Language
Tags

The Nazgûl - The Nazgûl (1975) {2017, Remastered}

Posted By: popsakov
The Nazgûl - The Nazgûl (1975) {2017, Remastered}

The Nazgûl - The Nazgûl (1975) {2017, Remastered}
EAC Rip | FLAC (Img) + Cue + Log ~ 239 Mb | MP3 CBR320 ~ 112 Mb
Full Scans ~ 165 Mb | 00:46:36 | RAR 5% Recovery
Krautrock, Progressive Electronic, Abstract, Experimental | Mental Experience #MENT016CD

This was one of several mysterious albums released in limited batches in Germany by the Pyramid label in the mid-'70s and apparently sold mostly through art galleries and other unconventional retail sources. After 1974 the major labels were no longer interested in creative Krautrock and so Pyramid undertook to keep the spirit of this genre alive for another few years. These artists and records were so unknown that when they started being reissued on CD, many people thought they were a hoax. The Nazgul were one of the high points, once one gets past their peculiar fixation with J.R.R. Tolkien's Lord of the Rings. Not only do the group and the track titles derive from the trilogy, but even the bandmembers use Tolkien characters as their only known aliases. Fortunately their album – recorded in Cologne, Germany, in 1975 and 1976 – has strikingly original music, just four long instrumentals of atmospheric, improvised space music that use odd instrumentation to create sounds that are unlike much else. The tracks are all quite free-form and ambient, with lots of murky, shadowy noises to create something dark and disturbing, in the vein of Lustmord, though predating him by a decade. "Dead Marshes," in particular, is eerie and evocative, with lots of gongs and burbling Moogs in the background while an occasional atonal trumpet blares out like some primordial swamp creature. "Mount Doom" is even darker, with wind noises, drones, and cavernous clattering noises, coming off even more like ambient industrial music. Unlike some "lost classics," which should never have been dug up, the Nazgul's sole album is a real winner.

~ Rolf Semprebon, All Music

***************

The Nazgûl - The Nazgûl (1975) {2017, Remastered}

The Nazgûl - The Nazgûl (1975) {2017, Remastered}

Track List:

01. The Tower Of Barad-Dur [12:31]
02. Shelob's Lair [12:17]
03. The Dead Marshes [12:44]
04. Mount Doom [9:05]

Personnel:
Frodo - drums, percussion, gong
Pippin - electric guitar, percussion, tubular bells, trumpet
Gandalf - Mini-Moog, Hammond organ, electric piano, guitar, bass, percussion

Exact Audio Copy V1.3 from 2. September 2016

Отчёт EAC об извлечении, выполненном 4. января 2018, 14:04

THE NAZGÛL / The Nazgûl

Дисковод: TSSTcorpCDDVDW SH-224DB Adapter: 1 ID: 0

Режим чтения : Достоверность
Использование точного потока : Да
Отключение кэша аудио : Да
Использование указателей C2 : Нет

Коррекция смещения при чтении : 6
Способность читать области Lead-in и Lead-out : Нет
Заполнение пропущенных сэмплов тишиной : Да
Удаление блоков с тишиной в начале и конце : Нет
При вычислениях CRC использовались нулевые сэмплы : Да
Интерфейс : Встроенный Win32-интерфейс для Win NT/2000

Выходной формат : Внутренние WAV-операции
Формат сэмплов : 44.100 Гц; 16 бит; стерео


TOC извлечённого CD

Трек | Старт | Длительность | Начальный сектор | Конечный сектор
––––––––––––––––––––––––––––––––––-
1 | 0:00.00 | 12:31.16 | 0 | 56340
2 | 12:31.16 | 12:16.42 | 56341 | 111582
3 | 24:47.58 | 12:44.12 | 111583 | 168894
4 | 37:31.70 | 9:04.40 | 168895 | 209734


Характеристики диапазона извлечения и сообщения об ошибках

Выбранный диапазон

Имя файла D:\TEMP\THE NAZGUL - 1975 - The Nazgul [2017 Mental Experience rem. edition, MENT016CD].wav

Пиковый уровень 100.0 %
Скорость извлечения 6.9 X
Качество диапазона 100.0 %
CRC теста 1ECA3143
CRC копии 1ECA3143
Копирование… OK

Ошибок не произошло


AccurateRip: сводка

Трек 1 отсутствует в базе данных
Трек 2 отсутствует в базе данных
Трек 3 отсутствует в базе данных
Трек 4 отсутствует в базе данных

Ни одного трека нет в базе AccurateRip

Конец отчёта

==== Контрольная сумма отчёта 6F85E29C5CD4E5EE4B64FF3358AEA0F3B1A0B46A5E371D1C910ED4C48ECFAE19 ====

The Nazgûl - The Nazgûl (1975) {2017, Remastered}


All thanks go to spAceLover

>>> My Blog <<<

DOWNLOAD: