Subcategories
Tags
Language
Tags

The Rolling Stones - The Singles 1971-2006 (2011) [45CD Box Set, Japan]

Posted By: v3122
The Rolling Stones - The Singles 1971-2006 (2011) [45CD Box Set, Japan]

The Rolling Stones - The Singles 1971-2006 (2011)
EAC | Flac(Image) + Cue + Log & MP3 CBR 320Kbps
Universal Music Japan, UICY-5011/55 | ~ 6.33 or 2.34 Mb | Artwork(png) -> 716 Mb
Blues Rock / Rock & Roll / Classic Rock

A sequel of sorts to ABKCO’s three boxes of singles replicas from the mid-2000s, Universal’s The Singles: 1971-2006 is a gargantuan 45-disc box set that offers single replicas of every 45 the Rolling Stones released between Sticky Fingers and A Bigger Bang. Singles that saw release over multiple formats, whether they’re 12" dance singles or multi-format CD singles, see their various B-sides combined onto one CD, resulting in a whopping total of 173 tracks, 80 of which are “not currently available on official release.” This is a true statement but it greatly overestimates the actual number of genuine rarities here: most of these cuts are dubs, remixes, and extended versions, with only a small handful of B-sides being non-LP cuts. Of these, there’s even a smaller number dating from the Stones' ‘70s prime: their cooking cover of Chuck Berry’s “Let It Rock” (flip of “Brown Sugar”), the ragged disco rock of “Everything Is Turning to Gold” (the B of “Shattered”), the languid ballad “I Think I’m Going Mad” (“She Was Hot”). The collection includes a fair number of non-LP cuts from the late ‘80s and ‘90s – often tossed-off blues that are quite enjoyable for their casual authority – but only the hardest of hardcore should go into this thinking that they’ll get their money’s worth in rarities. Instead, this is a beautiful collector's item, something that is fun to look at and sample but nearly impossible to enjoy as a straight listening experience.

by Stephen Thomas Erlewine, allmusic
The Rolling Stones - The Singles 1971-2006 (2011) [45CD Box Set, Japan]

Anna Domino - Anna Domino (1986):

Tracklist CD01. Brown Sugar (JP UICY-5011 / EU 0602527597591):

1. Brown Sugar
2. Bitch
3. Let It Rock

Exact Audio Copy V1.0 beta 1 from 15. November 2010

EAC extraction logfile from 6. May 2011, 23:30

The Rolling Stones / The Rolling Stones Singles Collection Disc 01

Used drive : HL-DT-STDVDRAM GSA-H60N Adapter: 2 ID: 0

Read mode : Secure
Utilize accurate stream : Yes
Defeat audio cache : Yes
Make use of C2 pointers : No

Read offset correction : 667
Overread into Lead-In and Lead-Out : No
Fill up missing offset samples with silence : Yes
Delete leading and trailing silent blocks : No
Null samples used in CRC calculations : Yes
Used interface : Native Win32 interface for Win NT & 2000

Used output format : Internal WAV Routines
Sample format : 44.100 Hz; 16 Bit; Stereo


TOC of the extracted CD

Track | Start | Length | Start sector | End sector
––––––––––––––––––––––––––––-
1 | 0:00.00 | 3:50.61 | 0 | 17310
2 | 3:50.61 | 3:36.67 | 17311 | 33577
3 | 7:27.53 | 2:39.45 | 33578 | 45547


Range status and errors

Selected range

Filename C:\Documents and Settings\Администратор\Рабочий стол\Rip by ALLexxess\2011 Rolling Stones Singles Collection 1971-2006 (45CD Box Set Universal Music Japan)\Disc 01\The Rolling Stones Singles Collection Disc 01.wav

Peak level 99.7 %
Extraction speed 1.1 X
Range quality 100.0 %
Test CRC 6AB0EBAC
Copy CRC 6AB0EBAC
Copy OK

No errors occurred


AccurateRip summary

Track 1 accurately ripped (confidence 1) [840986C1]
Track 2 accurately ripped (confidence 1) [55EED0A7]
Track 3 accurately ripped (confidence 1) [ED381A80]

All tracks accurately ripped

End of status report

==== Log checksum 14FBD0DE87194F4E1CDDFB2832F93BB515B32D2F43544893FBD0DD5E60AB124B ====


Tracklist CD02. Wild Horses (JP UICY-5012 / EU 0602527597614):

1. Wild Horses
2. Sway

Exact Audio Copy V1.0 beta 1 from 15. November 2010

EAC extraction logfile from 6. May 2011, 23:56

The Rolling Stones / The Rolling Stones Singles Collection Disc 02

Used drive : HL-DT-STDVDRAM GSA-H60N Adapter: 2 ID: 0

Read mode : Secure
Utilize accurate stream : Yes
Defeat audio cache : Yes
Make use of C2 pointers : No

Read offset correction : 667
Overread into Lead-In and Lead-Out : No
Fill up missing offset samples with silence : Yes
Delete leading and trailing silent blocks : No
Null samples used in CRC calculations : Yes
Used interface : Native Win32 interface for Win NT & 2000

Used output format : Internal WAV Routines
Sample format : 44.100 Hz; 16 Bit; Stereo


TOC of the extracted CD

Track | Start | Length | Start sector | End sector
––––––––––––––––––––––––––––-
1 | 0:00.00 | 5:44.29 | 0 | 25828
2 | 5:44.29 | 3:25.30 | 25829 | 41233


Range status and errors

Selected range

Filename C:\Documents and Settings\Администратор\Рабочий стол\Rip by ALLexxess\2011 Rolling Stones Singles Collection 1971-2006 (45CD Box Set Universal Music Japan)\Disc 02\The Rolling Stones Singles Collection Disc 02.wav

Peak level 99.9 %
Extraction speed 0.4 X
Range quality 100.0 %
Test CRC B8683843
Copy CRC B8683843
Copy OK

No errors occurred


AccurateRip summary

Track 1 accurately ripped (confidence 1) [86BF9400]
Track 2 accurately ripped (confidence 1) [B5A99871]

All tracks accurately ripped

End of status report

==== Log checksum CE3F19A1F7A5FC6942C0944566D30345E425FC30709381FCCCF91D98A8E42171 ====


Tracklist CD03. Tumbling Dice (JP UICY-5013 / EU 0602527597621):

1. Tumbling Dice
2. Sweet Black Angel

Exact Audio Copy V1.0 beta 1 from 15. November 2010

EAC extraction logfile from 7. May 2011, 0:24

The Rolling Stones / The Rolling Stones Singles Collection Disc 03

Used drive : HL-DT-STDVDRAM GSA-H60N Adapter: 2 ID: 0

Read mode : Secure
Utilize accurate stream : Yes
Defeat audio cache : Yes
Make use of C2 pointers : No

Read offset correction : 667
Overread into Lead-In and Lead-Out : No
Fill up missing offset samples with silence : Yes
Delete leading and trailing silent blocks : No
Null samples used in CRC calculations : Yes
Used interface : Native Win32 interface for Win NT & 2000

Used output format : Internal WAV Routines
Sample format : 44.100 Hz; 16 Bit; Stereo


TOC of the extracted CD

Track | Start | Length | Start sector | End sector
––––––––––––––––––––––––––––-
1 | 0:00.00 | 3:45.20 | 0 | 16894
2 | 3:45.20 | 2:55.18 | 16895 | 30037


Range status and errors

Selected range

Filename C:\Documents and Settings\Администратор\Рабочий стол\Rip by ALLexxess\2011 Rolling Stones Singles Collection 1971-2006 (45CD Box Set Universal Music Japan)\Disc 03\The Rolling Stones Singles Collection Disc 03.wav

Peak level 99.5 %
Extraction speed 0.3 X
Range quality 99.8 %
Test CRC F5CD1479
Copy CRC F5CD1479
Copy OK

No errors occurred


AccurateRip summary

Track 1 accurately ripped (confidence 1) [5E3F155A]
Track 2 accurately ripped (confidence 1) [34D2C49B]

All tracks accurately ripped

End of status report

==== Log checksum 2D1D64E5CE977C30FA1822773858062B184A0A05CEA33E24FA940735F349D707 ====


Tracklist CD04. Happy (JP UICY-5014 / EU 0602527597638):

1. Happy
2. All Down The Line

Exact Audio Copy V1.0 beta 1 from 15. November 2010

EAC extraction logfile from 7. May 2011, 0:42

The Rolling Stones / The Rolling Stones Singles Collection Disc 04

Used drive : HL-DT-STDVDRAM GSA-H60N Adapter: 2 ID: 0

Read mode : Secure
Utilize accurate stream : Yes
Defeat audio cache : Yes
Make use of C2 pointers : No

Read offset correction : 667
Overread into Lead-In and Lead-Out : No
Fill up missing offset samples with silence : Yes
Delete leading and trailing silent blocks : No
Null samples used in CRC calculations : Yes
Used interface : Native Win32 interface for Win NT & 2000

Used output format : Internal WAV Routines
Sample format : 44.100 Hz; 16 Bit; Stereo


TOC of the extracted CD

Track | Start | Length | Start sector | End sector
––––––––––––––––––––––––––––-
1 | 0:00.00 | 3:05.58 | 0 | 13932
2 | 3:05.58 | 3:58.10 | 13933 | 31792


Range status and errors

Selected range

Filename C:\Documents and Settings\Администратор\Рабочий стол\Rip by ALLexxess\2011 Rolling Stones Singles Collection 1971-2006 (45CD Box Set Universal Music Japan)\Disc 04\The Rolling Stones Singles Collection Disc 04.wav

Peak level 99.7 %
Extraction speed 0.7 X
Range quality 100.0 %
Test CRC 18C8FEC3
Copy CRC 18C8FEC3
Copy OK

No errors occurred


AccurateRip summary

Track 1 accurately ripped (confidence 2) [C7266896]
Track 2 accurately ripped (confidence 2) [49F950B0]

All tracks accurately ripped

End of status report

==== Log checksum 335A0D930DCF32F50D8DD1264A0EFCEAB8BFBC403B87B8C28B55D6474B4A7105 ====


Tracklist CD05. Angie (JP UICY-5015 / EU 0602527597645):

1. Angie
2. Silver Train

Exact Audio Copy V1.0 beta 1 from 15. November 2010

EAC extraction logfile from 7. May 2011, 1:13

The Rolling Stones / The Rolling Stones Singles Collection Disc 05

Used drive : HL-DT-STDVDRAM GSA-H60N Adapter: 2 ID: 0

Read mode : Secure
Utilize accurate stream : Yes
Defeat audio cache : Yes
Make use of C2 pointers : No

Read offset correction : 667
Overread into Lead-In and Lead-Out : No
Fill up missing offset samples with silence : Yes
Delete leading and trailing silent blocks : No
Null samples used in CRC calculations : Yes
Used interface : Native Win32 interface for Win NT & 2000

Used output format : Internal WAV Routines
Sample format : 44.100 Hz; 16 Bit; Stereo


TOC of the extracted CD

Track | Start | Length | Start sector | End sector
––––––––––––––––––––––––––––-
1 | 0:00.00 | 4:34.17 | 0 | 20566
2 | 4:34.17 | 4:28.21 | 20567 | 40687


Range status and errors

Selected range

Filename C:\Documents and Settings\Администратор\Рабочий стол\Rip by ALLexxess\2011 Rolling Stones Singles Collection 1971-2006 (45CD Box Set Universal Music Japan)\Disc 05\The Rolling Stones Singles Collection Disc 05.wav

Peak level 99.7 %
Extraction speed 0.3 X
Range quality 99.9 %
Test CRC C908C9A2
Copy CRC C908C9A2
Copy OK

No errors occurred


AccurateRip summary

Track 1 accurately ripped (confidence 1) [FCFC54BF]
Track 2 accurately ripped (confidence 1) [06E6BF6D]

All tracks accurately ripped

End of status report

==== Log checksum 33EEE241ACBCAA2F2C96F6EC11ACFD6E98113B6CD065676F5F70B83B43330A38 ====


Tracklist CD06. Doo Doo Doo Doo Doo (Heartbreaker) (JP UICY-5016 / EU 0602527597652):

1. Doo Doo Doo Doo Doo (Heartbreaker)
2. Dancing With Mr. D.

Exact Audio Copy V1.0 beta 1 from 15. November 2010

EAC extraction logfile from 7. May 2011, 9:44

The Rolling Stones / The Rolling Stones Singles Collection Disc 06

Used drive : HL-DT-STDVDRAM GSA-H60N Adapter: 2 ID: 0

Read mode : Secure
Utilize accurate stream : Yes
Defeat audio cache : Yes
Make use of C2 pointers : No

Read offset correction : 667
Overread into Lead-In and Lead-Out : No
Fill up missing offset samples with silence : Yes
Delete leading and trailing silent blocks : No
Null samples used in CRC calculations : Yes
Used interface : Native Win32 interface for Win NT & 2000

Used output format : Internal WAV Routines
Sample format : 44.100 Hz; 16 Bit; Stereo


TOC of the extracted CD

Track | Start | Length | Start sector | End sector
––––––––––––––––––––––––––––-
1 | 0:00.00 | 3:28.13 | 0 | 15612
2 | 3:28.13 | 4:52.02 | 15613 | 37514


Range status and errors

Selected range

Filename C:\Documents and Settings\Администратор\Рабочий стол\Rip by ALLexxess\2011 Rolling Stones Singles Collection 1971-2006 (45CD Box Set Universal Music Japan)\Disc 06\The Rolling Stones Singles Collection Disc 06.wav

Peak level 99.6 %
Extraction speed 0.7 X
Range quality 100.0 %
Test CRC 35E9D4F3
Copy CRC 35E9D4F3
Copy OK

No errors occurred


AccurateRip summary

Track 1 accurately ripped (confidence 1) [0AA978B6]
Track 2 accurately ripped (confidence 1) [5C4ADA8D]

All tracks accurately ripped

End of status report

==== Log checksum D12BEAF9FE022089491C09BE6DFD680F6F58812262B10E1D314B00B83B9C82C9 ====


Tracklist CD07. It’s Only Rock ‘N Roll (JP UICY-5017 / EU 0602527597676):

1. It’s Only Rock ‘N Roll
2. Through The Lonely Nights

Exact Audio Copy V1.0 beta 1 from 15. November 2010

EAC extraction logfile from 7. May 2011, 10:09

The Rolling Stones / The Rolling Stones Singles Collection Disc 07

Used drive : HL-DT-STDVDRAM GSA-H60N Adapter: 2 ID: 0

Read mode : Secure
Utilize accurate stream : Yes
Defeat audio cache : Yes
Make use of C2 pointers : No

Read offset correction : 667
Overread into Lead-In and Lead-Out : No
Fill up missing offset samples with silence : Yes
Delete leading and trailing silent blocks : No
Null samples used in CRC calculations : Yes
Used interface : Native Win32 interface for Win NT & 2000

Used output format : Internal WAV Routines
Sample format : 44.100 Hz; 16 Bit; Stereo


TOC of the extracted CD

Track | Start | Length | Start sector | End sector
––––––––––––––––––––––––––––-
1 | 0:00.00 | 5:09.72 | 0 | 23246
2 | 5:09.72 | 4:12.60 | 23247 | 42206


Range status and errors

Selected range

Filename C:\Documents and Settings\Администратор\Рабочий стол\Rip by ALLexxess\2011 Rolling Stones Singles Collection 1971-2006 (45CD Box Set Universal Music Japan)\Disc 07\The Rolling Stones Singles Collection Disc 07.wav

Peak level 99.7 %
Extraction speed 0.5 X
Range quality 100.0 %
Test CRC 51A9B361
Copy CRC 51A9B361
Copy OK

No errors occurred


AccurateRip summary

Track 1 accurately ripped (confidence 1) [ACD6D8E6]
Track 2 accurately ripped (confidence 1) [ED04A30C]

All tracks accurately ripped

End of status report

==== Log checksum ED5034BC961A5EBC5906E213A2E3B81887EE95579E0858167919EDCC11E6CCB6 ====


Tracklist CD08. Ain’t Too Proud To Beg (JP UICY-5018 / EU 0602527597683):

1. Ain’t Too Proud To Beg
2. Dance Little Sister

Exact Audio Copy V1.0 beta 1 from 15. November 2010

EAC extraction logfile from 7. May 2011, 10:30

The Rolling Stones / The Rolling Stones Singles Collection Disc 08

Used drive : HL-DT-STDVDRAM GSA-H60N Adapter: 2 ID: 0

Read mode : Secure
Utilize accurate stream : Yes
Defeat audio cache : Yes
Make use of C2 pointers : No

Read offset correction : 667
Overread into Lead-In and Lead-Out : No
Fill up missing offset samples with silence : Yes
Delete leading and trailing silent blocks : No
Null samples used in CRC calculations : Yes
Used interface : Native Win32 interface for Win NT & 2000

Used output format : Internal WAV Routines
Sample format : 44.100 Hz; 16 Bit; Stereo


TOC of the extracted CD

Track | Start | Length | Start sector | End sector
––––––––––––––––––––––––––––-
1 | 0:00.00 | 3:31.19 | 0 | 15843
2 | 3:31.19 | 4:07.66 | 15844 | 34434


Range status and errors

Selected range

Filename C:\Documents and Settings\Администратор\Рабочий стол\Rip by ALLexxess\2011 Rolling Stones Singles Collection 1971-2006 (45CD Box Set Universal Music Japan)\Disc 08\The Rolling Stones Singles Collection Disc 08.wav

Peak level 99.7 %
Extraction speed 2.2 X
Range quality 100.0 %
Test CRC DF09CFDA
Copy CRC DF09CFDA
Copy OK

No errors occurred


AccurateRip summary

Track 1 accurately ripped (confidence 1) [DCD85E2D]
Track 2 accurately ripped (confidence 1) [D41EB98D]

All tracks accurately ripped

End of status report

==== Log checksum A9EFB7AE9A86D9C957B9E4F6A22471942BE0B44261957B24AB6D23786AFCC008 ====


Tracklist CD09. Fool To Cry (JP UICY-5019 / EU 0602527597690):

1. Fool To Cry
2. Crazy Mama

Exact Audio Copy V1.0 beta 1 from 15. November 2010

EAC extraction logfile from 7. May 2011, 10:45

The Rolling Stones / The Rolling Stones Singles Collection Disc 09

Used drive : HL-DT-STDVDRAM GSA-H60N Adapter: 2 ID: 0

Read mode : Secure
Utilize accurate stream : Yes
Defeat audio cache : Yes
Make use of C2 pointers : No

Read offset correction : 667
Overread into Lead-In and Lead-Out : No
Fill up missing offset samples with silence : Yes
Delete leading and trailing silent blocks : No
Null samples used in CRC calculations : Yes
Used interface : Native Win32 interface for Win NT & 2000

Used output format : Internal WAV Routines
Sample format : 44.100 Hz; 16 Bit; Stereo


TOC of the extracted CD

Track | Start | Length | Start sector | End sector
––––––––––––––––––––––––––––-
1 | 0:00.00 | 5:07.71 | 0 | 23095
2 | 5:07.71 | 4:35.55 | 23096 | 43775


Range status and errors

Selected range

Filename C:\Documents and Settings\Администратор\Рабочий стол\Rip by ALLexxess\2011 Rolling Stones Singles Collection 1971-2006 (45CD Box Set Universal Music Japan)\Disc 09\The Rolling Stones Singles Collection Disc 09.wav

Peak level 99.8 %
Extraction speed 2.0 X
Range quality 100.0 %
Test CRC 98DB235D
Copy CRC 98DB235D
Copy OK

No errors occurred


AccurateRip summary

Track 1 accurately ripped (confidence 1) [249482CD]
Track 2 accurately ripped (confidence 1) [D0122D33]

All tracks accurately ripped

End of status report

==== Log checksum B2F499173A670865D5EDDA03886CF11D1152916303DF4A20652EA31E661E7F45 ====


Tracklist CD10. Hot Stuff (JP UICY-5020 / EU 0602527597706):

1. Hot Stuff
2. Fool To Cry

Exact Audio Copy V1.0 beta 1 from 15. November 2010

EAC extraction logfile from 7. May 2011, 11:20

The Rolling Stones / The Rolling Stones Singles Collection Disc 10

Used drive : HL-DT-STDVDRAM GSA-H60N Adapter: 2 ID: 0

Read mode : Secure
Utilize accurate stream : Yes
Defeat audio cache : Yes
Make use of C2 pointers : No

Read offset correction : 667
Overread into Lead-In and Lead-Out : No
Fill up missing offset samples with silence : Yes
Delete leading and trailing silent blocks : No
Null samples used in CRC calculations : Yes
Used interface : Native Win32 interface for Win NT & 2000

Used output format : Internal WAV Routines
Sample format : 44.100 Hz; 16 Bit; Stereo


TOC of the extracted CD

Track | Start | Length | Start sector | End sector
––––––––––––––––––––––––––––-
1 | 0:00.00 | 5:24.00 | 0 | 24299
2 | 5:24.00 | 5:06.09 | 24300 | 47258


Range status and errors

Selected range

Filename C:\Documents and Settings\Администратор\Рабочий стол\Rip by ALLexxess\2011 Rolling Stones Singles Collection 1971-2006 (45CD Box Set Universal Music Japan)\Disc 10\The Rolling Stones Singles Collection Disc 10.wav

Peak level 99.7 %
Extraction speed 0.3 X
Range quality 99.8 %
Test CRC 020046A9
Copy CRC 020046A9
Copy OK

No errors occurred


AccurateRip summary

Track 1 accurately ripped (confidence 1) [6923C84A]
Track 2 accurately ripped (confidence 1) [0D71E327]

All tracks accurately ripped

End of status report

==== Log checksum F9A0FD4316AB5C7DCE2EF781C47D17ADC81291233C36122E788D1BDB64825DA1 ====


Tracklist CD11. Miss You (JP UICY-5021 / EU 0602527597713):

1. Miss You
2. Far Away Eyes
3. Miss You (12'' Version)

Exact Audio Copy V1.0 beta 1 from 15. November 2010

EAC extraction logfile from 7. May 2011, 11:38

The Rolling Stones / The Rolling Stones Singles Collection Disc 11

Used drive : HL-DT-STDVDRAM GSA-H60N Adapter: 2 ID: 0

Read mode : Secure
Utilize accurate stream : Yes
Defeat audio cache : Yes
Make use of C2 pointers : No

Read offset correction : 667
Overread into Lead-In and Lead-Out : No
Fill up missing offset samples with silence : Yes
Delete leading and trailing silent blocks : No
Null samples used in CRC calculations : Yes
Used interface : Native Win32 interface for Win NT & 2000

Used output format : Internal WAV Routines
Sample format : 44.100 Hz; 16 Bit; Stereo


TOC of the extracted CD

Track | Start | Length | Start sector | End sector
––––––––––––––––––––––––––––-
1 | 0:00.00 | 3:37.39 | 0 | 16313
2 | 3:37.39 | 3:47.05 | 16314 | 33343
3 | 7:24.44 | 8:35.65 | 33344 | 72033


Range status and errors

Selected range

Filename C:\Documents and Settings\Администратор\Рабочий стол\Rip by ALLexxess\2011 Rolling Stones Singles Collection 1971-2006 (45CD Box Set Universal Music Japan)\Disc 11\The Rolling Stones Singles Collection Disc 11.wav

Peak level 99.5 %
Extraction speed 2.4 X
Range quality 100.0 %
Test CRC 70A96682
Copy CRC 70A96682
Copy OK

No errors occurred


AccurateRip summary

Track 1 accurately ripped (confidence 1) [9AE8C6DF]
Track 2 accurately ripped (confidence 1) [3CA421BB]
Track 3 accurately ripped (confidence 1) [E81BDEE7]

All tracks accurately ripped

End of status report

==== Log checksum C5ADC4D88B52DABCF509A41B7F10C46A2C8E32F89BC570598EA1BA8F2C72D3DF ====


Tracklist CD12. Beast Of Burden (JP UICY-5022 / EU 0602527597720):

1. Beast Of Burden
2. When The Whip Comes Down

Exact Audio Copy V1.0 beta 1 from 15. November 2010

EAC extraction logfile from 7. May 2011, 11:57

The Rolling Stones / The Rolling Stones Singles Collection Disc 12

Used drive : HL-DT-STDVDRAM GSA-H60N Adapter: 2 ID: 0

Read mode : Secure
Utilize accurate stream : Yes
Defeat audio cache : Yes
Make use of C2 pointers : No

Read offset correction : 667
Overread into Lead-In and Lead-Out : No
Fill up missing offset samples with silence : Yes
Delete leading and trailing silent blocks : No
Null samples used in CRC calculations : Yes
Used interface : Native Win32 interface for Win NT & 2000

Used output format : Internal WAV Routines
Sample format : 44.100 Hz; 16 Bit; Stereo


TOC of the extracted CD

Track | Start | Length | Start sector | End sector
––––––––––––––––––––––––––––-
1 | 0:00.00 | 4:28.06 | 0 | 20105
2 | 4:28.06 | 4:21.15 | 20106 | 39695


Range status and errors

Selected range

Filename C:\Documents and Settings\Администратор\Рабочий стол\Rip by ALLexxess\2011 Rolling Stones Singles Collection 1971-2006 (45CD Box Set Universal Music Japan)\Disc 12\The Rolling Stones Singles Collection Disc 12.wav

Peak level 99.7 %
Extraction speed 2.0 X
Range quality 100.0 %
Test CRC C639184E
Copy CRC C639184E
Copy OK

No errors occurred


AccurateRip summary

Track 1 accurately ripped (confidence 1) [951C7C93]
Track 2 accurately ripped (confidence 1) [C3478408]

All tracks accurately ripped

End of status report

==== Log checksum 43C098D446F9F1EB6BE1CC5A57E3FE90A5AD3AEE8222E572A89C87CE15176D0A ====


Tracklist CD13. Respectable (JP UICY-5023 / EU 0602527597737):

1. Respectable
2. When The Whip Comes Down

Exact Audio Copy V1.0 beta 1 from 15. November 2010

EAC extraction logfile from 7. May 2011, 12:17

The Rolling Stones / The Rolling Stones Singles Collection Disc 13

Used drive : HL-DT-STDVDRAM GSA-H60N Adapter: 2 ID: 0

Read mode : Secure
Utilize accurate stream : Yes
Defeat audio cache : Yes
Make use of C2 pointers : No

Read offset correction : 667
Overread into Lead-In and Lead-Out : No
Fill up missing offset samples with silence : Yes
Delete leading and trailing silent blocks : No
Null samples used in CRC calculations : Yes
Used interface : Native Win32 interface for Win NT & 2000

Used output format : Internal WAV Routines
Sample format : 44.100 Hz; 16 Bit; Stereo


TOC of the extracted CD

Track | Start | Length | Start sector | End sector
––––––––––––––––––––––––––––-
1 | 0:00.00 | 3:10.28 | 0 | 14277
2 | 3:10.28 | 4:21.32 | 14278 | 33884


Range status and errors

Selected range

Filename C:\Documents and Settings\Администратор\Рабочий стол\Rip by ALLexxess\2011 Rolling Stones Singles Collection 1971-2006 (45CD Box Set Universal Music Japan)\Disc 13\The Rolling Stones Singles Collection Disc 13.wav

Peak level 99.7 %
Extraction speed 0.7 X
Range quality 100.0 %
Test CRC 703BA350
Copy CRC 703BA350
Copy OK

No errors occurred


AccurateRip summary

Track 1 accurately ripped (confidence 1) [0606E42A]
Track 2 accurately ripped (confidence 1) [10A55BE5]

All tracks accurately ripped

End of status report

==== Log checksum 348B9DE941E2024F08B4991C6ECF1466599CD8DE8976F11CC2AAB2C8E4B57CAA ====


Tracklist CD14. Shattered (JP UICY-5024 / EU 0602527597744):

1. Shattered
2. Everything’s Turning To Gold (Previously Unreleased)

Exact Audio Copy V1.0 beta 1 from 15. November 2010

EAC extraction logfile from 7. May 2011, 12:33

The Rolling Stones / The Rolling Stones Singles Collection Disc 14

Used drive : HL-DT-STDVDRAM GSA-H60N Adapter: 2 ID: 0

Read mode : Secure
Utilize accurate stream : Yes
Defeat audio cache : Yes
Make use of C2 pointers : No

Read offset correction : 667
Overread into Lead-In and Lead-Out : No
Fill up missing offset samples with silence : Yes
Delete leading and trailing silent blocks : No
Null samples used in CRC calculations : Yes
Used interface : Native Win32 interface for Win NT & 2000

Used output format : Internal WAV Routines
Sample format : 44.100 Hz; 16 Bit; Stereo


TOC of the extracted CD

Track | Start | Length | Start sector | End sector
––––––––––––––––––––––––––––-
1 | 0:00.00 | 3:49.52 | 0 | 17226
2 | 3:49.52 | 4:06.67 | 17227 | 35743


Range status and errors

Selected range

Filename C:\Documents and Settings\Администратор\Рабочий стол\Rip by ALLexxess\2011 Rolling Stones Singles Collection 1971-2006 (45CD Box Set Universal Music Japan)\Disc 14\The Rolling Stones Singles Collection Disc 14.wav

Peak level 88.8 %
Extraction speed 2.1 X
Range quality 100.0 %
Test CRC E0F23AEA
Copy CRC E0F23AEA
Copy OK

No errors occurred


AccurateRip summary

Track 1 accurately ripped (confidence 1) [90A3D5F2]
Track 2 accurately ripped (confidence 1) [4903DFE5]

All tracks accurately ripped

End of status report

==== Log checksum 91350486FC89CAC87C170353E7EA31A58B793DE88254F8AF96001D9C0D78EEF0 ====


Tracklist CD15. Emotional Rescue (JP UICY-5025 / EU 0602527597751):

1. Emotional Rescue
2. Down In The Hole

Exact Audio Copy V1.0 beta 1 from 15. November 2010

EAC extraction logfile from 7. May 2011, 12:47

The Rolling Stones / The Rolling Stones Singles Collection Disc 15

Used drive : HL-DT-STDVDRAM GSA-H60N Adapter: 2 ID: 0

Read mode : Secure
Utilize accurate stream : Yes
Defeat audio cache : Yes
Make use of C2 pointers : No

Read offset correction : 667
Overread into Lead-In and Lead-Out : No
Fill up missing offset samples with silence : Yes
Delete leading and trailing silent blocks : No
Null samples used in CRC calculations : Yes
Used interface : Native Win32 interface for Win NT & 2000

Used output format : Internal WAV Routines
Sample format : 44.100 Hz; 16 Bit; Stereo


TOC of the extracted CD

Track | Start | Length | Start sector | End sector
––––––––––––––––––––––––––––-
1 | 0:00.00 | 5:41.35 | 0 | 25609
2 | 5:41.35 | 3:57.66 | 25610 | 43450


Range status and errors

Selected range

Filename C:\Documents and Settings\Администратор\Рабочий стол\Rip by ALLexxess\2011 Rolling Stones Singles Collection 1971-2006 (45CD Box Set Universal Music Japan)\Disc 15\The Rolling Stones Singles Collection Disc 15.wav

Peak level 99.8 %
Extraction speed 1.7 X
Range quality 100.0 %
Test CRC 3354C17E
Copy CRC 3354C17E
Copy OK

No errors occurred


AccurateRip summary

Track 1 accurately ripped (confidence 1) [04412D35]
Track 2 accurately ripped (confidence 1) [167EFC5C]

All tracks accurately ripped

End of status report

==== Log checksum 4F725D75C29E5F8AC7AC3812E0526518A58361878D49B1FC3F82F43E622EA4A3 ====


Tracklist CD16. She’s So Cold (JP UICY-5026 / EU 0602527597768):

1. She’s So Cold
2. Send It To Me

Exact Audio Copy V1.0 beta 1 from 15. November 2010

EAC extraction logfile from 7. May 2011, 13:05

The Rolling Stones / The Rolling Stones Singles Collection Disc 16

Used drive : HL-DT-STDVDRAM GSA-H60N Adapter: 2 ID: 0

Read mode : Secure
Utilize accurate stream : Yes
Defeat audio cache : Yes
Make use of C2 pointers : No

Read offset correction : 667
Overread into Lead-In and Lead-Out : No
Fill up missing offset samples with silence : Yes
Delete leading and trailing silent blocks : No
Null samples used in CRC calculations : Yes
Used interface : Native Win32 interface for Win NT & 2000

Used output format : Internal WAV Routines
Sample format : 44.100 Hz; 16 Bit; Stereo


TOC of the extracted CD

Track | Start | Length | Start sector | End sector
––––––––––––––––––––––––––––-
1 | 0:00.00 | 4:14.22 | 0 | 19071
2 | 4:14.22 | 3:43.34 | 19072 | 35830


Range status and errors

Selected range

Filename C:\Documents and Settings\Администратор\Рабочий стол\Rip by ALLexxess\2011 Rolling Stones Singles Collection 1971-2006 (45CD Box Set Universal Music Japan)\Disc 16\The Rolling Stones Singles Collection Disc 16.wav

Peak level 99.7 %
Extraction speed 1.9 X
Range quality 100.0 %
Test CRC FFBF92D3
Copy CRC FFBF92D3
Copy OK

No errors occurred


AccurateRip summary

Track 1 accurately ripped (confidence 1) [CD1C4A0D]
Track 2 accurately ripped (confidence 1) [2B88C680]

All tracks accurately ripped

End of status report

==== Log checksum 10B2CA99918A3439A7C4E103BC82DFDF2B564D843EDAED4BD09D371B777B625B ====


Tracklist CD17. Start Me Up (JP UICY-5027 / EU 0602527597775):

1. Start Me Up
2. No Use In Crying

Exact Audio Copy V1.0 beta 1 from 15. November 2010

EAC extraction logfile from 7. May 2011, 13:19

The Rolling Stones / The Rolling Stones Singles Collection Disc 17

Used drive : HL-DT-STDVDRAM GSA-H60N Adapter: 2 ID: 0

Read mode : Secure
Utilize accurate stream : Yes
Defeat audio cache : Yes
Make use of C2 pointers : No

Read offset correction : 667
Overread into Lead-In and Lead-Out : No
Fill up missing offset samples with silence : Yes
Delete leading and trailing silent blocks : No
Null samples used in CRC calculations : Yes
Used interface : Native Win32 interface for Win NT & 2000

Used output format : Internal WAV Routines
Sample format : 44.100 Hz; 16 Bit; Stereo


TOC of the extracted CD

Track | Start | Length | Start sector | End sector
––––––––––––––––––––––––––––-
1 | 0:00.00 | 3:35.21 | 0 | 16145
2 | 3:35.21 | 3:26.34 | 16146 | 31629


Range status and errors

Selected range

Filename C:\Documents and Settings\Администратор\Рабочий стол\Rip by ALLexxess\2011 Rolling Stones Singles Collection 1971-2006 (45CD Box Set Universal Music Japan)\Disc 17\The Rolling Stones Singles Collection Disc 17.wav

Peak level 99.6 %
Extraction speed 1.7 X
Range quality 99.9 %
Test CRC 4B031C99
Copy CRC 4B031C99
Copy OK

No errors occurred


AccurateRip summary

Track 1 accurately ripped (confidence 1) [B03CA5D2]
Track 2 accurately ripped (confidence 1) [D6D2768D]

All tracks accurately ripped

End of status report

==== Log checksum 03D8EA925E38EADFD0B3BA3CA4A2AF3DE95176E4BBD1A1036B2630B16D4D56A2 ====


Tracklist CD18. Waiting On A Friend (JP UICY-5028 / EU 0602527597782):

1. Waiting On A Friend
2. Little T&A

Exact Audio Copy V1.0 beta 1 from 15. November 2010

EAC extraction logfile from 7. May 2011, 13:44

The Rolling Stones / The Rolling Stones Singles Collection Disc 18

Used drive : HL-DT-STDVDRAM GSA-H60N Adapter: 2 ID: 0

Read mode : Secure
Utilize accurate stream : Yes
Defeat audio cache : Yes
Make use of C2 pointers : No

Read offset correction : 667
Overread into Lead-In and Lead-Out : No
Fill up missing offset samples with silence : Yes
Delete leading and trailing silent blocks : No
Null samples used in CRC calculations : Yes
Used interface : Native Win32 interface for Win NT & 2000

Used output format : Internal WAV Routines
Sample format : 44.100 Hz; 16 Bit; Stereo


TOC of the extracted CD

Track | Start | Length | Start sector | End sector
––––––––––––––––––––––––––––-
1 | 0:00.00 | 4:36.64 | 0 | 20763
2 | 4:36.64 | 3:21.35 | 20764 | 35873


Range status and errors

Selected range

Filename C:\Documents and Settings\Администратор\Рабочий стол\Rip by ALLexxess\2011 Rolling Stones Singles Collection 1971-2006 (45CD Box Set Universal Music Japan)\Disc 18\The Rolling Stones Singles Collection Disc 18.wav

Peak level 99.6 %
Extraction speed 1.7 X
Range quality 100.0 %
Test CRC 8A6B8F65
Copy CRC 8A6B8F65
Copy OK

No errors occurred


AccurateRip summary

Track 1 accurately ripped (confidence 1) [31A23FB6]
Track 2 accurately ripped (confidence 1) [0B81DAE5]

All tracks accurately ripped

End of status report

==== Log checksum A900029BCE1B891F5893B4F16356650B55610524834DB524D3E8FDB9C6F44C63 ====


Tracklist CD19. Hang Fire (JP UICY-5029 / EU 0602527597799):

1. Hang Fire
2. Neighbours

Exact Audio Copy V1.0 beta 1 from 15. November 2010

EAC extraction logfile from 7. May 2011, 13:59

The Rolling Stones / The Rolling Stones Singles Collection Disc 19

Used drive : HL-DT-STDVDRAM GSA-H60N Adapter: 2 ID: 0

Read mode : Secure
Utilize accurate stream : Yes
Defeat audio cache : Yes
Make use of C2 pointers : No

Read offset correction : 667
Overread into Lead-In and Lead-Out : No
Fill up missing offset samples with silence : Yes
Delete leading and trailing silent blocks : No
Null samples used in CRC calculations : Yes
Used interface : Native Win32 interface for Win NT & 2000

Used output format : Internal WAV Routines
Sample format : 44.100 Hz; 16 Bit; Stereo


TOC of the extracted CD

Track | Start | Length | Start sector | End sector
––––––––––––––––––––––––––––-
1 | 0:00.00 | 2:24.22 | 0 | 10821
2 | 2:24.22 | 3:32.52 | 10822 | 26773


Range status and errors

Selected range

Filename C:\Documents and Settings\Администратор\Рабочий стол\Rip by ALLexxess\2011 Rolling Stones Singles Collection 1971-2006 (45CD Box Set Universal Music Japan)\Disc 19\The Rolling Stones Singles Collection Disc 19.wav

Peak level 99.6 %
Extraction speed 2.0 X
Range quality 99.9 %
Test CRC 138C988D
Copy CRC 138C988D
Copy OK

No errors occurred


AccurateRip summary

Track 1 accurately ripped (confidence 1) [AE57DB47]
Track 2 accurately ripped (confidence 1) [9C93B9E6]

All tracks accurately ripped

End of status report

==== Log checksum 15C68842B2E3C47386890E35C85100FD6A6106C0FEEFF1DF2A57DBFA6AA14B3A ====


Tracklist CD20. Going To A Go Go (JP UICY-5030 / EU 0602527597805):

1. Going To A Go Go (Live)
2. Beast Of Burden (Live)

Exact Audio Copy V1.0 beta 1 from 15. November 2010

EAC extraction logfile from 7. May 2011, 14:17

The Rolling Stones / The Rolling Stones Singles Collection Disc 20

Used drive : HL-DT-STDVDRAM GSA-H60N Adapter: 2 ID: 0

Read mode : Secure
Utilize accurate stream : Yes
Defeat audio cache : Yes
Make use of C2 pointers : No

Read offset correction : 667
Overread into Lead-In and Lead-Out : No
Fill up missing offset samples with silence : Yes
Delete leading and trailing silent blocks : No
Null samples used in CRC calculations : Yes
Used interface : Native Win32 interface for Win NT & 2000

Used output format : Internal WAV Routines
Sample format : 44.100 Hz; 16 Bit; Stereo


TOC of the extracted CD

Track | Start | Length | Start sector | End sector
––––––––––––––––––––––––––––-
1 | 0:00.00 | 3:26.39 | 0 | 15488
2 | 3:26.39 | 5:04.17 | 15489 | 38305


Range status and errors

Selected range

Filename C:\Documents and Settings\Администратор\Рабочий стол\Rip by ALLexxess\2011 Rolling Stones Singles Collection 1971-2006 (45CD Box Set Universal Music Japan)\Disc 20\The Rolling Stones Singles Collection Disc 20.wav

Peak level 99.3 %
Extraction speed 2.2 X
Range quality 99.9 %
Test CRC FAED6066
Copy CRC FAED6066
Copy OK

No errors occurred


AccurateRip summary

Track 1 accurately ripped (confidence 1) [751777B4]
Track 2 accurately ripped (confidence 1) [8F17E769]

All tracks accurately ripped

End of status report

==== Log checksum 056134C333DCB55064C7FD81F02F1B86EE7D2845393717E4A132EDC44F644B0C ====


Tracklist CD21. Time Is On My Side (JP UICY-5031 / EU 0602527597812):

1. Time Is On My Side (Live)
2. Twenty Flight Rock (Live)
3. Under My Thumb (Live)

Exact Audio Copy V1.0 beta 1 from 15. November 2010

EAC extraction logfile from 7. May 2011, 14:32

The Rolling Stones / The Rolling Stones Singles Collection Disc 21

Used drive : HL-DT-STDVDRAM GSA-H60N Adapter: 2 ID: 0

Read mode : Secure
Utilize accurate stream : Yes
Defeat audio cache : Yes
Make use of C2 pointers : No

Read offset correction : 667
Overread into Lead-In and Lead-Out : No
Fill up missing offset samples with silence : Yes
Delete leading and trailing silent blocks : No
Null samples used in CRC calculations : Yes
Used interface : Native Win32 interface for Win NT & 2000

Used output format : Internal WAV Routines
Sample format : 44.100 Hz; 16 Bit; Stereo


TOC of the extracted CD

Track | Start | Length | Start sector | End sector
––––––––––––––––––––––––––––-
1 | 0:00.00 | 3:44.32 | 0 | 16831
2 | 3:44.32 | 1:47.44 | 16832 | 24900
3 | 5:32.01 | 4:07.19 | 24901 | 43444


Range status and errors

Selected range

Filename C:\Documents and Settings\Администратор\Рабочий стол\Rip by ALLexxess\2011 Rolling Stones Singles Collection 1971-2006 (45CD Box Set Universal Music Japan)\Disc 21\The Rolling Stones Singles Collection Disc 21.wav

Peak level 99.8 %
Extraction speed 1.8 X
Range quality 100.0 %
Test CRC EB8081FC
Copy CRC EB8081FC
Copy OK

No errors occurred


AccurateRip summary

Track 1 accurately ripped (confidence 1) [6D1AE35E]
Track 2 accurately ripped (confidence 1) [3610E70A]
Track 3 accurately ripped (confidence 1) [85E39BCF]

All tracks accurately ripped

End of status report

==== Log checksum 492B22AE8F2AB5F23F4EB8B2ACD0855A58CC64553251C25257427D7BBC0261AB ====


Tracklist CD22. Undercover Of The Night (JP UICY-5032 / EU 0602527597829):

1. Undercover Of The Night
2. All The Way Down
3. Undercover Of The Night (Dub Version)
4. Feel On Baby (Instrumental Dub)

Exact Audio Copy V1.0 beta 1 from 15. November 2010

EAC extraction logfile from 7. May 2011, 14:53

The Rolling Stones / The Rolling Stones Singles Collection Disc 22

Used drive : HL-DT-STDVDRAM GSA-H60N Adapter: 2 ID: 0

Read mode : Secure
Utilize accurate stream : Yes
Defeat audio cache : Yes
Make use of C2 pointers : No

Read offset correction : 667
Overread into Lead-In and Lead-Out : No
Fill up missing offset samples with silence : Yes
Delete leading and trailing silent blocks : No
Null samples used in CRC calculations : Yes
Used interface : Native Win32 interface for Win NT & 2000

Used output format : Internal WAV Routines
Sample format : 44.100 Hz; 16 Bit; Stereo


TOC of the extracted CD

Track | Start | Length | Start sector | End sector
––––––––––––––––––––––––––––-
1 | 0:00.00 | 4:34.29 | 0 | 20578
2 | 4:34.29 | 3:14.44 | 20579 | 35172
3 | 7:48.73 | 6:25.07 | 35173 | 64054
4 | 14:14.05 | 6:31.08 | 64055 | 93387


Range status and errors

Selected range

Filename C:\Documents and Settings\Администратор\Рабочий стол\Rip by ALLexxess\2011 Rolling Stones Singles Collection 1971-2006 (45CD Box Set Universal Music Japan)\Disc 22\The Rolling Stones Singles Collection Disc 22.wav

Peak level 99.9 %
Extraction speed 1.5 X
Range quality 100.0 %
Test CRC 9036424C
Copy CRC 9036424C
Copy OK

No errors occurred


AccurateRip summary

Track 1 accurately ripped (confidence 1) [CF050D21]
Track 2 accurately ripped (confidence 1) [BCB08CA0]
Track 3 accurately ripped (confidence 1) [7637D213]
Track 4 accurately ripped (confidence 1) [DF63129D]

All tracks accurately ripped

End of status report

==== Log checksum ADBEF28D8EFED2068498AB70188F9F799C1BDFF90FFE1ABB2CEB94788763EF42 ====


Tracklist CD23. She Was Hot (JP UICY-5033 / EU 0602527597836):

1. She Was Hot
2. I Think I’m Going Mad

Exact Audio Copy V1.0 beta 1 from 15. November 2010

EAC extraction logfile from 7. May 2011, 15:11

The Rolling Stones / The Rolling Stones Singles Collection Disc 23

Used drive : HL-DT-STDVDRAM GSA-H60N Adapter: 2 ID: 0

Read mode : Secure
Utilize accurate stream : Yes
Defeat audio cache : Yes
Make use of C2 pointers : No

Read offset correction : 667
Overread into Lead-In and Lead-Out : No
Fill up missing offset samples with silence : Yes
Delete leading and trailing silent blocks : No
Null samples used in CRC calculations : Yes
Used interface : Native Win32 interface for Win NT & 2000

Used output format : Internal WAV Routines
Sample format : 44.100 Hz; 16 Bit; Stereo


TOC of the extracted CD

Track | Start | Length | Start sector | End sector
––––––––––––––––––––––––––––-
1 | 0:00.00 | 4:44.73 | 0 | 21372
2 | 4:44.73 | 4:23.31 | 21373 | 41128


Range status and errors

Selected range

Filename C:\Documents and Settings\Администратор\Рабочий стол\Rip by ALLexxess\2011 Rolling Stones Singles Collection 1971-2006 (45CD Box Set Universal Music Japan)\Disc 23\The Rolling Stones Singles Collection Disc 23.wav

Peak level 99.6 %
Extraction speed 2.0 X
Range quality 100.0 %
Test CRC 462D1605
Copy CRC 462D1605
Copy OK

No errors occurred


AccurateRip summary

Track 1 accurately ripped (confidence 1) [5FA74CBA]
Track 2 accurately ripped (confidence 1) [75A13BEF]

All tracks accurately ripped

End of status report

==== Log checksum 310CA40D1B9989D2D42D4AB7A3A8A3299D2EEC172B479AD03133B254D4216E53 ====


Tracklist CD24. Too Tough (JP UICY-5034 / EU 0602527600741):

1. Too Tough
2. Miss You

Exact Audio Copy V1.0 beta 1 from 15. November 2010

EAC extraction logfile from 7. May 2011, 15:26

The Rolling Stones / The Rolling Stones Singles Collection Disc 24

Used drive : HL-DT-STDVDRAM GSA-H60N Adapter: 2 ID: 0

Read mode : Secure
Utilize accurate stream : Yes
Defeat audio cache : Yes
Make use of C2 pointers : No

Read offset correction : 667
Overread into Lead-In and Lead-Out : No
Fill up missing offset samples with silence : Yes
Delete leading and trailing silent blocks : No
Null samples used in CRC calculations : Yes
Used interface : Native Win32 interface for Win NT & 2000

Used output format : Internal WAV Routines
Sample format : 44.100 Hz; 16 Bit; Stereo


TOC of the extracted CD

Track | Start | Length | Start sector | End sector
––––––––––––––––––––––––––––-
1 | 0:00.00 | 3:50.65 | 0 | 17314
2 | 3:50.65 | 3:36.57 | 17315 | 33571


Range status and errors

Selected range

Filename C:\Documents and Settings\Администратор\Рабочий стол\Rip by ALLexxess\2011 Rolling Stones Singles Collection 1971-2006 (45CD Box Set Universal Music Japan)\Disc 24\The Rolling Stones Singles Collection Disc 24.wav

Peak level 99.6 %
Extraction speed 1.8 X
Range quality 99.9 %
Test CRC 8F8F2805
Copy CRC 8F8F2805
Copy OK

No errors occurred


AccurateRip summary

Track 1 accurately ripped (confidence 1) [F3F287FA]
Track 2 accurately ripped (confidence 1) [A754B03E]

All tracks accurately ripped

End of status report

==== Log checksum 3CC33527A43CAD4C0EB4133D6D4279690E36F011473AAA5B2979CE684C2C1927 ====


Tracklist CD25. Harlem Shuffle (JP UICY-5035 / EU 0602527597843):

1. Harlem Shuffle
2. Had It With You
3. Harlem Shuffle (NY Mix)
4. Harlem Shuffle (London Mix)

Exact Audio Copy V1.0 beta 1 from 15. November 2010

EAC extraction logfile from 7. May 2011, 15:52

The Rolling Stones / The Rolling Stones Singles Collection Disc 25

Used drive : HL-DT-STDVDRAM GSA-H60N Adapter: 2 ID: 0

Read mode : Secure
Utilize accurate stream : Yes
Defeat audio cache : Yes
Make use of C2 pointers : No

Read offset correction : 667
Overread into Lead-In and Lead-Out : No
Fill up missing offset samples with silence : Yes
Delete leading and trailing silent blocks : No
Null samples used in CRC calculations : Yes
Used interface : Native Win32 interface for Win NT & 2000

Used output format : Internal WAV Routines
Sample format : 44.100 Hz; 16 Bit; Stereo


TOC of the extracted CD

Track | Start | Length | Start sector | End sector
––––––––––––––––––––––––––––-
1 | 0:00.00 | 3:26.70 | 0 | 15519
2 | 3:26.70 | 3:20.39 | 15520 | 30558
3 | 6:47.34 | 6:36.64 | 30559 | 60322
4 | 13:24.23 | 6:22.15 | 60323 | 88987


Range status and errors

Selected range

Filename C:\Documents and Settings\Администратор\Рабочий стол\Rip by ALLexxess\2011 Rolling Stones Singles Collection 1971-2006 (45CD Box Set Universal Music Japan)\Disc 25\The Rolling Stones Singles Collection Disc 25.wav

Peak level 99.9 %
Extraction speed 1.5 X
Range quality 100.0 %
Test CRC 5357D2E3
Copy CRC 5357D2E3
Copy OK

No errors occurred


AccurateRip summary

Track 1 accurately ripped (confidence 1) [DEFCF4B7]
Track 2 accurately ripped (confidence 1) [D99AA9D8]
Track 3 accurately ripped (confidence 1) [4C85BC83]
Track 4 accurately ripped (confidence 1) [2EC40EE7]

All tracks accurately ripped

End of status report

==== Log checksum 6C29C21C416D6259B1B00F8F779D0BC395679B402370E8BB965E0BE806364E62 ====


Tracklist CD26. One Hit (To The Body) (JP UICY-5036 / EU 0602527597850):

1. One Hit (To The Body)
2. Fight
3. One Hit (To The Body) (London Mix)

Exact Audio Copy V1.0 beta 1 from 15. November 2010

EAC extraction logfile from 7. May 2011, 20:25

The Rolling Stones / The Rolling Stones Singles Collection Disc 26

Used drive : HL-DT-STDVDRAM GSA-H60N Adapter: 2 ID: 0

Read mode : Secure
Utilize accurate stream : Yes
Defeat audio cache : Yes
Make use of C2 pointers : No

Read offset correction : 667
Overread into Lead-In and Lead-Out : No
Fill up missing offset samples with silence : Yes
Delete leading and trailing silent blocks : No
Null samples used in CRC calculations : Yes
Used interface : Native Win32 interface for Win NT & 2000

Used output format : Internal WAV Routines
Sample format : 44.100 Hz; 16 Bit; Stereo


TOC of the extracted CD

Track | Start | Length | Start sector | End sector
––––––––––––––––––––––––––––-
1 | 0:00.00 | 4:10.70 | 0 | 18819
2 | 4:10.70 | 3:11.36 | 18820 | 33180
3 | 7:22.31 | 7:03.12 | 33181 | 64917


Range status and errors

Selected range

Filename C:\Documents and Settings\Администратор\Рабочий стол\Rip by ALLexxess\2011 Rolling Stones Singles Collection 1971-2006 (45CD Box Set Universal Music Japan)\Disc 26\The Rolling Stones Singles Collection Disc 26.wav

Peak level 100.0 %
Extraction speed 2.2 X
Range quality 100.0 %
Test CRC ABCEB8AA
Copy CRC ABCEB8AA
Copy OK

No errors occurred


AccurateRip summary

Track 1 accurately ripped (confidence 1) [4EE7FA2E]
Track 2 accurately ripped (confidence 1) [C365AED9]
Track 3 accurately ripped (confidence 1) [88E34354]

All tracks accurately ripped

End of status report

==== Log checksum 6441ECCAB33B8B10A869E7AA45D44A5688C85C42B0FF74619130CFA3344399E5 ====


Tracklist CD27. Mixed Emotions (JP UICY-5037 / EU 0602527597867):

1. Mixed Emotions
2. Fancyman Blues
3. Mixed Emotions (Chris Kimsey’s 12’’)
4. Tumbling Dice
5. Miss You

Exact Audio Copy V1.0 beta 1 from 15. November 2010

EAC extraction logfile from 7. May 2011, 20:47

The Rolling Stones / The Rolling Stones Singles Collection Disc 27

Used drive : HL-DT-STDVDRAM GSA-H60N Adapter: 2 ID: 0

Read mode : Secure
Utilize accurate stream : Yes
Defeat audio cache : Yes
Make use of C2 pointers : No

Read offset correction : 667
Overread into Lead-In and Lead-Out : No
Fill up missing offset samples with silence : Yes
Delete leading and trailing silent blocks : No
Null samples used in CRC calculations : Yes
Used interface : Native Win32 interface for Win NT & 2000

Used output format : Internal WAV Routines
Sample format : 44.100 Hz; 16 Bit; Stereo


TOC of the extracted CD

Track | Start | Length | Start sector | End sector
––––––––––––––––––––––––––––-
1 | 0:00.00 | 4:04.31 | 0 | 18330
2 | 4:04.31 | 4:55.59 | 18331 | 40514
3 | 9:00.15 | 6:14.12 | 40515 | 68576
4 | 15:14.27 | 3:45.23 | 68577 | 85474
5 | 18:59.50 | 3:37.30 | 85475 | 101779


Range status and errors

Selected range

Filename C:\Documents and Settings\Администратор\Рабочий стол\Rip by ALLexxess\2011 Rolling Stones Singles Collection 1971-2006 (45CD Box Set Universal Music Japan)\Disc 27\The Rolling Stones Singles Collection Disc 27.wav

Peak level 99.7 %
Extraction speed 0.8 X
Range quality 100.0 %
Test CRC 7D69E97C
Copy CRC 7D69E97C
Copy OK

No errors occurred


AccurateRip summary

Track 1 accurately ripped (confidence 1) [6669A712]
Track 2 accurately ripped (confidence 1) [2459618C]
Track 3 accurately ripped (confidence 1) [3785EB39]
Track 4 accurately ripped (confidence 1) [11FD4A48]
Track 5 accurately ripped (confidence 1) [5E0BB894]

All tracks accurately ripped

End of status report

==== Log checksum 5A31D127C7D8275FDA27F94EEE8856C1AED047B25946E1EC35CB7290CF303F5A ====


Tracklist CD28. Rock And A Hard Place (JP UICY-5038 / EU 0602527597874):

01. Rock And A Hard Place
02. Cook Cook Blues
03. Rock And A Hard Place (Dance Mix)
04. Rock And A Hard Place (Oh-Oh Hard Dub Mix)
05. Rock And A Hard Place (Michael Brauer Mix)
06. Rock And A Hard Place (Bonus Beats Mix)
07. Emotional Rescue
08. Some Girls
09. It’s Only Rock ’N Roll
10. Rocks Off

Exact Audio Copy V1.0 beta 1 from 15. November 2010

EAC extraction logfile from 7. May 2011, 21:22

The Rolling Stones / The Rolling Stones Singles Collection Disc 28

Used drive : HL-DT-STDVDRAM GSA-H60N Adapter: 2 ID: 0

Read mode : Secure
Utilize accurate stream : Yes
Defeat audio cache : Yes
Make use of C2 pointers : No

Read offset correction : 667
Overread into Lead-In and Lead-Out : No
Fill up missing offset samples with silence : Yes
Delete leading and trailing silent blocks : No
Null samples used in CRC calculations : Yes
Used interface : Native Win32 interface for Win NT & 2000

Used output format : Internal WAV Routines
Sample format : 44.100 Hz; 16 Bit; Stereo


TOC of the extracted CD

Track | Start | Length | Start sector | End sector
––––––––––––––––––––––––––––-
1 | 0:00.00 | 4:12.50 | 0 | 18949
2 | 4:12.50 | 4:13.19 | 18950 | 37943
3 | 8:25.69 | 6:55.44 | 37944 | 69112
4 | 15:21.38 | 6:56.33 | 69113 | 100345
5 | 22:17.71 | 7:07.24 | 100346 | 132394
6 | 29:25.20 | 4:10.07 | 132395 | 151151
7 | 33:35.27 | 5:37.00 | 151152 | 176426
8 | 39:12.27 | 4:38.65 | 176427 | 197341
9 | 43:51.17 | 5:08.24 | 197342 | 220465
10 | 48:59.41 | 4:31.56 | 220466 | 240846


Range status and errors

Selected range

Filename C:\Documents and Settings\Администратор\Рабочий стол\Rip by ALLexxess\2011 Rolling Stones Singles Collection 1971-2006 (45CD Box Set Universal Music Japan)\Disc 28\The Rolling Stones Singles Collection Disc 28.wav

Peak level 100.0 %
Extraction speed 0.5 X
Range quality 100.0 %
Test CRC 8E1297EF
Copy CRC 8E1297EF
Copy OK

No errors occurred


AccurateRip summary

Track 1 accurately ripped (confidence 1) [350413F8]
Track 2 accurately ripped (confidence 1) [42067744]
Track 3 accurately ripped (confidence 1) [1CF48B17]
Track 4 accurately ripped (confidence 1) [9F253435]
Track 5 accurately ripped (confidence 1) [139F7021]
Track 6 accurately ripped (confidence 1) [61957AFB]
Track 7 accurately ripped (confidence 1) [0A62F7CF]
Track 8 accurately ripped (confidence 1) [0DCA510F]
Track 9 accurately ripped (confidence 1) [856D33B0]
Track 10 accurately ripped (confidence 1) [28F79E45]

All tracks accurately ripped

End of status report

==== Log checksum CECA34D8A3F7A88852155E277EC6877967464422502C6C4735115256E8C7FC26 ====


Tracklist CD29. Almost Hear You Sigh ( JP UICY-5039 / EU 0602527597881):

1. Almost Hear You Sigh
2. Break The Spell
3. Wish I’d Never Met You
4. Mixed Emotions
5. Beast Of Burden
6. Angie
7. Fool To Cry8 Miss You
9. Waiting On A Friend

Exact Audio Copy V1.0 beta 1 from 15. November 2010

EAC extraction logfile from 7. May 2011, 22:04

The Rolling Stones / The Rolling Stones Singles Collection Disc 29

Used drive : HL-DT-STDVDRAM GSA-H60N Adapter: 2 ID: 0

Read mode : Secure
Utilize accurate stream : Yes
Defeat audio cache : Yes
Make use of C2 pointers : No

Read offset correction : 667
Overread into Lead-In and Lead-Out : No
Fill up missing offset samples with silence : Yes
Delete leading and trailing silent blocks : No
Null samples used in CRC calculations : Yes
Used interface : Native Win32 interface for Win NT & 2000

Used output format : Internal WAV Routines
Sample format : 44.100 Hz; 16 Bit; Stereo


TOC of the extracted CD

Track | Start | Length | Start sector | End sector
––––––––––––––––––––––––––––-
1 | 0:00.00 | 4:37.52 | 0 | 20826
2 | 4:37.52 | 3:07.45 | 20827 | 34896
3 | 7:45.22 | 4:44.68 | 34897 | 56264
4 | 12:30.15 | 4:03.38 | 56265 | 74527
5 | 16:33.53 | 4:27.05 | 74528 | 94557
6 | 21:00.58 | 4:32.55 | 94558 | 115012
7 | 25:33.38 | 5:06.05 | 115013 | 137967
8 | 30:39.43 | 3:37.25 | 137968 | 154267
9 | 34:16.68 | 4:35.67 | 154268 | 174959


Range status and errors

Selected range

Filename C:\Documents and Settings\Администратор\Рабочий стол\Rip by ALLexxess\2011 Rolling Stones Singles Collection 1971-2006 (45CD Box Set Universal Music Japan)\Disc 29\The Rolling Stones Singles Collection Disc 29.wav

Peak level 100.0 %
Extraction speed 0.6 X
Range quality 100.0 %
Test CRC 451C5674
Copy CRC 451C5674
Copy OK

No errors occurred


AccurateRip summary

Track 1 accurately ripped (confidence 1) [F76885C2]
Track 2 accurately ripped (confidence 1) [C73EED9B]
Track 3 accurately ripped (confidence 1) [A9AB1E8D]
Track 4 accurately ripped (confidence 1) [268CA754]
Track 5 accurately ripped (confidence 1) [875CA859]
Track 6 accurately ripped (confidence 1) [AD02C0B2]
Track 7 accurately ripped (confidence 1) [25A49179]
Track 8 accurately ripped (confidence 1) [5129A5F8]
Track 9 accurately ripped (confidence 1) [586DF22A]

All tracks accurately ripped

End of status report

==== Log checksum DE36C0776943505EDF4AE860DFE9BB77B09AD78D561BEBDC166E2290687804C1 ====


Tracklist CD30. Terrifying (JP UICY-5040 / EU 0602527597898):

1. Terrifying (7’’ Remix)
2. Rock And A Hard Place (7’’ Version)
3. Terrifying (12’’ Remix)
4. Rock And A Hard Place (Dance Mix)
5. Harlem Shuffle (London Mix)
6. Wish I’d Never Met You
7. Harlem Shuffle (LP Version)

Exact Audio Copy V1.0 beta 1 from 15. November 2010

EAC extraction logfile from 7. May 2011, 22:36

The Rolling Stones / The Rolling Stones Singles Collection Disc 30

Used drive : HL-DT-STDVDRAM GSA-H60N Adapter: 2 ID: 0

Read mode : Secure
Utilize accurate stream : Yes
Defeat audio cache : Yes
Make use of C2 pointers : No

Read offset correction : 667
Overread into Lead-In and Lead-Out : No
Fill up missing offset samples with silence : Yes
Delete leading and trailing silent blocks : No
Null samples used in CRC calculations : Yes
Used interface : Native Win32 interface for Win NT & 2000

Used output format : Internal WAV Routines
Sample format : 44.100 Hz; 16 Bit; Stereo


TOC of the extracted CD

Track | Start | Length | Start sector | End sector
––––––––––––––––––––––––––––-
1 | 0:00.00 | 4:11.65 | 0 | 18889
2 | 4:11.65 | 4:10.52 | 18890 | 37691
3 | 8:22.42 | 6:56.65 | 37692 | 68956
4 | 15:19.32 | 6:55.36 | 68957 | 100117
5 | 22:14.68 | 6:21.66 | 100118 | 128758
6 | 28:36.59 | 4:42.54 | 128759 | 149962
7 | 33:19.38 | 3:24.57 | 149963 | 165319


Range status and errors

Selected range

Filename C:\Documents and Settings\Администратор\Рабочий стол\Rip by ALLexxess\2011 Rolling Stones Singles Collection 1971-2006 (45CD Box Set Universal Music Japan)\Disc 30\The Rolling Stones Singles Collection Disc 30.wav

Peak level 100.0 %
Extraction speed 0.5 X
Range quality 99.9 %
Test CRC 463CF03B
Copy CRC 463CF03B
Copy OK

No errors occurred


AccurateRip summary

Track 1 accurately ripped (confidence 1) [5DE6D158]
Track 2 accurately ripped (confidence 1) [290A93F7]
Track 3 accurately ripped (confidence 1) [A33D72FD]
Track 4 accurately ripped (confidence 1) [B6655E6E]
Track 5 accurately ripped (confidence 1) [B3CBD7D5]
Track 6 accurately ripped (confidence 1) [2C7E0696]
Track 7 accurately ripped (confidence 1) [1623A5D5]

All tracks accurately ripped

End of status report

==== Log checksum FE13441E41B25565D137AE26D06D65FE29EDF3D8690EE679D5865F491A23E0AE ====


Tracklist CD31. Highwire ( JP UICY-5041 / EU 0602527597904):

1. Highwire
2. 2000 Light Years From Home (Live)
3. Highwire (Full Length Version)
4. Sympathy For The Devil (Live)
5. I Just Want To Make Love To You (Live)
6. Play With Fire (Live)
7. Factory Girl (Live)

Exact Audio Copy V1.0 beta 1 from 15. November 2010

EAC extraction logfile from 7. May 2011, 23:26

The Rolling Stones / The Rolling Stones Singles Collection Disc 31

Used drive : HL-DT-STDVDRAM GSA-H60N Adapter: 2 ID: 0

Read mode : Secure
Utilize accurate stream : Yes
Defeat audio cache : Yes
Make use of C2 pointers : No

Read offset correction : 667
Overread into Lead-In and Lead-Out : No
Fill up missing offset samples with silence : Yes
Delete leading and trailing silent blocks : No
Null samples used in CRC calculations : Yes
Used interface : Native Win32 interface for Win NT & 2000

Used output format : Internal WAV Routines
Sample format : 44.100 Hz; 16 Bit; Stereo


TOC of the extracted CD

Track | Start | Length | Start sector | End sector
––––––––––––––––––––––––––––-
1 | 0:00.00 | 3:47.32 | 0 | 17056
2 | 3:47.32 | 3:29.65 | 17057 | 32796
3 | 7:17.22 | 4:44.50 | 32797 | 54146
4 | 12:01.72 | 5:24.71 | 54147 | 78517
5 | 17:26.68 | 4:03.72 | 78518 | 96814
6 | 21:30.65 | 3:31.03 | 96815 | 112642
7 | 25:01.68 | 2:35.74 | 112643 | 124341


Range status and errors

Selected range

Filename C:\Documents and Settings\Администратор\Рабочий стол\Rip by ALLexxess\2011 Rolling Stones Singles Collection 1971-2006 (45CD Box Set Universal Music Japan)\Disc 31\The Rolling Stones Singles Collection Disc 31.wav

Peak level 100.0 %
Extraction speed 0.4 X
Range quality 100.0 %
Test CRC 4457C9DF
Copy CRC 4457C9DF
Copy OK

No errors occurred


AccurateRip summary

Track 1 accurately ripped (confidence 1) [3BE25065]
Track 2 accurately ripped (confidence 1) [50551FC8]
Track 3 accurately ripped (confidence 1) [788B8840]
Track 4 accurately ripped (confidence 1) [C8E936C8]
Track 5 accurately ripped (confidence 1) [739BB396]
Track 6 accurately ripped (confidence 1) [80A83516]
Track 7 accurately ripped (confidence 1) [47C69BC1]

All tracks accurately ripped

End of status report

==== Log checksum 1A0080B1B85E9ED9F5D0B7ED86A4238B7F2456A9B954C7D901D9EE84DD40EF66 ====


Tracklist CD32. Ruby Tuesday (JP UICY-5042 / EU 0602527597911):

1. Ruby Tuesday (Live)
2. Play With Fire (Live)
3. You Can’t Always Get What You Want (Live)
4. Undercover Of The Night (Live)
5. Rock And A Hard Place (Live)
6. Harlem Shuffle (Live)
7. Winning Ugly VI (London Mix)

Exact Audio Copy V1.0 beta 1 from 15. November 2010

EAC extraction logfile from 7. May 2011, 23:57

The Rolling Stones / The Rolling Stones Singles Collection Disc 32

Used drive : HL-DT-STDVDRAM GSA-H60N Adapter: 2 ID: 0

Read mode : Secure
Utilize accurate stream : Yes
Defeat audio cache : Yes
Make use of C2 pointers : No

Read offset correction : 667
Overread into Lead-In and Lead-Out : No
Fill up missing offset samples with silence : Yes
Delete leading and trailing silent blocks : No
Null samples used in CRC calculations : Yes
Used interface : Native Win32 interface for Win NT & 2000

Used output format : Internal WAV Routines
Sample format : 44.100 Hz; 16 Bit; Stereo


TOC of the extracted CD

Track | Start | Length | Start sector | End sector
––––––––––––––––––––––––––––-
1 | 0:00.00 | 4:14.28 | 0 | 19077
2 | 4:14.28 | 3:21.73 | 19078 | 34225
3 | 7:36.26 | 7:06.54 | 34226 | 66229
4 | 14:43.05 | 4:11.74 | 66230 | 85128
5 | 18:55.04 | 5:14.09 | 85129 | 108687
6 | 24:09.13 | 4:04.68 | 108688 | 127055
7 | 28:14.06 | 7:54.18 | 127056 | 162623


Range status and errors

Selected range

Filename C:\Documents and Settings\Администратор\Рабочий стол\Rip by ALLexxess\2011 Rolling Stones Singles Collection 1971-2006 (45CD Box Set Universal Music Japan)\Disc 32\The Rolling Stones Singles Collection Disc 32.wav

Peak level 100.0 %
Extraction speed 1.2 X
Range quality 100.0 %
Test CRC 132EAF58
Copy CRC 132EAF58
Copy OK

No errors occurred


AccurateRip summary

Track 1 accurately ripped (confidence 1) [FDB6C6F3]
Track 2 accurately ripped (confidence 1) [370D3158]
Track 3 accurately ripped (confidence 1) [EC62F571]
Track 4 accurately ripped (confidence 1) [3318A876]
Track 5 accurately ripped (confidence 1) [7233C0BE]
Track 6 accurately ripped (confidence 1) [FD62E4B1]
Track 7 accurately ripped (confidence 1) [FA8CE582]

All tracks accurately ripped

End of status report

==== Log checksum FFD435F604AB46D7A9D613ED7EA8A64CE967418D378C49F5BE467D34B63BF5E2 ====


Tracklist CD33. Sexdrive (JP UICY-5043 / EU 0602527598055):

1. Sexdrive (Single Edit)
2. Undercover Of The Night (Live)

Exact Audio Copy V1.0 beta 1 from 15. November 2010

EAC extraction logfile from 8. May 2011, 0:19

The Rolling Stones / The Rolling Stones Singles Collection Disc 33

Used drive : HL-DT-STDVDRAM GSA-H60N Adapter: 2 ID: 0

Read mode : Secure
Utilize accurate stream : Yes
Defeat audio cache : Yes
Make use of C2 pointers : No

Read offset correction : 667
Overread into Lead-In and Lead-Out : No
Fill up missing offset samples with silence : Yes
Delete leading and trailing silent blocks : No
Null samples used in CRC calculations : Yes
Used interface : Native Win32 interface for Win NT & 2000

Used output format : Internal WAV Routines
Sample format : 44.100 Hz; 16 Bit; Stereo


TOC of the extracted CD

Track | Start | Length | Start sector | End sector
––––––––––––––––––––––––––––-
1 | 0:00.00 | 4:30.13 | 0 | 20262
2 | 4:30.13 | 4:17.52 | 20263 | 39589


Range status and errors

Selected range

Filename C:\Documents and Settings\Администратор\Рабочий стол\Rip by ALLexxess\2011 Rolling Stones Singles Collection 1971-2006 (45CD Box Set Universal Music Japan)\Disc 33\The Rolling Stones Singles Collection Disc 33.wav

Peak level 100.0 %
Extraction speed 2.1 X
Range quality 100.0 %
Test CRC 23B0DF9B
Copy CRC 23B0DF9B
Copy OK

No errors occurred


AccurateRip summary

Track 1 accurately ripped (confidence 1) [03A84082]
Track 2 accurately ripped (confidence 1) [9FB72E2E]

All tracks accurately ripped

End of status report

==== Log checksum 62225A5E1240502B78763B112B810F47BD8A04FE372649BC5C80A738A8F5981C ====


Tracklist CD34. Love Is Strong (JP UICY-5044 / EU 0602527597928):

01. Love Is Strong (Album Version)
02. The Storm
03. So Young
04. Love Is Strong (Bob Clearmountain Remix)
05. Love Is Strong (Teddy Riley Radio Remix)
06. Love Is Strong (Teddy Riley Extended Remix)
07. Love Is Strong (Teddy Riley Extended Rock Remix)
08. Love Is Strong (Teddy Riley Dub Remix)
09. Love Is Strong (Joe The Butcher Club Mix)
10. Love Is Strong (Teddy Riley Instrumental)

Exact Audio Copy V1.0 beta 1 from 15. November 2010

EAC extraction logfile from 8. May 2011, 0:49

The Rolling Stones / The Rolling Stones Singles Collection Disc 34

Used drive : HL-DT-STDVDRAM GSA-H60N Adapter: 2 ID: 0

Read mode : Secure
Utilize accurate stream : Yes
Defeat audio cache : Yes
Make use of C2 pointers : No

Read offset correction : 667
Overread into Lead-In and Lead-Out : No
Fill up missing offset samples with silence : Yes
Delete leading and trailing silent blocks : No
Null samples used in CRC calculations : Yes
Used interface : Native Win32 interface for Win NT & 2000

Used output format : Internal WAV Routines
Sample format : 44.100 Hz; 16 Bit; Stereo


TOC of the extracted CD

Track | Start | Length | Start sector | End sector
––––––––––––––––––––––––––––-
1 | 0:00.00 | 3:49.25 | 0 | 17199
2 | 3:49.25 | 2:45.69 | 17200 | 29643
3 | 6:35.19 | 3:22.36 | 29644 | 44829
4 | 9:57.55 | 3:49.48 | 44830 | 62052
5 | 13:47.28 | 4:08.11 | 62053 | 80663
6 | 17:55.39 | 5:05.47 | 80664 | 103585
7 | 23:01.11 | 4:49.01 | 103586 | 125261
8 | 27:50.12 | 4:07.05 | 125262 | 143791
9 | 31:57.17 | 5:25.35 | 143792 | 168201
10 | 37:22.52 | 4:47.33 | 168202 | 189759


Range status and errors

Selected range

Filename C:\Documents and Settings\Администратор\Рабочий стол\Rip by ALLexxess\2011 Rolling Stones Singles Collection 1971-2006 (45CD Box Set Universal Music Japan)\Disc 34\The Rolling Stones Singles Collection Disc 34.wav

Peak level 100.0 %
Extraction speed 0.6 X
Range quality 100.0 %
Test CRC E98E4F36
Copy CRC E98E4F36
Copy OK

No errors occurred


AccurateRip summary

Track 1 accurately ripped (confidence 1) [5F85F1E7]
Track 2 accurately ripped (confidence 1) [D2F6C101]
Track 3 accurately ripped (confidence 1) [D9C3A282]
Track 4 accurately ripped (confidence 1) [7E610164]
Track 5 accurately ripped (confidence 1) [2A1B86E9]
Track 6 accurately ripped (confidence 1) [32358F50]
Track 7 accurately ripped (confidence 1) [CFC64B69]
Track 8 accurately ripped (confidence 1) [6292BBA2]
Track 9 accurately ripped (confidence 1) [F5DA9613]
Track 10 accurately ripped (confidence 1) [078093B8]

All tracks accurately ripped

End of status report

==== Log checksum DBB0448517F36C72FFDA219A276F13593DE7354C71A3FB10DE93ED42AF3AB6BF ====


Tracklist CD35. You Got Me Rocking (JP UICY-5045 / EU 0602527597935):

1. You Got Me Rocking
2. Jump On Top Of Me
3. You Got Me Rocking (Perfecto Mix)
4. You Got Me Rocking (Sexy Disco Dub Mix)
5. You Got Me Rocking (Trance Mix)

Exact Audio Copy V1.0 beta 1 from 15. November 2010

EAC extraction logfile from 8. May 2011, 1:18

The Rolling Stones / The Rolling Stones Singles Collection Disc 35

Used drive : HL-DT-STDVDRAM GSA-H60N Adapter: 2 ID: 0

Read mode : Secure
Utilize accurate stream : Yes
Defeat audio cache : Yes
Make use of C2 pointers : No

Read offset correction : 667
Overread into Lead-In and Lead-Out : No
Fill up missing offset samples with silence : Yes
Delete leading and trailing silent blocks : No
Null samples used in CRC calculations : Yes
Used interface : Native Win32 interface for Win NT & 2000

Used output format : Internal WAV Routines
Sample format : 44.100 Hz; 16 Bit; Stereo


TOC of the extracted CD

Track | Start | Length | Start sector | End sector
––––––––––––––––––––––––––––-
1 | 0:00.00 | 3:37.14 | 0 | 16288
2 | 3:37.14 | 4:24.15 | 16289 | 36103
3 | 8:01.29 | 5:03.24 | 36104 | 58852
4 | 13:04.53 | 6:16.48 | 58853 | 87100
5 | 19:21.26 | 4:59.61 | 87101 | 109586


Range status and errors

Selected range

Filename C:\Documents and Settings\Администратор\Рабочий стол\Rip by ALLexxess\2011 Rolling Stones Singles Collection 1971-2006 (45CD Box Set Universal Music Japan)\Disc 35\The Rolling Stones Singles Collection Disc 35.wav

Peak level 100.0 %
Extraction speed 1.0 X
Range quality 100.0 %
Test CRC F89B56E6
Copy CRC F89B56E6
Copy OK

No errors occurred


AccurateRip summary

Track 1 accurately ripped (confidence 1) [1C30C946]
Track 2 accurately ripped (confidence 1) [801B668A]
Track 3 accurately ripped (confidence 1) [691061D9]
Track 4 accurately ripped (confidence 1) [93B44C7C]
Track 5 accurately ripped (confidence 1) [F3E6B36C]

All tracks accurately ripped

End of status report

==== Log checksum A2F009289C5FD53428760A424AE8B6237B9F8F4F87CFC1D7804E4CAD7B6E17B2 ====


Tracklist CD36. Out Of Tears (JP UICY-5046 / EU 0602527597942):

1. Out Of Tears (Don Was Edit)
2. I’m Gonna Drive
3. Out Of Tears (Bob Clearmountain Remix Edit)
4. So Young
5. Sparks Will Fly (Radio Clean Version)

Exact Audio Copy V1.0 beta 1 from 15. November 2010

EAC extraction logfile from 8. May 2011, 11:27

The Rolling Stones / The Rolling Stones Singles Collection Disc 36

Used drive : HL-DT-STDVDRAM GSA-H60N Adapter: 2 ID: 0

Read mode : Secure
Utilize accurate stream : Yes
Defeat audio cache : Yes
Make use of C2 pointers : No

Read offset correction : 667
Overread into Lead-In and Lead-Out : No
Fill up missing offset samples with silence : Yes
Delete leading and trailing silent blocks : No
Null samples used in CRC calculations : Yes
Used interface : Native Win32 interface for Win NT & 2000

Used output format : Internal WAV Routines
Sample format : 44.100 Hz; 16 Bit; Stereo


TOC of the extracted CD

Track | Start | Length | Start sector | End sector
––––––––––––––––––––––––––––-
1 | 0:00.00 | 4:22.59 | 0 | 19708
2 | 4:22.59 | 3:42.43 | 19709 | 36401
3 | 8:05.27 | 4:21.61 | 36402 | 56037
4 | 12:27.13 | 3:23.00 | 56038 | 71262
5 | 15:50.13 | 3:15.73 | 71263 | 85960


Range status and errors

Selected range

Filename C:\Documents and Settings\Администратор\Рабочий стол\Rip by ALLexxess\2011 Rolling Stones Singles Collection 1971-2006 (45CD Box Set Universal Music Japan)\Disc 36\The Rolling Stones Singles Collection Disc 36.wav

Peak level 99.9 %
Extraction speed 0.8 X
Range quality 100.0 %
Test CRC 9DC83920
Copy CRC 9DC83920
Copy OK

No errors occurred


AccurateRip summary

Track 1 accurately ripped (confidence 1) [08BC675F]
Track 2 accurately ripped (confidence 1) [E3365142]
Track 3 accurately ripped (confidence 1) [4D124791]
Track 4 accurately ripped (confidence 1) [F7A2A282]
Track 5 accurately ripped (confidence 1) [C4F738FE]

All tracks accurately ripped

End of status report

==== Log checksum EE18794590473A1276EB1E62A15CB99ECCAA9EB4A4197CCDB95C39253A6198B9 ====


Tracklist CD37. I Go Wild (JP UICY-5047 / EU 0602527597959):

1. I Go Wild (LP Version)
2. I Go Wild (Scott Litt Remix)
3. I Go Wild (Live)
4. I Go Wild (Luis Resto Straight Vocal Mix)

Exact Audio Copy V1.0 beta 1 from 15. November 2010

EAC extraction logfile from 8. May 2011, 11:49

The Rolling Stones / The Rolling Stones Singles Collection Disc 37

Used drive : HL-DT-STDVDRAM GSA-H60N Adapter: 2 ID: 0

Read mode : Secure
Utilize accurate stream : Yes
Defeat audio cache : Yes
Make use of C2 pointers : No

Read offset correction : 667
Overread into Lead-In and Lead-Out : No
Fill up missing offset samples with silence : Yes
Delete leading and trailing silent blocks : No
Null samples used in CRC calculations : Yes
Used interface : Native Win32 interface for Win NT & 2000

Used output format : Internal WAV Routines
Sample format : 44.100 Hz; 16 Bit; Stereo


TOC of the extracted CD

Track | Start | Length | Start sector | End sector
––––––––––––––––––––––––––––-
1 | 0:00.00 | 4:22.18 | 0 | 19667
2 | 4:22.18 | 4:36.27 | 19668 | 40394
3 | 8:58.45 | 6:31.43 | 40395 | 69762
4 | 15:30.13 | 5:41.05 | 69763 | 95342


Range status and errors

Selected range

Filename C:\Documents and Settings\Администратор\Рабочий стол\Rip by ALLexxess\2011 Rolling Stones Singles Collection 1971-2006 (45CD Box Set Universal Music Japan)\Disc 37\The Rolling Stones Singles Collection Disc 37.wav

Peak level 100.0 %
Extraction speed 1.3 X
Range quality 100.0 %
Test CRC 1ADE4EEC
Copy CRC 1ADE4EEC
Copy OK

No errors occurred


AccurateRip summary

Track 1 accurately ripped (confidence 1) [C58746D3]
Track 2 accurately ripped (confidence 1) [28B50CCB]
Track 3 accurately ripped (confidence 1) [A0A3956A]
Track 4 accurately ripped (confidence 1) [91D54295]

All tracks accurately ripped

End of status report

==== Log checksum FEFFA2586E0AC19B0B51A1345B587EC1ADCDB3C3D0E97981F26FB6F388A780CB ====


Tracklist CD38. Like A Rolling Stone (JP UICY-5048 / EU 0602527597966):

1. Like A Rolling Stone (Album Version)
2. Black Limousine
3. All Down The Line
4. Like A Rolling Stone (Edit)

Exact Audio Copy V1.0 beta 1 from 15. November 2010

EAC extraction logfile from 8. May 2011, 12:10

The Rolling Stones / The Rolling Stones Singles Collection Disc 38

Used drive : HL-DT-STDVDRAM GSA-H60N Adapter: 2 ID: 0

Read mode : Secure
Utilize accurate stream : Yes
Defeat audio cache : Yes
Make use of C2 pointers : No

Read offset correction : 667
Overread into Lead-In and Lead-Out : No
Fill up missing offset samples with silence : Yes
Delete leading and trailing silent blocks : No
Null samples used in CRC calculations : Yes
Used interface : Native Win32 interface for Win NT & 2000

Used output format : Internal WAV Routines
Sample format : 44.100 Hz; 16 Bit; Stereo


TOC of the extracted CD

Track | Start | Length | Start sector | End sector
––––––––––––––––––––––––––––-
1 | 0:00.00 | 5:38.46 | 0 | 25395
2 | 5:38.46 | 3:28.56 | 25396 | 41051
3 | 9:07.27 | 4:25.22 | 41052 | 60948
4 | 13:32.49 | 4:21.17 | 60949 | 80540


Range status and errors

Selected range

Filename C:\Documents and Settings\Администратор\Рабочий стол\Rip by ALLexxess\2011 Rolling Stones Singles Collection 1971-2006 (45CD Box Set Universal Music Japan)\Disc 38\The Rolling Stones Singles Collection Disc 38.wav

Peak level 100.0 %
Extraction speed 1.1 X
Range quality 100.0 %
Test CRC 965E3235
Copy CRC 965E3235
Copy OK

No errors occurred


AccurateRip summary

Track 1 accurately ripped (confidence 1) [5886A352]
Track 2 accurately ripped (confidence 1) [D990FA19]
Track 3 accurately ripped (confidence 1) [66A234A2]
Track 4 accurately ripped (confidence 1) [DA1441B3]

All tracks accurately ripped

End of status report

==== Log checksum 89A5DD4413EB95F61A72CDC55DFF3AE81D6A1A27A2A0A019C3A4857C5736636E ====


Tracklist CD39. Anybody Seen My Baby? ( JP UICY-5049 / EU 0602527597973):

1. Anybody Seen My Baby? (LP Edit)
2. Anybody Seen My Baby? (Soul Solution Remix Edit)
3. Anybody Seen My Baby? (Armand’s Rolling Steelo Mix)
4. Anybody Seen My Baby? (Soul Solution Remix)
5. Anybody Seen My Baby? (Bonus Roll)
6. Anybody Seen My Baby? (Album Version)

Exact Audio Copy V1.0 beta 1 from 15. November 2010

EAC extraction logfile from 8. May 2011, 12:45

The Rolling Stones / The Rolling Stones Singles Collection Disc 39

Used drive : HL-DT-STDVDRAM GSA-H60N Adapter: 2 ID: 0

Read mode : Secure
Utilize accurate stream : Yes
Defeat audio cache : Yes
Make use of C2 pointers : No

Read offset correction : 667
Overread into Lead-In and Lead-Out : No
Fill up missing offset samples with silence : Yes
Delete leading and trailing silent blocks : No
Null samples used in CRC calculations : Yes
Used interface : Native Win32 interface for Win NT & 2000

Used output format : Internal WAV Routines
Sample format : 44.100 Hz; 16 Bit; Stereo


TOC of the extracted CD

Track | Start | Length | Start sector | End sector
––––––––––––––––––––––––––––-
1 | 0:00.00 | 4:08.34 | 0 | 18633
2 | 4:08.34 | 4:24.74 | 18634 | 38507
3 | 8:33.33 | 10:29.23 | 38508 | 85705
4 | 19:02.56 | 9:30.46 | 85706 | 128501
5 | 28:33.27 | 5:59.07 | 128502 | 155433
6 | 34:32.34 | 4:32.56 | 155434 | 175889


Range status and errors

Selected range

Filename C:\Documents and Settings\Администратор\Рабочий стол\Rip by ALLexxess\2011 Rolling Stones Singles Collection 1971-2006 (45CD Box Set Universal Music Japan)\Disc 39\The Rolling Stones Singles Collection Disc 39.wav

Peak level 99.9 %
Extraction speed 0.6 X
Range quality 100.0 %
Test CRC F764DDE7
Copy CRC F764DDE7
Copy OK

No errors occurred


AccurateRip summary

Track 1 accurately ripped (confidence 1) [FE5DFBCA]
Track 2 accurately ripped (confidence 1) [EE708285]
Track 3 accurately ripped (confidence 1) [29851ED3]
Track 4 accurately ripped (confidence 1) [6FEF7D32]
Track 5 accurately ripped (confidence 1) [BEE6BAB9]
Track 6 accurately ripped (confidence 1) [76544A1C]

All tracks accurately ripped

End of status report

==== Log checksum E7419973173C9119A4EDDD4ABDD223D4EFC9A1D68761E6F7C07DEBA12FCCA5BD ====


Tracklist CD40. Saint Of Me (JP UICY-5050 / EU 0602527597980):

01. Saint Of Me (Radio Edit)
02. Anyway You Look At It
03. Gimme Shelter (Live)
04. Saint Of Me (Deep Dish Grunge Garage Remix Parts 1 & 2)
05. Saint Of Me (Deep Dish Grunge Garage Dub)
06. Saint Of Me (Deep Dish Rolling Dub)
07. Anybody Seen My Baby (Bonus Roll)
08. Anybody Seen My Baby (Phil Jones Remix)
09. Saint Of Me (Deep Dish Club Mix)
10. Saint Of Me (Deep Dish Grunge Dub)
11. Saint Of Me (Todd Terry Extended Remix)

Exact Audio Copy V1.0 beta 1 from 15. November 2010

EAC extraction logfile from 8. May 2011, 13:36

The Rolling Stones / The Rolling Stones Singles Collection Disc 40

Used drive : HL-DT-STDVDRAM GSA-H60N Adapter: 2 ID: 0

Read mode : Secure
Utilize accurate stream : Yes
Defeat audio cache : Yes
Make use of C2 pointers : No

Read offset correction : 667
Overread into Lead-In and Lead-Out : No
Fill up missing offset samples with silence : Yes
Delete leading and trailing silent blocks : No
Null samples used in CRC calculations : Yes
Used interface : Native Win32 interface for Win NT & 2000

Used output format : Internal WAV Routines
Sample format : 44.100 Hz; 16 Bit; Stereo


TOC of the extracted CD

Track | Start | Length | Start sector | End sector
––––––––––––––––––––––––––––-
1 | 0:00.00 | 4:11.47 | 0 | 18871
2 | 4:11.47 | 4:21.00 | 18872 | 38446
3 | 8:32.47 | 6:53.64 | 38447 | 69485
4 | 15:26.36 | 13:35.53 | 69486 | 130663
5 | 29:02.14 | 7:26.17 | 130664 | 164130
6 | 36:28.31 | 7:18.09 | 164131 | 196989
7 | 43:46.40 | 6:01.66 | 196990 | 224130
8 | 49:48.31 | 4:26.62 | 224131 | 244142
9 | 54:15.18 | 7:30.53 | 244143 | 277945
10 | 61:45.71 | 7:24.38 | 277946 | 311283
11 | 69:10.34 | 5:57.68 | 311284 | 338126


Range status and errors

Selected range

Filename C:\Documents and Settings\Администратор\Рабочий стол\Rip by ALLexxess\2011 Rolling Stones Singles Collection 1971-2006 (45CD Box Set Universal Music Japan)\Disc 40\The Rolling Stones Singles Collection Disc 40.wav

Peak level 100.0 %
Extraction speed 0.5 X
Range quality 100.0 %
Test CRC D61438F7
Copy CRC D61438F7
Copy OK

No errors occurred


AccurateRip summary

Track 1 accurately ripped (confidence 1) [9D608D9A]
Track 2 accurately ripped (confidence 1) [F6B04011]
Track 3 accurately ripped (confidence 1) [28297C93]
Track 4 accurately ripped (confidence 1) [4E94CBDA]
Track 5 accurately ripped (confidence 1) [D728861B]
Track 6 accurately ripped (confidence 1) [10651193]
Track 7 accurately ripped (confidence 1) [004072F3]
Track 8 accurately ripped (confidence 1) [386CFE84]
Track 9 accurately ripped (confidence 1) [3AA09673]
Track 10 accurately ripped (confidence 1) [94CFFCE5]
Track 11 accurately ripped (confidence 1) [8F51FCBD]

All tracks accurately ripped

End of status report

==== Log checksum 1C52AB7139EB40A2131CC68FD055ECE769810A91E321165F47CEFCFCC10E3FA8 ====


Tracklist CD41. Out Of Control (JP UICY-5051 / EU 0602527598000):

1. Out Of Control (Album Radio Edit)
2. Out Of Control (In Hand With Fluke Radio Edit)
3. Out Of Control (Bi-Polar At The Controls)
4. Out Of Control (Bi-Polar Outer Version)
5. Out Of Control (In Hand With Fluke Inst.)
6. Out Of Control (In Hand With Fluke Full Version)
7. Out Of Control (Bi-Polar’s Fat Controller Mix)
8. Out Of Control (Saber Final Mix)

Exact Audio Copy V1.0 beta 1 from 15. November 2010

EAC extraction logfile from 8. May 2011, 14:29

The Rolling Stones / The Rolling Stones Singles Collection Disc 41

Used drive : HL-DT-STDVDRAM GSA-H60N Adapter: 2 ID: 0

Read mode : Secure
Utilize accurate stream : Yes
Defeat audio cache : Yes
Make use of C2 pointers : No

Read offset correction : 667
Overread into Lead-In and Lead-Out : No
Fill up missing offset samples with silence : Yes
Delete leading and trailing silent blocks : No
Null samples used in CRC calculations : Yes
Used interface : Native Win32 interface for Win NT & 2000

Used output format : Internal WAV Routines
Sample format : 44.100 Hz; 16 Bit; Stereo


TOC of the extracted CD

Track | Start | Length | Start sector | End sector
––––––––––––––––––––––––––––-
1 | 0:00.00 | 3:48.68 | 0 | 17167
2 | 3:48.68 | 4:33.54 | 17168 | 37696
3 | 8:22.47 | 5:13.36 | 37697 | 61207
4 | 13:36.08 | 5:12.13 | 61208 | 84620
5 | 18:48.21 | 5:55.27 | 84621 | 111272
6 | 24:43.48 | 8:28.23 | 111273 | 149395
7 | 33:11.71 | 5:24.56 | 149396 | 173751
8 | 38:36.52 | 5:44.52 | 173752 | 199603


Range status and errors

Selected range

Filename C:\Documents and Settings\Администратор\Рабочий стол\Rip by ALLexxess\2011 Rolling Stones Singles Collection 1971-2006 (45CD Box Set Universal Music Japan)\Disc 41\The Rolling Stones Singles Collection Disc 41.wav

Peak level 100.0 %
Extraction speed 0.7 X
Range quality 100.0 %
Test CRC 00C18291
Copy CRC 00C18291
Copy OK

No errors occurred


AccurateRip summary

Track 1 accurately ripped (confidence 1) [582EDB5C]
Track 2 accurately ripped (confidence 1) [331016E8]
Track 3 accurately ripped (confidence 1) [7DF1D9D9]
Track 4 accurately ripped (confidence 1) [581DA955]
Track 5 accurately ripped (confidence 1) [E86CE398]
Track 6 accurately ripped (confidence 1) [25931C00]
Track 7 accurately ripped (confidence 1) [2268E1C2]
Track 8 accurately ripped (confidence 1) [7D815BD0]

All tracks accurately ripped

End of status report

==== Log checksum A7C2259CC5258B6C291215087D4692F95893D3AAB61F2E8ABC54531815F90548 ====


Tracklist CD42. Don’t Stop (JP UICY-5052 / EU 0602527597997):

1. Don’t Stop (Edit)
2. Don’t Stop (New Rock Mix)
3. Miss You (Remix)

Exact Audio Copy V1.0 beta 1 from 15. November 2010

EAC extraction logfile from 8. May 2011, 14:58

The Rolling Stones / The Rolling Stones Singles Collection Disc 42

Used drive : HL-DT-STDVDRAM GSA-H60N Adapter: 2 ID: 0

Read mode : Secure
Utilize accurate stream : Yes
Defeat audio cache : Yes
Make use of C2 pointers : No

Read offset correction : 667
Overread into Lead-In and Lead-Out : No
Fill up missing offset samples with silence : Yes
Delete leading and trailing silent blocks : No
Null samples used in CRC calculations : Yes
Used interface : Native Win32 interface for Win NT & 2000

Used output format : Internal WAV Routines
Sample format : 44.100 Hz; 16 Bit; Stereo


TOC of the extracted CD

Track | Start | Length | Start sector | End sector
––––––––––––––––––––––––––––-
1 | 0:00.00 | 3:31.61 | 0 | 15885
2 | 3:31.61 | 4:03.24 | 15886 | 34134
3 | 7:35.10 | 8:34.71 | 34135 | 72755


Range status and errors

Selected range

Filename C:\Documents and Settings\Администратор\Рабочий стол\Rip by ALLexxess\2011 Rolling Stones Singles Collection 1971-2006 (45CD Box Set Universal Music Japan)\Disc 42\The Rolling Stones Singles Collection Disc 42.wav

Peak level 100.0 %
Extraction speed 2.5 X
Range quality 100.0 %
Test CRC 60EDF0D7
Copy CRC 60EDF0D7
Copy OK

No errors occurred


AccurateRip summary

Track 1 accurately ripped (confidence 1) [D2E419AA]
Track 2 accurately ripped (confidence 1) [D3A77B12]
Track 3 accurately ripped (confidence 1) [AD5C0FBB]

All tracks accurately ripped

End of status report

==== Log checksum CF527C4F3563982053E2607E5F4853F641E4BBD45374984F5938762D1100779D ====


Tracklist CD43. Streets Of Love (JP UICY-5053 / EU 0602527598017):

1. Streets Of Love
2. Rough Justice

Exact Audio Copy V1.0 beta 1 from 15. November 2010

EAC extraction logfile from 8. May 2011, 15:18

The Rolling Stones / The Rolling Stones Singles Collection Disc 43

Used drive : HL-DT-STDVDRAM GSA-H60N Adapter: 2 ID: 0

Read mode : Secure
Utilize accurate stream : Yes
Defeat audio cache : Yes
Make use of C2 pointers : No

Read offset correction : 667
Overread into Lead-In and Lead-Out : No
Fill up missing offset samples with silence : Yes
Delete leading and trailing silent blocks : No
Null samples used in CRC calculations : Yes
Used interface : Native Win32 interface for Win NT & 2000

Used output format : Internal WAV Routines
Sample format : 44.100 Hz; 16 Bit; Stereo


TOC of the extracted CD

Track | Start | Length | Start sector | End sector
––––––––––––––––––––––––––––-
1 | 0:00.00 | 5:11.25 | 0 | 23349
2 | 5:11.25 | 3:11.59 | 23350 | 37733


Range status and errors

Selected range

Filename C:\Documents and Settings\Администратор\Рабочий стол\Rip by ALLexxess\2011 Rolling Stones Singles Collection 1971-2006 (45CD Box Set Universal Music Japan)\Disc 43\The Rolling Stones Singles Collection Disc 43.wav

Peak level 100.0 %
Extraction speed 1.2 X
Range quality 100.0 %
Test CRC 457FEC76
Copy CRC 457FEC76
Copy OK

No errors occurred


AccurateRip summary

Track 1 accurately ripped (confidence 1) [A67F1494]
Track 2 accurately ripped (confidence 1) [0CEEB9D9]

All tracks accurately ripped

End of status report

==== Log checksum BC9615AC8C263B7970B6D2147691EC8ABC59401E2CAC99B462041BBAB8BCA403 ====


Tracklist CD44. Rain Fall Down (JP UICY-5054 / EU 0602527598024):

1. Rain Fall Down (Will.I.Am Remix)
2. Rain Fall Down (Radio Edit)
3. Rain Fall Down (Ashley Beedle’s Heavy Disco Radio Edit)
4. Rain Fall Down (Ashley Beedle’s Heavy Disco Vocal Re-Edit)

Exact Audio Copy V1.0 beta 1 from 15. November 2010

EAC extraction logfile from 8. May 2011, 15:35

The Rolling Stones / The Rolling Stones Singles Collection Disc 44

Used drive : HL-DT-STDVDRAM GSA-H60N Adapter: 2 ID: 0

Read mode : Secure
Utilize accurate stream : Yes
Defeat audio cache : Yes
Make use of C2 pointers : No

Read offset correction : 667
Overread into Lead-In and Lead-Out : No
Fill up missing offset samples with silence : Yes
Delete leading and trailing silent blocks : No
Null samples used in CRC calculations : Yes
Used interface : Native Win32 interface for Win NT & 2000

Used output format : Internal WAV Routines
Sample format : 44.100 Hz; 16 Bit; Stereo


TOC of the extracted CD

Track | Start | Length | Start sector | End sector
––––––––––––––––––––––––––––-
1 | 0:00.00 | 4:06.37 | 0 | 18486
2 | 4:06.37 | 4:02.67 | 18487 | 36703
3 | 8:09.29 | 4:04.60 | 36704 | 55063
4 | 12:14.14 | 6:11.22 | 55064 | 82910


Range status and errors

Selected range

Filename C:\Documents and Settings\Администратор\Рабочий стол\Rip by ALLexxess\2011 Rolling Stones Singles Collection 1971-2006 (45CD Box Set Universal Music Japan)\Disc 44\The Rolling Stones Singles Collection Disc 44.wav

Peak level 100.0 %
Extraction speed 1.5 X
Range quality 99.9 %
Test CRC 2555BC9F
Copy CRC 2555BC9F
Copy OK

No errors occurred


AccurateRip summary

Track 1 accurately ripped (confidence 1) [730C4C45]
Track 2 accurately ripped (confidence 1) [158DAAA6]
Track 3 accurately ripped (confidence 1) [D8CBB408]
Track 4 accurately ripped (confidence 1) [928052E4]

All tracks accurately ripped

End of status report

==== Log checksum 58B46B05DA2236CAA97C80E3AA54921B2A90FC2B1398DE49BE2FCE48AB96A1A3 ====


Tracklist CD45. Biggest Mistake (JP UICY-5055 / EU 0602527598031):

1. Biggest Mistake
2. Dance Pt 1
3. Before They Make Me Run (Live)
4. Hand Of Fate (Live)

Exact Audio Copy V1.0 beta 1 from 15. November 2010

EAC extraction logfile from 8. May 2011, 15:54

The Rolling Stones / The Rolling Stones Singles Collection Disc 45

Used drive : HL-DT-STDVDRAM GSA-H60N Adapter: 2 ID: 0

Read mode : Secure
Utilize accurate stream : Yes
Defeat audio cache : Yes
Make use of C2 pointers : No

Read offset correction : 667
Overread into Lead-In and Lead-Out : No
Fill up missing offset samples with silence : Yes
Delete leading and trailing silent blocks : No
Null samples used in CRC calculations : Yes
Used interface : Native Win32 interface for Win NT & 2000

Used output format : Internal WAV Routines
Sample format : 44.100 Hz; 16 Bit; Stereo


TOC of the extracted CD

Track | Start | Length | Start sector | End sector
––––––––––––––––––––––––––––-
1 | 0:00.00 | 4:08.23 | 0 | 18622
2 | 4:08.23 | 6:03.15 | 18623 | 45862
3 | 10:11.38 | 3:56.44 | 45863 | 63606
4 | 14:08.07 | 4:03.66 | 63607 | 81897


Range status and errors

Selected range

Filename C:\Documents and Settings\Администратор\Рабочий стол\Rip by ALLexxess\2011 Rolling Stones Singles Collection 1971-2006 (45CD Box Set Universal Music Japan)\Disc 45\The Rolling Stones Singles Collection Disc 45.wav

Peak level 100.0 %
Extraction speed 1.0 X
Range quality 100.0 %
Test CRC 4F702429
Copy CRC 4F702429
Copy OK

No errors occurred


AccurateRip summary

Track 1 accurately ripped (confidence 1) [8EBBCEE8]
Track 2 accurately ripped (confidence 1) [B0A41D2F]
Track 3 accurately ripped (confidence 1) [BD0ED7A9]
Track 4 accurately ripped (confidence 1) [A7B25B99]

All tracks accurately ripped

End of status report

==== Log checksum 36FF1F8448F3E9DDBAF4022248D900E469ACC89D5210FA10E465188A8F87CE57 ====


The Rolling Stones - The Singles 1971-2006 (2011) [45CD Box Set, Japan]

All thanks go to ALLexxess

Rolling Stones in my Blog

Download The Rolling Stones - The Singles 1971-2006 (2011):