Tags
Language
Tags

The Sweet Inspirations - Let It Be Me: The Atlantic Recordings 1967-1970

Posted By: Rtax
The Sweet Inspirations - Let It Be Me: The Atlantic Recordings 1967-1970

The Sweet Inspirations - Let It Be Me: The Atlantic Recordings 1967-1970
EAC Rip | FLAC (tracks, cue, log, scans) - 1.1 GB
3:11:26 | Soul, Funk, Gospel, R&B | Label: Soulmusic Records

Three CD set featuring 66 tracks by The Sweet Inspirations cut for Atlantic Records between 1967 and 1970. A comprehensive collection from the voices behind a plethora of hitmakers including Solomon Burke, The Drifters, Aretha Franklin, Elvis Presley, Wilson Pickett and many others, who were signed in their own right by Jerry Wexler. Including the Top five R&B and Top 20 pop hit, 'Sweet Inspiration'. The set also includes eight tracks with the line-up including Ann Williams who replaced Cissy Houston; produced by Dave Crawford and Brad Shapiro, it was originally intended for release as an entire LP and has never been released in full until now. With stellar liner notes by renowned US writer/essayist Tim Dillinger including extensive quotes from Estelle Brown specifically for this reissue, and produced by SoulMusic Records' founder David Nathan, with mastering by Nick Robbins and artwork by Roger Williams.

Tracklist
Blues Stay Away From Me
1-1 Let It Be Me
1-2 Why (Am I Treated So Bad)
1-3 That’s How Strong My Love Is
1-4 I Don’t Want To Go On Without You
1-5 Knock On Wood
1-6 When Something Is Wrong With My Baby
1-7 I’ve Been Loving You Too Long
1-8 Reach Out For Me
1-9 Just Walk In My Shoes
1-10 Do Right Woman-Do Right Man
1-11 Here I Am (Take Me)
1-12 Don’t Let Me Lose This Dream
1-13 Blues Stay Away From Me
1-14 I’m Blue
1-15 Sweet Inspiration
1-16 Don’t Fight It
1-17 Oh! What A Fool I’ve Been
1-18 Am I Ever Gonna See My Baby Again
1-19 I Could Leave You Alone
1-20 To Love Somebody
1-21 Where Did It Go
1-22 You Really Didn’t Mean It

Unchained Melody
2-1 Watch The One (Who Brings You The News)
2-2 Unchained Melody
2-3 Alfie
2-4 What The World Needs Now Is Love
2-5 Everyday Will Be Like A Holiday
2-6 Crying In The Rain
2-7 Chained
2-8 Get A Little Order
2-9 It’s Worth It All
2-10 Let Me Be Lonely
2-11 It’s Not Easy
2-12 Sweets For My Sweet
2-13 Don’t Go
2-14 Always David
2-15 But You Know I Love You
2-16 (Gotta Find) A Brand New Lover (Single Version) Part 1
2-17 (Gotta Find) A Brand New Lover (Single Version) Part 2
2-18 Shut-Up!!!
2-19 Give My Love To Somebody
2-20 Two Can Play The Game
2-21 (Gotta Find) A Brand New Lover, Part 1 & 2
2-22 Ain’t Nothin’ In The World
2-23 Them Boys
2-24 Flash In The Pan
2-25 At Last I’ve Found A Love
2-26 That’s The Way My Baby Is

Light Sings
3-1 I’ve Been Inspired To Love You
3-2 Ain’t Nothing Gonna Change Me
3-3 This World
3-4 Light Sings

Medley
3-5.1 Little Green Apples
3-5.2 Think
3-5.3 Something
-
3-6 Make It Easy On Yourself
3-7 Change Me Not
3-8 Evidence
3-9 Pilgrims Of Sorrow
3-10 Down By The Riverside
3-11 The 23rd Psalm
3-12 Without A Doubt
3-13 He’ll Fight
3-14 Swing Low
3-15 I Shall Know Him
3-16 What A Friend We Have In Jesus
3-17 Looking On The Bright Side
3-18 Guide Me
Exact Audio Copy V1.3 from 2. September 2016

EAC extraction logfile from 21. October 2021, 15:10

The Sweet Inspirations / Let It Be Me (The Atlantic Recordings 1967-1970)

Used drive : HL-DT-STBD-RE BH16NS55 Adapter: 1 ID: 0

Read mode : Secure
Utilize accurate stream : Yes
Defeat audio cache : Yes
Make use of C2 pointers : No

Read offset correction : 6
Overread into Lead-In and Lead-Out : No
Fill up missing offset samples with silence : Yes
Delete leading and trailing silent blocks : No
Null samples used in CRC calculations : Yes
Used interface : Native Win32 interface for Win NT & 2000
Gap handling : Appended to previous track

Used output format : User Defined Encoder
Selected bitrate : 1024 kBit/s
Quality : High
Add ID3 tag : No
Command line compressor : C:\Program Files (x86)\Exact Audio Copy\Flac\flac.exe
Additional command line options : -8 -V -T "ARTIST=%artist%" -T "TITLE=%title%" -T "ALBUM=%albumtitle%" -T "DATE=%year%" -T "TRACKNUMBER=%tracknr%" -T "GENRE=%genre%" -T "PERFORMER=%albuminterpret%" -T "COMPOSER=%composer%" %haslyrics%–tag-from-file=LYRICS="%lyricsfile%"%haslyrics% -T "ALBUMARTIST=%albumartist%" -T "DISCNUMBER=%cdnumber%" -T "TOTALDISCS=%totalcds%" -T "TOTALTRACKS=%numtracks%" -T "COMMENT=%comment%" %source% -o %dest%


TOC of the extracted CD

Track | Start | Length | Start sector | End sector
––––––––––––––––––––––––––––-
1 | 0:00.00 | 2:38.43 | 0 | 11892
2 | 2:38.43 | 2:50.15 | 11893 | 24657
3 | 5:28.58 | 2:14.43 | 24658 | 34750
4 | 7:43.26 | 2:56.52 | 34751 | 48002
5 | 10:40.03 | 3:01.55 | 48003 | 61632
6 | 13:41.58 | 3:03.59 | 61633 | 75416
7 | 16:45.42 | 2:37.00 | 75417 | 87191
8 | 19:22.42 | 2:19.65 | 87192 | 97681
9 | 21:42.32 | 2:22.06 | 97682 | 108337
10 | 24:04.38 | 3:03.37 | 108338 | 122099
11 | 27:08.00 | 3:04.68 | 122100 | 135967
12 | 30:12.68 | 2:22.39 | 135968 | 146656
13 | 32:35.32 | 3:24.42 | 146657 | 161998
14 | 35:59.74 | 2:09.44 | 161999 | 171717
15 | 38:09.43 | 2:53.53 | 171718 | 184745
16 | 41:03.21 | 2:25.07 | 184746 | 195627
17 | 43:28.28 | 2:38.25 | 195628 | 207502
18 | 46:06.53 | 2:55.57 | 207503 | 220684
19 | 49:02.35 | 2:17.36 | 220685 | 230995
20 | 51:19.71 | 2:43.26 | 230996 | 243246
21 | 54:03.22 | 2:41.56 | 243247 | 255377
22 | 56:45.03 | 2:56.04 | 255378 | 268581


Track 1

Filename D:\#cdr\#wav+flac\#Add\The Sweet Inspirations - Let It Be Me (The Atlantic Recordings 1967-1970)\cd 1\01. The Sweet Inspirations - Let It Be Me.wav

Pre-gap length 0:00:02.00

Peak level 95.5 %
Extraction speed 3.9 X
Track quality 100.0 %
Test CRC B8EF4A89
Copy CRC B8EF4A89
Track not present in AccurateRip database
Copy OK

Track 2

Filename D:\#cdr\#wav+flac\#Add\The Sweet Inspirations - Let It Be Me (The Atlantic Recordings 1967-1970)\cd 1\02. The Sweet Inspirations - Why (Am I Treated so Bad) [Single Version].wav

Pre-gap length 0:00:01.69

Peak level 95.4 %
Extraction speed 4.4 X
Track quality 100.0 %
Test CRC 93DF28F3
Copy CRC 93DF28F3
Track not present in AccurateRip database
Copy OK

Track 3

Filename D:\#cdr\#wav+flac\#Add\The Sweet Inspirations - Let It Be Me (The Atlantic Recordings 1967-1970)\cd 1\03. The Sweet Inspirations - That's How Strong My Love Is.wav

Pre-gap length 0:00:02.22

Peak level 95.5 %
Extraction speed 4.4 X
Track quality 100.0 %
Test CRC CAA90D61
Copy CRC CAA90D61
Track not present in AccurateRip database
Copy OK

Track 4

Filename D:\#cdr\#wav+flac\#Add\The Sweet Inspirations - Let It Be Me (The Atlantic Recordings 1967-1970)\cd 1\04. The Sweet Inspirations - I Don't Want to Go on Without You.wav

Pre-gap length 0:00:01.85

Peak level 91.7 %
Extraction speed 4.9 X
Track quality 100.0 %
Test CRC CAAFA08D
Copy CRC CAAFA08D
Track not present in AccurateRip database
Copy OK

Track 5

Filename D:\#cdr\#wav+flac\#Add\The Sweet Inspirations - Let It Be Me (The Atlantic Recordings 1967-1970)\cd 1\05. The Sweet Inspirations - Knock on Wood.wav

Pre-gap length 0:00:01.72

Peak level 95.4 %
Extraction speed 5.2 X
Track quality 100.0 %
Test CRC AC125E61
Copy CRC AC125E61
Track not present in AccurateRip database
Copy OK

Track 6

Filename D:\#cdr\#wav+flac\#Add\The Sweet Inspirations - Let It Be Me (The Atlantic Recordings 1967-1970)\cd 1\06. The Sweet Inspirations - When Something Is Wrong with My Baby.wav

Pre-gap length 0:00:01.21

Peak level 78.0 %
Extraction speed 5.5 X
Track quality 100.0 %
Test CRC F8CF7ACB
Copy CRC F8CF7ACB
Track not present in AccurateRip database
Copy OK

Track 7

Filename D:\#cdr\#wav+flac\#Add\The Sweet Inspirations - Let It Be Me (The Atlantic Recordings 1967-1970)\cd 1\07. The Sweet Inspirations - I've Been Loving You Too Long.wav

Pre-gap length 0:00:01.69

Peak level 81.1 %
Extraction speed 4.3 X
Track quality 99.9 %
Test CRC 6386DD33
Copy CRC 6386DD33
Track not present in AccurateRip database
Copy OK

Track 8

Filename D:\#cdr\#wav+flac\#Add\The Sweet Inspirations - Let It Be Me (The Atlantic Recordings 1967-1970)\cd 1\08. The Sweet Inspirations - Reach out for Me.wav

Pre-gap length 0:00:01.72

Peak level 89.1 %
Extraction speed 5.6 X
Track quality 100.0 %
Test CRC D2AA61A4
Copy CRC D2AA61A4
Track not present in AccurateRip database
Copy OK

Track 9

Filename D:\#cdr\#wav+flac\#Add\The Sweet Inspirations - Let It Be Me (The Atlantic Recordings 1967-1970)\cd 1\09. The Sweet Inspirations - Just Walk in My Shoes.wav

Pre-gap length 0:00:01.80

Peak level 95.5 %
Extraction speed 4.5 X
Track quality 99.9 %
Test CRC 6B80AA25
Copy CRC 6B80AA25
Track not present in AccurateRip database
Copy OK

Track 10

Filename D:\#cdr\#wav+flac\#Add\The Sweet Inspirations - Let It Be Me (The Atlantic Recordings 1967-1970)\cd 1\10. The Sweet Inspirations - Do Right Woman, Do Right Man.wav

Pre-gap length 0:00:01.28

Peak level 88.5 %
Extraction speed 6.3 X
Track quality 100.0 %
Test CRC 2F51AF7E
Copy CRC 2F51AF7E
Track not present in AccurateRip database
Copy OK

Track 11

Filename D:\#cdr\#wav+flac\#Add\The Sweet Inspirations - Let It Be Me (The Atlantic Recordings 1967-1970)\cd 1\11. The Sweet Inspirations - Here I Am (Take Me).wav

Pre-gap length 0:00:01.49

Peak level 95.4 %
Extraction speed 5.2 X
Track quality 99.9 %
Test CRC EEE0D291
Copy CRC EEE0D291
Track not present in AccurateRip database
Copy OK

Track 12

Filename D:\#cdr\#wav+flac\#Add\The Sweet Inspirations - Let It Be Me (The Atlantic Recordings 1967-1970)\cd 1\12. The Sweet Inspirations - Don't Let Me Lose This Dream.wav

Pre-gap length 0:00:01.48

Peak level 95.4 %
Extraction speed 6.4 X
Track quality 100.0 %
Test CRC 696C0256
Copy CRC 696C0256
Track not present in AccurateRip database
Copy OK

Track 13

Filename D:\#cdr\#wav+flac\#Add\The Sweet Inspirations - Let It Be Me (The Atlantic Recordings 1967-1970)\cd 1\13. The Sweet Inspirations - Blues Stay Away from Me.wav

Pre-gap length 0:00:01.62

Peak level 94.9 %
Extraction speed 7.1 X
Track quality 100.0 %
Test CRC 07069313
Copy CRC 07069313
Track not present in AccurateRip database
Copy OK

Track 14

Filename D:\#cdr\#wav+flac\#Add\The Sweet Inspirations - Let It Be Me (The Atlantic Recordings 1967-1970)\cd 1\14. The Sweet Inspirations - I'm Blue.wav

Pre-gap length 0:00:01.34

Peak level 95.4 %
Extraction speed 6.7 X
Track quality 100.0 %
Test CRC D782AE6C
Copy CRC D782AE6C
Track not present in AccurateRip database
Copy OK

Track 15

Filename D:\#cdr\#wav+flac\#Add\The Sweet Inspirations - Let It Be Me (The Atlantic Recordings 1967-1970)\cd 1\15. The Sweet Inspirations - Sweet Inspiration.wav

Pre-gap length 0:00:01.65

Peak level 93.1 %
Extraction speed 7.2 X
Track quality 100.0 %
Test CRC B7FDD02C
Copy CRC B7FDD02C
Track not present in AccurateRip database
Copy OK

Track 16

Filename D:\#cdr\#wav+flac\#Add\The Sweet Inspirations - Let It Be Me (The Atlantic Recordings 1967-1970)\cd 1\16. The Sweet Inspirations - Don't Fight It.wav

Pre-gap length 0:00:02.05

Peak level 95.4 %
Extraction speed 5.3 X
Track quality 99.9 %
Test CRC FC26BC28
Copy CRC FC26BC28
Track not present in AccurateRip database
Copy OK

Track 17

Filename D:\#cdr\#wav+flac\#Add\The Sweet Inspirations - Let It Be Me (The Atlantic Recordings 1967-1970)\cd 1\17. The Sweet Inspirations - Oh! What a Fool I've Been.wav

Pre-gap length 0:00:02.05

Peak level 83.7 %
Extraction speed 5.7 X
Track quality 99.9 %
Test CRC DE07781B
Copy CRC DE07781B
Track not present in AccurateRip database
Copy OK

Track 18

Filename D:\#cdr\#wav+flac\#Add\The Sweet Inspirations - Let It Be Me (The Atlantic Recordings 1967-1970)\cd 1\18. The Sweet Inspirations - Am I Ever Gonna See My Baby Again.wav

Pre-gap length 0:00:02.00

Peak level 95.4 %
Extraction speed 7.5 X
Track quality 100.0 %
Test CRC 93C042DC
Copy CRC 93C042DC
Track not present in AccurateRip database
Copy OK

Track 19

Filename D:\#cdr\#wav+flac\#Add\The Sweet Inspirations - Let It Be Me (The Atlantic Recordings 1967-1970)\cd 1\19. The Sweet Inspirations - I Could Leave You Alone.wav

Pre-gap length 0:00:01.64

Peak level 95.5 %
Extraction speed 7.4 X
Track quality 100.0 %
Test CRC 1598225F
Copy CRC 1598225F
Track not present in AccurateRip database
Copy OK

Track 20

Filename D:\#cdr\#wav+flac\#Add\The Sweet Inspirations - Let It Be Me (The Atlantic Recordings 1967-1970)\cd 1\20. The Sweet Inspirations - To Love Somebody.wav

Pre-gap length 0:00:01.68

Peak level 95.4 %
Extraction speed 6.1 X
Track quality 99.9 %
Test CRC DDAF4893
Copy CRC DDAF4893
Track not present in AccurateRip database
Copy OK

Track 21

Filename D:\#cdr\#wav+flac\#Add\The Sweet Inspirations - Let It Be Me (The Atlantic Recordings 1967-1970)\cd 1\21. The Sweet Inspirations - Where Did It Go.wav

Pre-gap length 0:00:01.66

Peak level 95.4 %
Extraction speed 8.0 X
Track quality 100.0 %
Test CRC C89361B9
Copy CRC C89361B9
Track not present in AccurateRip database
Copy OK

Track 22

Filename D:\#cdr\#wav+flac\#Add\The Sweet Inspirations - Let It Be Me (The Atlantic Recordings 1967-1970)\cd 1\22. The Sweet Inspirations - You Really Didn't Mean It.wav

Pre-gap length 0:00:01.46

Peak level 89.5 %
Extraction speed 8.2 X
Track quality 100.0 %
Test CRC 39BFA1E0
Copy CRC 39BFA1E0
Track not present in AccurateRip database
Copy OK


None of the tracks are present in the AccurateRip database

No errors occurred

End of status report

–– CUETools DB Plugin V2.1.6

[CTDB TOCID: W5NLnzklTj3HTY6p9y0VOOV38tI-] found
Submit result: W5NLnzklTj3HTY6p9y0VOOV38tI- has been confirmed
Track | CTDB Status
1 | (1/1) Accurately ripped
2 | (1/1) Accurately ripped
3 | (1/1) Accurately ripped
4 | (1/1) Accurately ripped
5 | (1/1) Accurately ripped
6 | (1/1) Accurately ripped
7 | (1/1) Accurately ripped
8 | (1/1) Accurately ripped
9 | (1/1) Accurately ripped
10 | (1/1) Accurately ripped
11 | (1/1) Accurately ripped
12 | (1/1) Accurately ripped
13 | (1/1) Accurately ripped
14 | (1/1) Accurately ripped
15 | (1/1) Accurately ripped
16 | (1/1) Accurately ripped
17 | (1/1) Accurately ripped
18 | (1/1) Accurately ripped
19 | (1/1) Accurately ripped
20 | (1/1) Accurately ripped
21 | (1/1) Accurately ripped
22 | (1/1) Accurately ripped


==== Log checksum 1A233959556C0EC796363AE7F69ECDA5812C41C1D4E0C68504A78558066405AA ====

––––––––––––––––––––––––––––––

Exact Audio Copy V1.3 from 2. September 2016

EAC extraction logfile from 21. October 2021, 15:10

The Sweet Inspirations / Let It Be Me (The Atlantic Recordings 1967-1970)

Used drive : HL-DT-STBD-RE BH16NS55 Adapter: 1 ID: 0

Read mode : Secure
Utilize accurate stream : Yes
Defeat audio cache : Yes
Make use of C2 pointers : No

Read offset correction : 6
Overread into Lead-In and Lead-Out : No
Fill up missing offset samples with silence : Yes
Delete leading and trailing silent blocks : No
Null samples used in CRC calculations : Yes
Used interface : Native Win32 interface for Win NT & 2000
Gap handling : Appended to previous track

Used output format : User Defined Encoder
Selected bitrate : 1024 kBit/s
Quality : High
Add ID3 tag : No
Command line compressor : C:\Program Files (x86)\Exact Audio Copy\Flac\flac.exe
Additional command line options : -8 -V -T "ARTIST=%artist%" -T "TITLE=%title%" -T "ALBUM=%albumtitle%" -T "DATE=%year%" -T "TRACKNUMBER=%tracknr%" -T "GENRE=%genre%" -T "PERFORMER=%albuminterpret%" -T "COMPOSER=%composer%" %haslyrics%–tag-from-file=LYRICS="%lyricsfile%"%haslyrics% -T "ALBUMARTIST=%albumartist%" -T "DISCNUMBER=%cdnumber%" -T "TOTALDISCS=%totalcds%" -T "TOTALTRACKS=%numtracks%" -T "COMMENT=%comment%" %source% -o %dest%


TOC of the extracted CD

Track | Start | Length | Start sector | End sector
––––––––––––––––––––––––––––-
1 | 0:00.00 | 2:38.43 | 0 | 11892
2 | 2:38.43 | 2:50.15 | 11893 | 24657
3 | 5:28.58 | 2:14.43 | 24658 | 34750
4 | 7:43.26 | 2:56.52 | 34751 | 48002
5 | 10:40.03 | 3:01.55 | 48003 | 61632
6 | 13:41.58 | 3:03.59 | 61633 | 75416
7 | 16:45.42 | 2:37.00 | 75417 | 87191
8 | 19:22.42 | 2:19.65 | 87192 | 97681
9 | 21:42.32 | 2:22.06 | 97682 | 108337
10 | 24:04.38 | 3:03.37 | 108338 | 122099
11 | 27:08.00 | 3:04.68 | 122100 | 135967
12 | 30:12.68 | 2:22.39 | 135968 | 146656
13 | 32:35.32 | 3:24.42 | 146657 | 161998
14 | 35:59.74 | 2:09.44 | 161999 | 171717
15 | 38:09.43 | 2:53.53 | 171718 | 184745
16 | 41:03.21 | 2:25.07 | 184746 | 195627
17 | 43:28.28 | 2:38.25 | 195628 | 207502
18 | 46:06.53 | 2:55.57 | 207503 | 220684
19 | 49:02.35 | 2:17.36 | 220685 | 230995
20 | 51:19.71 | 2:43.26 | 230996 | 243246
21 | 54:03.22 | 2:41.56 | 243247 | 255377
22 | 56:45.03 | 2:56.04 | 255378 | 268581


Track 1

Filename D:\#cdr\#wav+flac\#Add\The Sweet Inspirations - Let It Be Me (The Atlantic Recordings 1967-1970)\cd 1\01. The Sweet Inspirations - Let It Be Me.wav

Pre-gap length 0:00:02.00

Peak level 95.5 %
Extraction speed 3.9 X
Track quality 100.0 %
Test CRC B8EF4A89
Copy CRC B8EF4A89
Track not present in AccurateRip database
Copy OK

Track 2

Filename D:\#cdr\#wav+flac\#Add\The Sweet Inspirations - Let It Be Me (The Atlantic Recordings 1967-1970)\cd 1\02. The Sweet Inspirations - Why (Am I Treated so Bad) [Single Version].wav

Pre-gap length 0:00:01.69

Peak level 95.4 %
Extraction speed 4.4 X
Track quality 100.0 %
Test CRC 93DF28F3
Copy CRC 93DF28F3
Track not present in AccurateRip database
Copy OK

Track 3

Filename D:\#cdr\#wav+flac\#Add\The Sweet Inspirations - Let It Be Me (The Atlantic Recordings 1967-1970)\cd 1\03. The Sweet Inspirations - That's How Strong My Love Is.wav

Pre-gap length 0:00:02.22

Peak level 95.5 %
Extraction speed 4.4 X
Track quality 100.0 %
Test CRC CAA90D61
Copy CRC CAA90D61
Track not present in AccurateRip database
Copy OK

Track 4

Filename D:\#cdr\#wav+flac\#Add\The Sweet Inspirations - Let It Be Me (The Atlantic Recordings 1967-1970)\cd 1\04. The Sweet Inspirations - I Don't Want to Go on Without You.wav

Pre-gap length 0:00:01.85

Peak level 91.7 %
Extraction speed 4.9 X
Track quality 100.0 %
Test CRC CAAFA08D
Copy CRC CAAFA08D
Track not present in AccurateRip database
Copy OK

Track 5

Filename D:\#cdr\#wav+flac\#Add\The Sweet Inspirations - Let It Be Me (The Atlantic Recordings 1967-1970)\cd 1\05. The Sweet Inspirations - Knock on Wood.wav

Pre-gap length 0:00:01.72

Peak level 95.4 %
Extraction speed 5.2 X
Track quality 100.0 %
Test CRC AC125E61
Copy CRC AC125E61
Track not present in AccurateRip database
Copy OK

Track 6

Filename D:\#cdr\#wav+flac\#Add\The Sweet Inspirations - Let It Be Me (The Atlantic Recordings 1967-1970)\cd 1\06. The Sweet Inspirations - When Something Is Wrong with My Baby.wav

Pre-gap length 0:00:01.21

Peak level 78.0 %
Extraction speed 5.5 X
Track quality 100.0 %
Test CRC F8CF7ACB
Copy CRC F8CF7ACB
Track not present in AccurateRip database
Copy OK

Track 7

Filename D:\#cdr\#wav+flac\#Add\The Sweet Inspirations - Let It Be Me (The Atlantic Recordings 1967-1970)\cd 1\07. The Sweet Inspirations - I've Been Loving You Too Long.wav

Pre-gap length 0:00:01.69

Peak level 81.1 %
Extraction speed 4.3 X
Track quality 99.9 %
Test CRC 6386DD33
Copy CRC 6386DD33
Track not present in AccurateRip database
Copy OK

Track 8

Filename D:\#cdr\#wav+flac\#Add\The Sweet Inspirations - Let It Be Me (The Atlantic Recordings 1967-1970)\cd 1\08. The Sweet Inspirations - Reach out for Me.wav

Pre-gap length 0:00:01.72

Peak level 89.1 %
Extraction speed 5.6 X
Track quality 100.0 %
Test CRC D2AA61A4
Copy CRC D2AA61A4
Track not present in AccurateRip database
Copy OK

Track 9

Filename D:\#cdr\#wav+flac\#Add\The Sweet Inspirations - Let It Be Me (The Atlantic Recordings 1967-1970)\cd 1\09. The Sweet Inspirations - Just Walk in My Shoes.wav

Pre-gap length 0:00:01.80

Peak level 95.5 %
Extraction speed 4.5 X
Track quality 99.9 %
Test CRC 6B80AA25
Copy CRC 6B80AA25
Track not present in AccurateRip database
Copy OK

Track 10

Filename D:\#cdr\#wav+flac\#Add\The Sweet Inspirations - Let It Be Me (The Atlantic Recordings 1967-1970)\cd 1\10. The Sweet Inspirations - Do Right Woman, Do Right Man.wav

Pre-gap length 0:00:01.28

Peak level 88.5 %
Extraction speed 6.3 X
Track quality 100.0 %
Test CRC 2F51AF7E
Copy CRC 2F51AF7E
Track not present in AccurateRip database
Copy OK

Track 11

Filename D:\#cdr\#wav+flac\#Add\The Sweet Inspirations - Let It Be Me (The Atlantic Recordings 1967-1970)\cd 1\11. The Sweet Inspirations - Here I Am (Take Me).wav

Pre-gap length 0:00:01.49

Peak level 95.4 %
Extraction speed 5.2 X
Track quality 99.9 %
Test CRC EEE0D291
Copy CRC EEE0D291
Track not present in AccurateRip database
Copy OK

Track 12

Filename D:\#cdr\#wav+flac\#Add\The Sweet Inspirations - Let It Be Me (The Atlantic Recordings 1967-1970)\cd 1\12. The Sweet Inspirations - Don't Let Me Lose This Dream.wav

Pre-gap length 0:00:01.48

Peak level 95.4 %
Extraction speed 6.4 X
Track quality 100.0 %
Test CRC 696C0256
Copy CRC 696C0256
Track not present in AccurateRip database
Copy OK

Track 13

Filename D:\#cdr\#wav+flac\#Add\The Sweet Inspirations - Let It Be Me (The Atlantic Recordings 1967-1970)\cd 1\13. The Sweet Inspirations - Blues Stay Away from Me.wav

Pre-gap length 0:00:01.62

Peak level 94.9 %
Extraction speed 7.1 X
Track quality 100.0 %
Test CRC 07069313
Copy CRC 07069313
Track not present in AccurateRip database
Copy OK

Track 14

Filename D:\#cdr\#wav+flac\#Add\The Sweet Inspirations - Let It Be Me (The Atlantic Recordings 1967-1970)\cd 1\14. The Sweet Inspirations - I'm Blue.wav

Pre-gap length 0:00:01.34

Peak level 95.4 %
Extraction speed 6.7 X
Track quality 100.0 %
Test CRC D782AE6C
Copy CRC D782AE6C
Track not present in AccurateRip database
Copy OK

Track 15

Filename D:\#cdr\#wav+flac\#Add\The Sweet Inspirations - Let It Be Me (The Atlantic Recordings 1967-1970)\cd 1\15. The Sweet Inspirations - Sweet Inspiration.wav

Pre-gap length 0:00:01.65

Peak level 93.1 %
Extraction speed 7.2 X
Track quality 100.0 %
Test CRC B7FDD02C
Copy CRC B7FDD02C
Track not present in AccurateRip database
Copy OK

Track 16

Filename D:\#cdr\#wav+flac\#Add\The Sweet Inspirations - Let It Be Me (The Atlantic Recordings 1967-1970)\cd 1\16. The Sweet Inspirations - Don't Fight It.wav

Pre-gap length 0:00:02.05

Peak level 95.4 %
Extraction speed 5.3 X
Track quality 99.9 %
Test CRC FC26BC28
Copy CRC FC26BC28
Track not present in AccurateRip database
Copy OK

Track 17

Filename D:\#cdr\#wav+flac\#Add\The Sweet Inspirations - Let It Be Me (The Atlantic Recordings 1967-1970)\cd 1\17. The Sweet Inspirations - Oh! What a Fool I've Been.wav

Pre-gap length 0:00:02.05

Peak level 83.7 %
Extraction speed 5.7 X
Track quality 99.9 %
Test CRC DE07781B
Copy CRC DE07781B
Track not present in AccurateRip database
Copy OK

Track 18

Filename D:\#cdr\#wav+flac\#Add\The Sweet Inspirations - Let It Be Me (The Atlantic Recordings 1967-1970)\cd 1\18. The Sweet Inspirations - Am I Ever Gonna See My Baby Again.wav

Pre-gap length 0:00:02.00

Peak level 95.4 %
Extraction speed 7.5 X
Track quality 100.0 %
Test CRC 93C042DC
Copy CRC 93C042DC
Track not present in AccurateRip database
Copy OK

Track 19

Filename D:\#cdr\#wav+flac\#Add\The Sweet Inspirations - Let It Be Me (The Atlantic Recordings 1967-1970)\cd 1\19. The Sweet Inspirations - I Could Leave You Alone.wav

Pre-gap length 0:00:01.64

Peak level 95.5 %
Extraction speed 7.4 X
Track quality 100.0 %
Test CRC 1598225F
Copy CRC 1598225F
Track not present in AccurateRip database
Copy OK

Track 20

Filename D:\#cdr\#wav+flac\#Add\The Sweet Inspirations - Let It Be Me (The Atlantic Recordings 1967-1970)\cd 1\20. The Sweet Inspirations - To Love Somebody.wav

Pre-gap length 0:00:01.68

Peak level 95.4 %
Extraction speed 6.1 X
Track quality 99.9 %
Test CRC DDAF4893
Copy CRC DDAF4893
Track not present in AccurateRip database
Copy OK

Track 21

Filename D:\#cdr\#wav+flac\#Add\The Sweet Inspirations - Let It Be Me (The Atlantic Recordings 1967-1970)\cd 1\21. The Sweet Inspirations - Where Did It Go.wav

Pre-gap length 0:00:01.66

Peak level 95.4 %
Extraction speed 8.0 X
Track quality 100.0 %
Test CRC C89361B9
Copy CRC C89361B9
Track not present in AccurateRip database
Copy OK

Track 22

Filename D:\#cdr\#wav+flac\#Add\The Sweet Inspirations - Let It Be Me (The Atlantic Recordings 1967-1970)\cd 1\22. The Sweet Inspirations - You Really Didn't Mean It.wav

Pre-gap length 0:00:01.46

Peak level 89.5 %
Extraction speed 8.2 X
Track quality 100.0 %
Test CRC 39BFA1E0
Copy CRC 39BFA1E0
Track not present in AccurateRip database
Copy OK


None of the tracks are present in the AccurateRip database

No errors occurred

End of status report

–– CUETools DB Plugin V2.1.6

[CTDB TOCID: W5NLnzklTj3HTY6p9y0VOOV38tI-] found
Submit result: W5NLnzklTj3HTY6p9y0VOOV38tI- has been confirmed
Track | CTDB Status
1 | (1/1) Accurately ripped
2 | (1/1) Accurately ripped
3 | (1/1) Accurately ripped
4 | (1/1) Accurately ripped
5 | (1/1) Accurately ripped
6 | (1/1) Accurately ripped
7 | (1/1) Accurately ripped
8 | (1/1) Accurately ripped
9 | (1/1) Accurately ripped
10 | (1/1) Accurately ripped
11 | (1/1) Accurately ripped
12 | (1/1) Accurately ripped
13 | (1/1) Accurately ripped
14 | (1/1) Accurately ripped
15 | (1/1) Accurately ripped
16 | (1/1) Accurately ripped
17 | (1/1) Accurately ripped
18 | (1/1) Accurately ripped
19 | (1/1) Accurately ripped
20 | (1/1) Accurately ripped
21 | (1/1) Accurately ripped
22 | (1/1) Accurately ripped


==== Log checksum 1A233959556C0EC796363AE7F69ECDA5812C41C1D4E0C68504A78558066405AA ====


Exact Audio Copy V1.3 from 2. September 2016

EAC extraction logfile from 21. October 2021, 15:35

The Sweet Inspirations / Let It Be Me (The Atlantic Recordings 1967-1970)

Used drive : HL-DT-STBD-RE BH16NS55 Adapter: 1 ID: 0

Read mode : Secure
Utilize accurate stream : Yes
Defeat audio cache : Yes
Make use of C2 pointers : No

Read offset correction : 6
Overread into Lead-In and Lead-Out : No
Fill up missing offset samples with silence : Yes
Delete leading and trailing silent blocks : No
Null samples used in CRC calculations : Yes
Used interface : Native Win32 interface for Win NT & 2000
Gap handling : Appended to previous track

Used output format : User Defined Encoder
Selected bitrate : 1024 kBit/s
Quality : High
Add ID3 tag : No
Command line compressor : C:\Program Files (x86)\Exact Audio Copy\Flac\flac.exe
Additional command line options : -8 -V -T "ARTIST=%artist%" -T "TITLE=%title%" -T "ALBUM=%albumtitle%" -T "DATE=%year%" -T "TRACKNUMBER=%tracknr%" -T "GENRE=%genre%" -T "PERFORMER=%albuminterpret%" -T "COMPOSER=%composer%" %haslyrics%–tag-from-file=LYRICS="%lyricsfile%"%haslyrics% -T "ALBUMARTIST=%albumartist%" -T "DISCNUMBER=%cdnumber%" -T "TOTALDISCS=%totalcds%" -T "TOTALTRACKS=%numtracks%" -T "COMMENT=%comment%" %source% -o %dest%


TOC of the extracted CD

Track | Start | Length | Start sector | End sector
––––––––––––––––––––––––––––-
1 | 0:00.00 | 2:39.46 | 0 | 11970
2 | 2:39.46 | 3:23.52 | 11971 | 27247
3 | 6:03.23 | 3:20.51 | 27248 | 42298
4 | 9:23.74 | 2:59.32 | 42299 | 55755
5 | 12:23.31 | 2:29.23 | 55756 | 66953
6 | 14:52.54 | 2:26.56 | 66954 | 77959
7 | 17:19.35 | 2:14.24 | 77960 | 88033
8 | 19:33.59 | 2:07.37 | 88034 | 97595
9 | 21:41.21 | 2:58.28 | 97596 | 110973
10 | 24:39.49 | 3:52.50 | 110974 | 128423
11 | 28:32.24 | 3:05.41 | 128424 | 142339
12 | 31:37.65 | 2:39.34 | 142340 | 154298
13 | 34:17.24 | 2:14.30 | 154299 | 164378
14 | 36:31.54 | 3:28.04 | 164379 | 179982
15 | 39:59.58 | 2:34.08 | 179983 | 191540
16 | 42:33.66 | 2:14.50 | 191541 | 201640
17 | 44:48.41 | 2:28.52 | 201641 | 212792
18 | 47:17.18 | 1:55.72 | 212793 | 221489
19 | 49:13.15 | 2:24.14 | 221490 | 232303
20 | 51:37.29 | 2:13.27 | 232304 | 242305
21 | 53:50.56 | 4:23.30 | 242306 | 262060
22 | 58:14.11 | 2:28.09 | 262061 | 273169
23 | 60:42.20 | 2:30.16 | 273170 | 284435
24 | 63:12.36 | 2:25.12 | 284436 | 295322
25 | 65:37.48 | 2:05.46 | 295323 | 304743
26 | 67:43.19 | 3:27.69 | 304744 | 320337


Track 1

Filename D:\#cdr\#wav+flac\#Add\The Sweet Inspirations - Let It Be Me (The Atlantic Recordings 1967-1970)\cd 2\01. The Sweet Inspirations - Watch The One Who Brings You The News.wav

Pre-gap length 0:00:02.00

Peak level 83.3 %
Extraction speed 4.4 X
Track quality 100.0 %
Test CRC E347C793
Copy CRC E347C793
Track not present in AccurateRip database
Copy OK

Track 2

Filename D:\#cdr\#wav+flac\#Add\The Sweet Inspirations - Let It Be Me (The Atlantic Recordings 1967-1970)\cd 2\02. The Sweet Inspirations - Unchained Melody.wav

Pre-gap length 0:00:01.12

Peak level 76.1 %
Extraction speed 4.9 X
Track quality 100.0 %
Test CRC AC9CC7F8
Copy CRC AC9CC7F8
Track not present in AccurateRip database
Copy OK

Track 3

Filename D:\#cdr\#wav+flac\#Add\The Sweet Inspirations - Let It Be Me (The Atlantic Recordings 1967-1970)\cd 2\03. The Sweet Inspirations - Alfie.wav

Pre-gap length 0:00:01.46

Peak level 94.6 %
Extraction speed 5.2 X
Track quality 100.0 %
Test CRC EEB4C439
Copy CRC EEB4C439
Track not present in AccurateRip database
Copy OK

Track 4

Filename D:\#cdr\#wav+flac\#Add\The Sweet Inspirations - Let It Be Me (The Atlantic Recordings 1967-1970)\cd 2\04. The Sweet Inspirations - What The World Needs Now Is Love.wav

Pre-gap length 0:00:01.62

Peak level 95.5 %
Extraction speed 5.5 X
Track quality 100.0 %
Test CRC FFF7DC51
Copy CRC FFF7DC51
Track not present in AccurateRip database
Copy OK

Track 5

Filename D:\#cdr\#wav+flac\#Add\The Sweet Inspirations - Let It Be Me (The Atlantic Recordings 1967-1970)\cd 2\05. The Sweet Inspirations - Every Day Will Be Like A Holiday.wav

Pre-gap length 0:00:01.58

Peak level 95.5 %
Extraction speed 5.5 X
Track quality 100.0 %
Test CRC BE7C52FA
Copy CRC BE7C52FA
Track not present in AccurateRip database
Copy OK

Track 6

Filename D:\#cdr\#wav+flac\#Add\The Sweet Inspirations - Let It Be Me (The Atlantic Recordings 1967-1970)\cd 2\06. The Sweet Inspirations - Crying In The Rain.wav

Pre-gap length 0:00:01.57

Peak level 90.6 %
Extraction speed 4.3 X
Track quality 99.9 %
Test CRC 50910C31
Copy CRC 50910C31
Track not present in AccurateRip database
Copy OK

Track 7

Filename D:\#cdr\#wav+flac\#Add\The Sweet Inspirations - Let It Be Me (The Atlantic Recordings 1967-1970)\cd 2\07. The Sweet Inspirations - Chained.wav

Pre-gap length 0:00:01.48

Peak level 83.1 %
Extraction speed 5.7 X
Track quality 100.0 %
Test CRC CB4A5504
Copy CRC CB4A5504
Track not present in AccurateRip database
Copy OK

Track 8

Filename D:\#cdr\#wav+flac\#Add\The Sweet Inspirations - Let It Be Me (The Atlantic Recordings 1967-1970)\cd 2\08. The Sweet Inspirations - Get A Little Order.wav

Pre-gap length 0:00:01.70

Peak level 95.4 %
Extraction speed 4.3 X
Track quality 99.9 %
Test CRC 8AF7E5D9
Copy CRC 8AF7E5D9
Track not present in AccurateRip database
Copy OK

Track 9

Filename D:\#cdr\#wav+flac\#Add\The Sweet Inspirations - Let It Be Me (The Atlantic Recordings 1967-1970)\cd 2\09. The Sweet Inspirations - It's Worth It All.wav

Pre-gap length 0:00:02.10

Peak level 88.7 %
Extraction speed 6.4 X
Track quality 100.0 %
Test CRC F2544754
Copy CRC F2544754
Track not present in AccurateRip database
Copy OK

Track 10

Filename D:\#cdr\#wav+flac\#Add\The Sweet Inspirations - Let It Be Me (The Atlantic Recordings 1967-1970)\cd 2\10. The Sweet Inspirations - Let Me Be Lonely.wav

Pre-gap length 0:00:01.38

Peak level 95.3 %
Extraction speed 6.9 X
Track quality 100.0 %
Test CRC 271F53BD
Copy CRC 271F53BD
Track not present in AccurateRip database
Copy OK

Track 11

Filename D:\#cdr\#wav+flac\#Add\The Sweet Inspirations - Let It Be Me (The Atlantic Recordings 1967-1970)\cd 2\11. The Sweet Inspirations - It's Not Easy.wav

Pre-gap length 0:00:01.46

Peak level 93.0 %
Extraction speed 7.0 X
Track quality 100.0 %
Test CRC 3BF5EF3F
Copy CRC 3BF5EF3F
Track not present in AccurateRip database
Copy OK

Track 12

Filename D:\#cdr\#wav+flac\#Add\The Sweet Inspirations - Let It Be Me (The Atlantic Recordings 1967-1970)\cd 2\12. The Sweet Inspirations - Sweets For My Sweet.wav

Pre-gap length 0:00:00.84

Peak level 95.5 %
Extraction speed 7.0 X
Track quality 100.0 %
Test CRC DF467E6F
Copy CRC DF467E6F
Track not present in AccurateRip database
Copy OK

Track 13

Filename D:\#cdr\#wav+flac\#Add\The Sweet Inspirations - Let It Be Me (The Atlantic Recordings 1967-1970)\cd 2\13. The Sweet Inspirations - Don't Go.wav

Pre-gap length 0:00:02.30

Peak level 88.3 %
Extraction speed 6.8 X
Track quality 100.0 %
Test CRC F0D41DB9
Copy CRC F0D41DB9
Track not present in AccurateRip database
Copy OK

Track 14

Filename D:\#cdr\#wav+flac\#Add\The Sweet Inspirations - Let It Be Me (The Atlantic Recordings 1967-1970)\cd 2\14. The Sweet Inspirations - Always David.wav

Pre-gap length 0:00:01.58

Peak level 95.5 %
Extraction speed 7.6 X
Track quality 100.0 %
Test CRC EFF93A9F
Copy CRC EFF93A9F
Track not present in AccurateRip database
Copy OK

Track 15

Filename D:\#cdr\#wav+flac\#Add\The Sweet Inspirations - Let It Be Me (The Atlantic Recordings 1967-1970)\cd 2\15. The Sweet Inspirations - But You Know I Love You.wav

Pre-gap length 0:00:01.22

Peak level 95.4 %
Extraction speed 7.4 X
Track quality 100.0 %
Test CRC 3B3CDCF9
Copy CRC 3B3CDCF9
Track not present in AccurateRip database
Copy OK

Track 16

Filename D:\#cdr\#wav+flac\#Add\The Sweet Inspirations - Let It Be Me (The Atlantic Recordings 1967-1970)\cd 2\16. The Sweet Inspirations - (Gotta Find) A Brand New Lover, Pt. 1.wav

Pre-gap length 0:00:02.05

Peak level 95.4 %
Extraction speed 7.3 X
Track quality 100.0 %
Test CRC 16499B28
Copy CRC 16499B28
Track not present in AccurateRip database
Copy OK

Track 17

Filename D:\#cdr\#wav+flac\#Add\The Sweet Inspirations - Let It Be Me (The Atlantic Recordings 1967-1970)\cd 2\17. The Sweet Inspirations - (Gotta Find) A Brand New Lover, Pt. 2.wav

Pre-gap length 0:00:01.86

Peak level 95.4 %
Extraction speed 5.8 X
Track quality 99.9 %
Test CRC 8B3DB996
Copy CRC 8B3DB996
Track not present in AccurateRip database
Copy OK

Track 18

Filename D:\#cdr\#wav+flac\#Add\The Sweet Inspirations - Let It Be Me (The Atlantic Recordings 1967-1970)\cd 2\18. The Sweet Inspirations - Shut-Up!!!.wav

Pre-gap length 0:00:01.45

Peak level 95.5 %
Extraction speed 7.2 X
Track quality 100.0 %
Test CRC C455B5C2
Copy CRC C455B5C2
Track not present in AccurateRip database
Copy OK

Track 19

Filename D:\#cdr\#wav+flac\#Add\The Sweet Inspirations - Let It Be Me (The Atlantic Recordings 1967-1970)\cd 2\19. The Sweet Inspirations - Give My Love To Somebody.wav

Pre-gap length 0:00:01.26

Peak level 95.4 %
Extraction speed 7.8 X
Track quality 100.0 %
Test CRC 0F51734F
Copy CRC 0F51734F
Track not present in AccurateRip database
Copy OK

Track 20

Filename D:\#cdr\#wav+flac\#Add\The Sweet Inspirations - Let It Be Me (The Atlantic Recordings 1967-1970)\cd 2\20. The Sweet Inspirations - Two Can Play The Game.wav

Pre-gap length 0:00:00.93

Peak level 95.4 %
Extraction speed 7.7 X
Track quality 100.0 %
Test CRC E9E074C3
Copy CRC E9E074C3
Track not present in AccurateRip database
Copy OK

Track 21

Filename D:\#cdr\#wav+flac\#Add\The Sweet Inspirations - Let It Be Me (The Atlantic Recordings 1967-1970)\cd 2\21. The Sweet Inspirations - (Gotta Find) A Brand New Lover, Pts. 1 & 2.wav

Pre-gap length 0:00:00.86

Peak level 95.4 %
Extraction speed 8.9 X
Track quality 100.0 %
Test CRC 826EF699
Copy CRC 826EF699
Track not present in AccurateRip database
Copy OK

Track 22

Filename D:\#cdr\#wav+flac\#Add\The Sweet Inspirations - Let It Be Me (The Atlantic Recordings 1967-1970)\cd 2\22. The Sweet Inspirations - Ain't Nothin' In The World.wav

Pre-gap length 0:00:01.57

Peak level 95.4 %
Extraction speed 8.2 X
Track quality 100.0 %
Test CRC D0857DEE
Copy CRC D0857DEE
Track not present in AccurateRip database
Copy OK

Track 23

Filename D:\#cdr\#wav+flac\#Add\The Sweet Inspirations - Let It Be Me (The Atlantic Recordings 1967-1970)\cd 2\23. The Sweet Inspirations - Them Boys.wav

Pre-gap length 0:00:00.65

Peak level 95.4 %
Extraction speed 8.4 X
Track quality 100.0 %
Test CRC EB886785
Copy CRC EB886785
Track not present in AccurateRip database
Copy OK

Track 24

Filename D:\#cdr\#wav+flac\#Add\The Sweet Inspirations - Let It Be Me (The Atlantic Recordings 1967-1970)\cd 2\24. The Sweet Inspirations - Flash In The Pan.wav

Pre-gap length 0:00:01.06

Peak level 95.5 %
Extraction speed 5.0 X
Track quality 100.0 %
Test CRC F19DC78D
Copy CRC F19DC78D
Track not present in AccurateRip database
Copy OK

Track 25

Filename D:\#cdr\#wav+flac\#Add\The Sweet Inspirations - Let It Be Me (The Atlantic Recordings 1967-1970)\cd 2\25. The Sweet Inspirations - At Last I've Found A Love.wav

Pre-gap length 0:00:00.88

Peak level 95.4 %
Extraction speed 8.5 X
Track quality 100.0 %
Test CRC 521BFC90
Copy CRC 521BFC90
Track not present in AccurateRip database
Copy OK

Track 26

Filename D:\#cdr\#wav+flac\#Add\The Sweet Inspirations - Let It Be Me (The Atlantic Recordings 1967-1970)\cd 2\26. The Sweet Inspirations - That's The Way My Baby Is.wav

Pre-gap length 0:00:00.53

Peak level 95.4 %
Extraction speed 9.3 X
Track quality 100.0 %
Test CRC E79B7547
Copy CRC E79B7547
Track not present in AccurateRip database
Copy OK


None of the tracks are present in the AccurateRip database

No errors occurred

End of status report

–– CUETools DB Plugin V2.1.6

[CTDB TOCID: C9E1ys8ok0nMIZkjQB1LJ4uuGUc-] found
Submit result: C9E1ys8ok0nMIZkjQB1LJ4uuGUc- has been confirmed
Track | CTDB Status
1 | (1/1) Accurately ripped
2 | (1/1) Accurately ripped
3 | (1/1) Accurately ripped
4 | (1/1) Accurately ripped
5 | (1/1) Accurately ripped
6 | (1/1) Accurately ripped
7 | (1/1) Accurately ripped
8 | (1/1) Accurately ripped
9 | (1/1) Accurately ripped
10 | (1/1) Accurately ripped
11 | (1/1) Accurately ripped
12 | (1/1) Accurately ripped
13 | (1/1) Accurately ripped
14 | (1/1) Accurately ripped
15 | (1/1) Accurately ripped
16 | (1/1) Accurately ripped
17 | (1/1) Accurately ripped
18 | (1/1) Accurately ripped
19 | (1/1) Accurately ripped
20 | (1/1) Accurately ripped
21 | (1/1) Accurately ripped
22 | (1/1) Accurately ripped
23 | (1/1) Accurately ripped
24 | (1/1) Accurately ripped
25 | (1/1) Accurately ripped
26 | (1/1) Accurately ripped


==== Log checksum 9681601F6902E2EBC9758EE6B854C307DE0074D0550C367F3C586DBB8392F853 ====

––––––––––––––––––––––––––––––

Exact Audio Copy V1.3 from 2. September 2016

EAC extraction logfile from 21. October 2021, 15:35

The Sweet Inspirations / Let It Be Me (The Atlantic Recordings 1967-1970)

Used drive : HL-DT-STBD-RE BH16NS55 Adapter: 1 ID: 0

Read mode : Secure
Utilize accurate stream : Yes
Defeat audio cache : Yes
Make use of C2 pointers : No

Read offset correction : 6
Overread into Lead-In and Lead-Out : No
Fill up missing offset samples with silence : Yes
Delete leading and trailing silent blocks : No
Null samples used in CRC calculations : Yes
Used interface : Native Win32 interface for Win NT & 2000
Gap handling : Appended to previous track

Used output format : User Defined Encoder
Selected bitrate : 1024 kBit/s
Quality : High
Add ID3 tag : No
Command line compressor : C:\Program Files (x86)\Exact Audio Copy\Flac\flac.exe
Additional command line options : -8 -V -T "ARTIST=%artist%" -T "TITLE=%title%" -T "ALBUM=%albumtitle%" -T "DATE=%year%" -T "TRACKNUMBER=%tracknr%" -T "GENRE=%genre%" -T "PERFORMER=%albuminterpret%" -T "COMPOSER=%composer%" %haslyrics%–tag-from-file=LYRICS="%lyricsfile%"%haslyrics% -T "ALBUMARTIST=%albumartist%" -T "DISCNUMBER=%cdnumber%" -T "TOTALDISCS=%totalcds%" -T "TOTALTRACKS=%numtracks%" -T "COMMENT=%comment%" %source% -o %dest%


TOC of the extracted CD

Track | Start | Length | Start sector | End sector
––––––––––––––––––––––––––––-
1 | 0:00.00 | 2:39.46 | 0 | 11970
2 | 2:39.46 | 3:23.52 | 11971 | 27247
3 | 6:03.23 | 3:20.51 | 27248 | 42298
4 | 9:23.74 | 2:59.32 | 42299 | 55755
5 | 12:23.31 | 2:29.23 | 55756 | 66953
6 | 14:52.54 | 2:26.56 | 66954 | 77959
7 | 17:19.35 | 2:14.24 | 77960 | 88033
8 | 19:33.59 | 2:07.37 | 88034 | 97595
9 | 21:41.21 | 2:58.28 | 97596 | 110973
10 | 24:39.49 | 3:52.50 | 110974 | 128423
11 | 28:32.24 | 3:05.41 | 128424 | 142339
12 | 31:37.65 | 2:39.34 | 142340 | 154298
13 | 34:17.24 | 2:14.30 | 154299 | 164378
14 | 36:31.54 | 3:28.04 | 164379 | 179982
15 | 39:59.58 | 2:34.08 | 179983 | 191540
16 | 42:33.66 | 2:14.50 | 191541 | 201640
17 | 44:48.41 | 2:28.52 | 201641 | 212792
18 | 47:17.18 | 1:55.72 | 212793 | 221489
19 | 49:13.15 | 2:24.14 | 221490 | 232303
20 | 51:37.29 | 2:13.27 | 232304 | 242305
21 | 53:50.56 | 4:23.30 | 242306 | 262060
22 | 58:14.11 | 2:28.09 | 262061 | 273169
23 | 60:42.20 | 2:30.16 | 273170 | 284435
24 | 63:12.36 | 2:25.12 | 284436 | 295322
25 | 65:37.48 | 2:05.46 | 295323 | 304743
26 | 67:43.19 | 3:27.69 | 304744 | 320337


Track 1

Filename D:\#cdr\#wav+flac\#Add\The Sweet Inspirations - Let It Be Me (The Atlantic Recordings 1967-1970)\cd 2\01. The Sweet Inspirations - Watch The One Who Brings You The News.wav

Pre-gap length 0:00:02.00

Peak level 83.3 %
Extraction speed 4.4 X
Track quality 100.0 %
Test CRC E347C793
Copy CRC E347C793
Track not present in AccurateRip database
Copy OK

Track 2

Filename D:\#cdr\#wav+flac\#Add\The Sweet Inspirations - Let It Be Me (The Atlantic Recordings 1967-1970)\cd 2\02. The Sweet Inspirations - Unchained Melody.wav

Pre-gap length 0:00:01.12

Peak level 76.1 %
Extraction speed 4.9 X
Track quality 100.0 %
Test CRC AC9CC7F8
Copy CRC AC9CC7F8
Track not present in AccurateRip database
Copy OK

Track 3

Filename D:\#cdr\#wav+flac\#Add\The Sweet Inspirations - Let It Be Me (The Atlantic Recordings 1967-1970)\cd 2\03. The Sweet Inspirations - Alfie.wav

Pre-gap length 0:00:01.46

Peak level 94.6 %
Extraction speed 5.2 X
Track quality 100.0 %
Test CRC EEB4C439
Copy CRC EEB4C439
Track not present in AccurateRip database
Copy OK

Track 4

Filename D:\#cdr\#wav+flac\#Add\The Sweet Inspirations - Let It Be Me (The Atlantic Recordings 1967-1970)\cd 2\04. The Sweet Inspirations - What The World Needs Now Is Love.wav

Pre-gap length 0:00:01.62

Peak level 95.5 %
Extraction speed 5.5 X
Track quality 100.0 %
Test CRC FFF7DC51
Copy CRC FFF7DC51
Track not present in AccurateRip database
Copy OK

Track 5

Filename D:\#cdr\#wav+flac\#Add\The Sweet Inspirations - Let It Be Me (The Atlantic Recordings 1967-1970)\cd 2\05. The Sweet Inspirations - Every Day Will Be Like A Holiday.wav

Pre-gap length 0:00:01.58

Peak level 95.5 %
Extraction speed 5.5 X
Track quality 100.0 %
Test CRC BE7C52FA
Copy CRC BE7C52FA
Track not present in AccurateRip database
Copy OK

Track 6

Filename D:\#cdr\#wav+flac\#Add\The Sweet Inspirations - Let It Be Me (The Atlantic Recordings 1967-1970)\cd 2\06. The Sweet Inspirations - Crying In The Rain.wav

Pre-gap length 0:00:01.57

Peak level 90.6 %
Extraction speed 4.3 X
Track quality 99.9 %
Test CRC 50910C31
Copy CRC 50910C31
Track not present in AccurateRip database
Copy OK

Track 7

Filename D:\#cdr\#wav+flac\#Add\The Sweet Inspirations - Let It Be Me (The Atlantic Recordings 1967-1970)\cd 2\07. The Sweet Inspirations - Chained.wav

Pre-gap length 0:00:01.48

Peak level 83.1 %
Extraction speed 5.7 X
Track quality 100.0 %
Test CRC CB4A5504
Copy CRC CB4A5504
Track not present in AccurateRip database
Copy OK

Track 8

Filename D:\#cdr\#wav+flac\#Add\The Sweet Inspirations - Let It Be Me (The Atlantic Recordings 1967-1970)\cd 2\08. The Sweet Inspirations - Get A Little Order.wav

Pre-gap length 0:00:01.70

Peak level 95.4 %
Extraction speed 4.3 X
Track quality 99.9 %
Test CRC 8AF7E5D9
Copy CRC 8AF7E5D9
Track not present in AccurateRip database
Copy OK

Track 9

Filename D:\#cdr\#wav+flac\#Add\The Sweet Inspirations - Let It Be Me (The Atlantic Recordings 1967-1970)\cd 2\09. The Sweet Inspirations - It's Worth It All.wav

Pre-gap length 0:00:02.10

Peak level 88.7 %
Extraction speed 6.4 X
Track quality 100.0 %
Test CRC F2544754
Copy CRC F2544754
Track not present in AccurateRip database
Copy OK

Track 10

Filename D:\#cdr\#wav+flac\#Add\The Sweet Inspirations - Let It Be Me (The Atlantic Recordings 1967-1970)\cd 2\10. The Sweet Inspirations - Let Me Be Lonely.wav

Pre-gap length 0:00:01.38

Peak level 95.3 %
Extraction speed 6.9 X
Track quality 100.0 %
Test CRC 271F53BD
Copy CRC 271F53BD
Track not present in AccurateRip database
Copy OK

Track 11

Filename D:\#cdr\#wav+flac\#Add\The Sweet Inspirations - Let It Be Me (The Atlantic Recordings 1967-1970)\cd 2\11. The Sweet Inspirations - It's Not Easy.wav

Pre-gap length 0:00:01.46

Peak level 93.0 %
Extraction speed 7.0 X
Track quality 100.0 %
Test CRC 3BF5EF3F
Copy CRC 3BF5EF3F
Track not present in AccurateRip database
Copy OK

Track 12

Filename D:\#cdr\#wav+flac\#Add\The Sweet Inspirations - Let It Be Me (The Atlantic Recordings 1967-1970)\cd 2\12. The Sweet Inspirations - Sweets For My Sweet.wav

Pre-gap length 0:00:00.84

Peak level 95.5 %
Extraction speed 7.0 X
Track quality 100.0 %
Test CRC DF467E6F
Copy CRC DF467E6F
Track not present in AccurateRip database
Copy OK

Track 13

Filename D:\#cdr\#wav+flac\#Add\The Sweet Inspirations - Let It Be Me (The Atlantic Recordings 1967-1970)\cd 2\13. The Sweet Inspirations - Don't Go.wav

Pre-gap length 0:00:02.30

Peak level 88.3 %
Extraction speed 6.8 X
Track quality 100.0 %
Test CRC F0D41DB9
Copy CRC F0D41DB9
Track not present in AccurateRip database
Copy OK

Track 14

Filename D:\#cdr\#wav+flac\#Add\The Sweet Inspirations - Let It Be Me (The Atlantic Recordings 1967-1970)\cd 2\14. The Sweet Inspirations - Always David.wav

Pre-gap length 0:00:01.58

Peak level 95.5 %
Extraction speed 7.6 X
Track quality 100.0 %
Test CRC EFF93A9F
Copy CRC EFF93A9F
Track not present in AccurateRip database
Copy OK

Track 15

Filename D:\#cdr\#wav+flac\#Add\The Sweet Inspirations - Let It Be Me (The Atlantic Recordings 1967-1970)\cd 2\15. The Sweet Inspirations - But You Know I Love You.wav

Pre-gap length 0:00:01.22

Peak level 95.4 %
Extraction speed 7.4 X
Track quality 100.0 %
Test CRC 3B3CDCF9
Copy CRC 3B3CDCF9
Track not present in AccurateRip database
Copy OK

Track 16

Filename D:\#cdr\#wav+flac\#Add\The Sweet Inspirations - Let It Be Me (The Atlantic Recordings 1967-1970)\cd 2\16. The Sweet Inspirations - (Gotta Find) A Brand New Lover, Pt. 1.wav

Pre-gap length 0:00:02.05

Peak level 95.4 %
Extraction speed 7.3 X
Track quality 100.0 %
Test CRC 16499B28
Copy CRC 16499B28
Track not present in AccurateRip database
Copy OK

Track 17

Filename D:\#cdr\#wav+flac\#Add\The Sweet Inspirations - Let It Be Me (The Atlantic Recordings 1967-1970)\cd 2\17. The Sweet Inspirations - (Gotta Find) A Brand New Lover, Pt. 2.wav

Pre-gap length 0:00:01.86

Peak level 95.4 %
Extraction speed 5.8 X
Track quality 99.9 %
Test CRC 8B3DB996
Copy CRC 8B3DB996
Track not present in AccurateRip database
Copy OK

Track 18

Filename D:\#cdr\#wav+flac\#Add\The Sweet Inspirations - Let It Be Me (The Atlantic Recordings 1967-1970)\cd 2\18. The Sweet Inspirations - Shut-Up!!!.wav

Pre-gap length 0:00:01.45

Peak level 95.5 %
Extraction speed 7.2 X
Track quality 100.0 %
Test CRC C455B5C2
Copy CRC C455B5C2
Track not present in AccurateRip database
Copy OK

Track 19

Filename D:\#cdr\#wav+flac\#Add\The Sweet Inspirations - Let It Be Me (The Atlantic Recordings 1967-1970)\cd 2\19. The Sweet Inspirations - Give My Love To Somebody.wav

Pre-gap length 0:00:01.26

Peak level 95.4 %
Extraction speed 7.8 X
Track quality 100.0 %
Test CRC 0F51734F
Copy CRC 0F51734F
Track not present in AccurateRip database
Copy OK

Track 20

Filename D:\#cdr\#wav+flac\#Add\The Sweet Inspirations - Let It Be Me (The Atlantic Recordings 1967-1970)\cd 2\20. The Sweet Inspirations - Two Can Play The Game.wav

Pre-gap length 0:00:00.93

Peak level 95.4 %
Extraction speed 7.7 X
Track quality 100.0 %
Test CRC E9E074C3
Copy CRC E9E074C3
Track not present in AccurateRip database
Copy OK

Track 21

Filename D:\#cdr\#wav+flac\#Add\The Sweet Inspirations - Let It Be Me (The Atlantic Recordings 1967-1970)\cd 2\21. The Sweet Inspirations - (Gotta Find) A Brand New Lover, Pts. 1 & 2.wav

Pre-gap length 0:00:00.86

Peak level 95.4 %
Extraction speed 8.9 X
Track quality 100.0 %
Test CRC 826EF699
Copy CRC 826EF699
Track not present in AccurateRip database
Copy OK

Track 22

Filename D:\#cdr\#wav+flac\#Add\The Sweet Inspirations - Let It Be Me (The Atlantic Recordings 1967-1970)\cd 2\22. The Sweet Inspirations - Ain't Nothin' In The World.wav

Pre-gap length 0:00:01.57

Peak level 95.4 %
Extraction speed 8.2 X
Track quality 100.0 %
Test CRC D0857DEE
Copy CRC D0857DEE
Track not present in AccurateRip database
Copy OK

Track 23

Filename D:\#cdr\#wav+flac\#Add\The Sweet Inspirations - Let It Be Me (The Atlantic Recordings 1967-1970)\cd 2\23. The Sweet Inspirations - Them Boys.wav

Pre-gap length 0:00:00.65

Peak level 95.4 %
Extraction speed 8.4 X
Track quality 100.0 %
Test CRC EB886785
Copy CRC EB886785
Track not present in AccurateRip database
Copy OK

Track 24

Filename D:\#cdr\#wav+flac\#Add\The Sweet Inspirations - Let It Be Me (The Atlantic Recordings 1967-1970)\cd 2\24. The Sweet Inspirations - Flash In The Pan.wav

Pre-gap length 0:00:01.06

Peak level 95.5 %
Extraction speed 5.0 X
Track quality 100.0 %
Test CRC F19DC78D
Copy CRC F19DC78D
Track not present in AccurateRip database
Copy OK

Track 25

Filename D:\#cdr\#wav+flac\#Add\The Sweet Inspirations - Let It Be Me (The Atlantic Recordings 1967-1970)\cd 2\25. The Sweet Inspirations - At Last I've Found A Love.wav

Pre-gap length 0:00:00.88

Peak level 95.4 %
Extraction speed 8.5 X
Track quality 100.0 %
Test CRC 521BFC90
Copy CRC 521BFC90
Track not present in AccurateRip database
Copy OK

Track 26

Filename D:\#cdr\#wav+flac\#Add\The Sweet Inspirations - Let It Be Me (The Atlantic Recordings 1967-1970)\cd 2\26. The Sweet Inspirations - That's The Way My Baby Is.wav

Pre-gap length 0:00:00.53

Peak level 95.4 %
Extraction speed 9.3 X
Track quality 100.0 %
Test CRC E79B7547
Copy CRC E79B7547
Track not present in AccurateRip database
Copy OK


None of the tracks are present in the AccurateRip database

No errors occurred

End of status report

–– CUETools DB Plugin V2.1.6

[CTDB TOCID: C9E1ys8ok0nMIZkjQB1LJ4uuGUc-] found
Submit result: C9E1ys8ok0nMIZkjQB1LJ4uuGUc- has been confirmed
Track | CTDB Status
1 | (1/1) Accurately ripped
2 | (1/1) Accurately ripped
3 | (1/1) Accurately ripped
4 | (1/1) Accurately ripped
5 | (1/1) Accurately ripped
6 | (1/1) Accurately ripped
7 | (1/1) Accurately ripped
8 | (1/1) Accurately ripped
9 | (1/1) Accurately ripped
10 | (1/1) Accurately ripped
11 | (1/1) Accurately ripped
12 | (1/1) Accurately ripped
13 | (1/1) Accurately ripped
14 | (1/1) Accurately ripped
15 | (1/1) Accurately ripped
16 | (1/1) Accurately ripped
17 | (1/1) Accurately ripped
18 | (1/1) Accurately ripped
19 | (1/1) Accurately ripped
20 | (1/1) Accurately ripped
21 | (1/1) Accurately ripped
22 | (1/1) Accurately ripped
23 | (1/1) Accurately ripped
24 | (1/1) Accurately ripped
25 | (1/1) Accurately ripped
26 | (1/1) Accurately ripped


==== Log checksum 9681601F6902E2EBC9758EE6B854C307DE0074D0550C367F3C586DBB8392F853 ====


Exact Audio Copy V1.3 from 2. September 2016

EAC extraction logfile from 21. October 2021, 15:59

The Sweet Inspirations / Let It Be Me (The Atlantic Recordings 1967-1970)

Used drive : HL-DT-STBD-RE BH16NS55 Adapter: 1 ID: 0

Read mode : Secure
Utilize accurate stream : Yes
Defeat audio cache : Yes
Make use of C2 pointers : No

Read offset correction : 6
Overread into Lead-In and Lead-Out : No
Fill up missing offset samples with silence : Yes
Delete leading and trailing silent blocks : No
Null samples used in CRC calculations : Yes
Used interface : Native Win32 interface for Win NT & 2000
Gap handling : Appended to previous track

Used output format : User Defined Encoder
Selected bitrate : 1024 kBit/s
Quality : High
Add ID3 tag : No
Command line compressor : C:\Program Files (x86)\Exact Audio Copy\Flac\flac.exe
Additional command line options : -8 -V -T "ARTIST=%artist%" -T "TITLE=%title%" -T "ALBUM=%albumtitle%" -T "DATE=%year%" -T "TRACKNUMBER=%tracknr%" -T "GENRE=%genre%" -T "PERFORMER=%albuminterpret%" -T "COMPOSER=%composer%" %haslyrics%–tag-from-file=LYRICS="%lyricsfile%"%haslyrics% -T "ALBUMARTIST=%albumartist%" -T "DISCNUMBER=%cdnumber%" -T "TOTALDISCS=%totalcds%" -T "TOTALTRACKS=%numtracks%" -T "COMMENT=%comment%" %source% -o %dest%


TOC of the extracted CD

Track | Start | Length | Start sector | End sector
––––––––––––––––––––––––––––-
1 | 0:00.00 | 2:35.55 | 0 | 11679
2 | 2:35.55 | 3:31.67 | 11680 | 27571
3 | 6:07.47 | 2:59.45 | 27572 | 41041
4 | 9:07.17 | 3:05.62 | 41042 | 54978
5 | 12:13.04 | 6:03.22 | 54979 | 82225
6 | 18:16.26 | 3:34.47 | 82226 | 98322
7 | 21:50.73 | 2:23.66 | 98323 | 109113
8 | 24:14.64 | 2:08.06 | 109114 | 118719
9 | 26:22.70 | 3:12.08 | 118720 | 133127
10 | 29:35.03 | 2:20.35 | 133128 | 143662
11 | 31:55.38 | 4:13.26 | 143663 | 162663
12 | 36:08.64 | 2:33.43 | 162664 | 174181
13 | 38:42.32 | 4:51.11 | 174182 | 196017
14 | 43:33.43 | 3:05.27 | 196018 | 209919
15 | 46:38.70 | 3:05.68 | 209920 | 223862
16 | 49:44.63 | 3:54.28 | 223863 | 241440
17 | 53:39.16 | 2:46.25 | 241441 | 253915
18 | 56:25.41 | 4:07.57 | 253916 | 272497


Track 1

Filename D:\#cdr\#wav+flac\#Add\The Sweet Inspirations - Let It Be Me (The Atlantic Recordings 1967-1970)\cd 3\01. The Sweet Inspirations - I've Been Inspired To Love You.wav

Pre-gap length 0:00:02.00

Peak level 84.0 %
Extraction speed 4.0 X
Track quality 100.0 %
Test CRC 0B5E3E52
Copy CRC 0B5E3E52
Track not present in AccurateRip database
Copy OK

Track 2

Filename D:\#cdr\#wav+flac\#Add\The Sweet Inspirations - Let It Be Me (The Atlantic Recordings 1967-1970)\cd 3\02. The Sweet Inspirations - Ain't Nothing Gonna Change Me.wav

Pre-gap length 0:00:01.69

Peak level 95.4 %
Extraction speed 4.6 X
Track quality 100.0 %
Test CRC 2008398A
Copy CRC 2008398A
Track not present in AccurateRip database
Copy OK

Track 3

Filename D:\#cdr\#wav+flac\#Add\The Sweet Inspirations - Let It Be Me (The Atlantic Recordings 1967-1970)\cd 3\03. The Sweet Inspirations - This World.wav

Pre-gap length 0:00:01.58

Peak level 93.9 %
Extraction speed 3.8 X
Track quality 99.9 %
Test CRC CF3DE237
Copy CRC CF3DE237
Track not present in AccurateRip database
Copy OK

Track 4

Filename D:\#cdr\#wav+flac\#Add\The Sweet Inspirations - Let It Be Me (The Atlantic Recordings 1967-1970)\cd 3\04. The Sweet Inspirations - Light Sings.wav

Pre-gap length 0:00:01.88

Peak level 75.6 %
Extraction speed 5.2 X
Track quality 100.0 %
Test CRC 960BBE3A
Copy CRC 960BBE3A
Track not present in AccurateRip database
Copy OK

Track 5

Filename D:\#cdr\#wav+flac\#Add\The Sweet Inspirations - Let It Be Me (The Atlantic Recordings 1967-1970)\cd 3\05. The Sweet Inspirations - Little Green Apples - Think - Something.wav

Pre-gap length 0:00:01.33

Peak level 81.9 %
Extraction speed 6.1 X
Track quality 100.0 %
Test CRC 1E9F68CA
Copy CRC 1E9F68CA
Track not present in AccurateRip database
Copy OK

Track 6

Filename D:\#cdr\#wav+flac\#Add\The Sweet Inspirations - Let It Be Me (The Atlantic Recordings 1967-1970)\cd 3\06. The Sweet Inspirations - Make It Easy On Yourself.wav

Pre-gap length 0:00:01.13

Peak level 95.4 %
Extraction speed 6.0 X
Track quality 100.0 %
Test CRC 39BFE74F
Copy CRC 39BFE74F
Track not present in AccurateRip database
Copy OK

Track 7

Filename D:\#cdr\#wav+flac\#Add\The Sweet Inspirations - Let It Be Me (The Atlantic Recordings 1967-1970)\cd 3\07. The Sweet Inspirations - Change Me Not.wav

Pre-gap length 0:00:01.69

Peak level 95.5 %
Extraction speed 5.9 X
Track quality 100.0 %
Test CRC 0975920F
Copy CRC 0975920F
Track not present in AccurateRip database
Copy OK

Track 8

Filename D:\#cdr\#wav+flac\#Add\The Sweet Inspirations - Let It Be Me (The Atlantic Recordings 1967-1970)\cd 3\08. The Sweet Inspirations - Evidence.wav

Pre-gap length 0:00:01.01

Peak level 95.4 %
Extraction speed 5.9 X
Track quality 100.0 %
Test CRC DE5FA731
Copy CRC DE5FA731
Track not present in AccurateRip database
Copy OK

Track 9

Filename D:\#cdr\#wav+flac\#Add\The Sweet Inspirations - Let It Be Me (The Atlantic Recordings 1967-1970)\cd 3\09. Cissy Drinkard & The Sweet Inspirations - Pilgrims Of Sorrow.wav

Pre-gap length 0:00:01.09

Peak level 93.0 %
Extraction speed 6.6 X
Track quality 100.0 %
Test CRC 81A25C86
Copy CRC 81A25C86
Track not present in AccurateRip database
Copy OK

Track 10

Filename D:\#cdr\#wav+flac\#Add\The Sweet Inspirations - Let It Be Me (The Atlantic Recordings 1967-1970)\cd 3\10. Cissy Drinkard & The Sweet Inspirations - Down By The Riverside.wav

Pre-gap length 0:00:01.97

Peak level 85.7 %
Extraction speed 6.5 X
Track quality 100.0 %
Test CRC CAE00827
Copy CRC CAE00827
Track not present in AccurateRip database
Copy OK

Track 11

Filename D:\#cdr\#wav+flac\#Add\The Sweet Inspirations - Let It Be Me (The Atlantic Recordings 1967-1970)\cd 3\11. Cissy Drinkard & The Sweet Inspirations - The 23rd Psalm.wav

Pre-gap length 0:00:01.28

Peak level 93.8 %
Extraction speed 7.4 X
Track quality 100.0 %
Test CRC 6A7367DA
Copy CRC 6A7367DA
Track not present in AccurateRip database
Copy OK

Track 12

Filename D:\#cdr\#wav+flac\#Add\The Sweet Inspirations - Let It Be Me (The Atlantic Recordings 1967-1970)\cd 3\12. Cissy Drinkard & The Sweet Inspirations - Without A Doubt.wav

Pre-gap length 0:00:02.09

Peak level 95.4 %
Extraction speed 7.1 X
Track quality 100.0 %
Test CRC A24AED40
Copy CRC A24AED40
Track not present in AccurateRip database
Copy OK

Track 13

Filename D:\#cdr\#wav+flac\#Add\The Sweet Inspirations - Let It Be Me (The Atlantic Recordings 1967-1970)\cd 3\13. Cissy Drinkard & The Sweet Inspirations - He'll Fight.wav

Pre-gap length 0:00:02.04

Peak level 95.5 %
Extraction speed 6.8 X
Track quality 99.9 %
Test CRC 60F6E037
Copy CRC 60F6E037
Track not present in AccurateRip database
Copy OK

Track 14

Filename D:\#cdr\#wav+flac\#Add\The Sweet Inspirations - Let It Be Me (The Atlantic Recordings 1967-1970)\cd 3\14. Cissy Drinkard & The Sweet Inspirations - Swing Low.wav

Pre-gap length 0:00:01.17

Peak level 95.5 %
Extraction speed 7.8 X
Track quality 100.0 %
Test CRC 121C5620
Copy CRC 121C5620
Track not present in AccurateRip database
Copy OK

Track 15

Filename D:\#cdr\#wav+flac\#Add\The Sweet Inspirations - Let It Be Me (The Atlantic Recordings 1967-1970)\cd 3\15. Cissy Drinkard & The Sweet Inspirations - I Shall Know Him.wav

Pre-gap length 0:00:01.90

Peak level 95.4 %
Extraction speed 6.3 X
Track quality 99.9 %
Test CRC 1AA26C8B
Copy CRC 1AA26C8B
Track not present in AccurateRip database
Copy OK

Track 16

Filename D:\#cdr\#wav+flac\#Add\The Sweet Inspirations - Let It Be Me (The Atlantic Recordings 1967-1970)\cd 3\16. Cissy Drinkard & The Sweet Inspirations - What A Friend.wav

Pre-gap length 0:00:02.17

Peak level 95.5 %
Extraction speed 6.8 X
Track quality 99.9 %
Test CRC FA554389
Copy CRC FA554389
Track not present in AccurateRip database
Copy OK

Track 17

Filename D:\#cdr\#wav+flac\#Add\The Sweet Inspirations - Let It Be Me (The Atlantic Recordings 1967-1970)\cd 3\17. Cissy Drinkard & The Sweet Inspirations - Looking On The Bright Side.wav

Pre-gap length 0:00:01.81

Peak level 88.9 %
Extraction speed 6.1 X
Track quality 99.9 %
Test CRC 1CD3B49E
Copy CRC 1CD3B49E
Track not present in AccurateRip database
Copy OK

Track 18

Filename D:\#cdr\#wav+flac\#Add\The Sweet Inspirations - Let It Be Me (The Atlantic Recordings 1967-1970)\cd 3\18. Cissy Drinkard & The Sweet Inspirations - Guide Me.wav

Pre-gap length 0:00:01.54

Peak level 93.7 %
Extraction speed 8.7 X
Track quality 100.0 %
Test CRC 2F4ECF2D
Copy CRC 2F4ECF2D
Track not present in AccurateRip database
Copy OK


None of the tracks are present in the AccurateRip database

No errors occurred

End of status report

–– CUETools DB Plugin V2.1.6

[CTDB TOCID: 1FFaoSXI90bd67.KC2tovMhx8jg-] found
Submit result: 1FFaoSXI90bd67.KC2tovMhx8jg- has been confirmed
Track | CTDB Status
1 | (1/1) Accurately ripped
2 | (1/1) Accurately ripped
3 | (1/1) Accurately ripped
4 | (1/1) Accurately ripped
5 | (1/1) Accurately ripped
6 | (1/1) Accurately ripped
7 | (1/1) Accurately ripped
8 | (1/1) Accurately ripped
9 | (1/1) Accurately ripped
10 | (1/1) Accurately ripped
11 | (1/1) Accurately ripped
12 | (1/1) Accurately ripped
13 | (1/1) Accurately ripped
14 | (1/1) Accurately ripped
15 | (1/1) Accurately ripped
16 | (1/1) Accurately ripped
17 | (1/1) Accurately ripped
18 | (1/1) Accurately ripped


==== Log checksum 41E4AB4D25A19210A4B50A3C9FFB72B4C4445BA02C905BA5EC107F4EE51857F9 ====

––––––––––––––––––––––––––––––

Exact Audio Copy V1.3 from 2. September 2016

EAC extraction logfile from 21. October 2021, 15:59

The Sweet Inspirations / Let It Be Me (The Atlantic Recordings 1967-1970)

Used drive : HL-DT-STBD-RE BH16NS55 Adapter: 1 ID: 0

Read mode : Secure
Utilize accurate stream : Yes
Defeat audio cache : Yes
Make use of C2 pointers : No

Read offset correction : 6
Overread into Lead-In and Lead-Out : No
Fill up missing offset samples with silence : Yes
Delete leading and trailing silent blocks : No
Null samples used in CRC calculations : Yes
Used interface : Native Win32 interface for Win NT & 2000
Gap handling : Appended to previous track

Used output format : User Defined Encoder
Selected bitrate : 1024 kBit/s
Quality : High
Add ID3 tag : No
Command line compressor : C:\Program Files (x86)\Exact Audio Copy\Flac\flac.exe
Additional command line options : -8 -V -T "ARTIST=%artist%" -T "TITLE=%title%" -T "ALBUM=%albumtitle%" -T "DATE=%year%" -T "TRACKNUMBER=%tracknr%" -T "GENRE=%genre%" -T "PERFORMER=%albuminterpret%" -T "COMPOSER=%composer%" %haslyrics%–tag-from-file=LYRICS="%lyricsfile%"%haslyrics% -T "ALBUMARTIST=%albumartist%" -T "DISCNUMBER=%cdnumber%" -T "TOTALDISCS=%totalcds%" -T "TOTALTRACKS=%numtracks%" -T "COMMENT=%comment%" %source% -o %dest%


TOC of the extracted CD

Track | Start | Length | Start sector | End sector
––––––––––––––––––––––––––––-
1 | 0:00.00 | 2:35.55 | 0 | 11679
2 | 2:35.55 | 3:31.67 | 11680 | 27571
3 | 6:07.47 | 2:59.45 | 27572 | 41041
4 | 9:07.17 | 3:05.62 | 41042 | 54978
5 | 12:13.04 | 6:03.22 | 54979 | 82225
6 | 18:16.26 | 3:34.47 | 82226 | 98322
7 | 21:50.73 | 2:23.66 | 98323 | 109113
8 | 24:14.64 | 2:08.06 | 109114 | 118719
9 | 26:22.70 | 3:12.08 | 118720 | 133127
10 | 29:35.03 | 2:20.35 | 133128 | 143662
11 | 31:55.38 | 4:13.26 | 143663 | 162663
12 | 36:08.64 | 2:33.43 | 162664 | 174181
13 | 38:42.32 | 4:51.11 | 174182 | 196017
14 | 43:33.43 | 3:05.27 | 196018 | 209919
15 | 46:38.70 | 3:05.68 | 209920 | 223862
16 | 49:44.63 | 3:54.28 | 223863 | 241440
17 | 53:39.16 | 2:46.25 | 241441 | 253915
18 | 56:25.41 | 4:07.57 | 253916 | 272497


Track 1

Filename D:\#cdr\#wav+flac\#Add\The Sweet Inspirations - Let It Be Me (The Atlantic Recordings 1967-1970)\cd 3\01. The Sweet Inspirations - I've Been Inspired To Love You.wav

Pre-gap length 0:00:02.00

Peak level 84.0 %
Extraction speed 4.0 X
Track quality 100.0 %
Test CRC 0B5E3E52
Copy CRC 0B5E3E52
Track not present in AccurateRip database
Copy OK

Track 2

Filename D:\#cdr\#wav+flac\#Add\The Sweet Inspirations - Let It Be Me (The Atlantic Recordings 1967-1970)\cd 3\02. The Sweet Inspirations - Ain't Nothing Gonna Change Me.wav

Pre-gap length 0:00:01.69

Peak level 95.4 %
Extraction speed 4.6 X
Track quality 100.0 %
Test CRC 2008398A
Copy CRC 2008398A
Track not present in AccurateRip database
Copy OK

Track 3

Filename D:\#cdr\#wav+flac\#Add\The Sweet Inspirations - Let It Be Me (The Atlantic Recordings 1967-1970)\cd 3\03. The Sweet Inspirations - This World.wav

Pre-gap length 0:00:01.58

Peak level 93.9 %
Extraction speed 3.8 X
Track quality 99.9 %
Test CRC CF3DE237
Copy CRC CF3DE237
Track not present in AccurateRip database
Copy OK

Track 4

Filename D:\#cdr\#wav+flac\#Add\The Sweet Inspirations - Let It Be Me (The Atlantic Recordings 1967-1970)\cd 3\04. The Sweet Inspirations - Light Sings.wav

Pre-gap length 0:00:01.88

Peak level 75.6 %
Extraction speed 5.2 X
Track quality 100.0 %
Test CRC 960BBE3A
Copy CRC 960BBE3A
Track not present in AccurateRip database
Copy OK

Track 5

Filename D:\#cdr\#wav+flac\#Add\The Sweet Inspirations - Let It Be Me (The Atlantic Recordings 1967-1970)\cd 3\05. The Sweet Inspirations - Little Green Apples - Think - Something.wav

Pre-gap length 0:00:01.33

Peak level 81.9 %
Extraction speed 6.1 X
Track quality 100.0 %
Test CRC 1E9F68CA
Copy CRC 1E9F68CA
Track not present in AccurateRip database
Copy OK

Track 6

Filename D:\#cdr\#wav+flac\#Add\The Sweet Inspirations - Let It Be Me (The Atlantic Recordings 1967-1970)\cd 3\06. The Sweet Inspirations - Make It Easy On Yourself.wav

Pre-gap length 0:00:01.13

Peak level 95.4 %
Extraction speed 6.0 X
Track quality 100.0 %
Test CRC 39BFE74F
Copy CRC 39BFE74F
Track not present in AccurateRip database
Copy OK

Track 7

Filename D:\#cdr\#wav+flac\#Add\The Sweet Inspirations - Let It Be Me (The Atlantic Recordings 1967-1970)\cd 3\07. The Sweet Inspirations - Change Me Not.wav

Pre-gap length 0:00:01.69

Peak level 95.5 %
Extraction speed 5.9 X
Track quality 100.0 %
Test CRC 0975920F
Copy CRC 0975920F
Track not present in AccurateRip database
Copy OK

Track 8

Filename D:\#cdr\#wav+flac\#Add\The Sweet Inspirations - Let It Be Me (The Atlantic Recordings 1967-1970)\cd 3\08. The Sweet Inspirations - Evidence.wav

Pre-gap length 0:00:01.01

Peak level 95.4 %
Extraction speed 5.9 X
Track quality 100.0 %
Test CRC DE5FA731
Copy CRC DE5FA731
Track not present in AccurateRip database
Copy OK

Track 9

Filename D:\#cdr\#wav+flac\#Add\The Sweet Inspirations - Let It Be Me (The Atlantic Recordings 1967-1970)\cd 3\09. Cissy Drinkard & The Sweet Inspirations - Pilgrims Of Sorrow.wav

Pre-gap length 0:00:01.09

Peak level 93.0 %
Extraction speed 6.6 X
Track quality 100.0 %
Test CRC 81A25C86
Copy CRC 81A25C86
Track not present in AccurateRip database
Copy OK

Track 10

Filename D:\#cdr\#wav+flac\#Add\The Sweet Inspirations - Let It Be Me (The Atlantic Recordings 1967-1970)\cd 3\10. Cissy Drinkard & The Sweet Inspirations - Down By The Riverside.wav

Pre-gap length 0:00:01.97

Peak level 85.7 %
Extraction speed 6.5 X
Track quality 100.0 %
Test CRC CAE00827
Copy CRC CAE00827
Track not present in AccurateRip database
Copy OK

Track 11

Filename D:\#cdr\#wav+flac\#Add\The Sweet Inspirations - Let It Be Me (The Atlantic Recordings 1967-1970)\cd 3\11. Cissy Drinkard & The Sweet Inspirations - The 23rd Psalm.wav

Pre-gap length 0:00:01.28

Peak level 93.8 %
Extraction speed 7.4 X
Track quality 100.0 %
Test CRC 6A7367DA
Copy CRC 6A7367DA
Track not present in AccurateRip database
Copy OK

Track 12

Filename D:\#cdr\#wav+flac\#Add\The Sweet Inspirations - Let It Be Me (The Atlantic Recordings 1967-1970)\cd 3\12. Cissy Drinkard & The Sweet Inspirations - Without A Doubt.wav

Pre-gap length 0:00:02.09

Peak level 95.4 %
Extraction speed 7.1 X
Track quality 100.0 %
Test CRC A24AED40
Copy CRC A24AED40
Track not present in AccurateRip database
Copy OK

Track 13

Filename D:\#cdr\#wav+flac\#Add\The Sweet Inspirations - Let It Be Me (The Atlantic Recordings 1967-1970)\cd 3\13. Cissy Drinkard & The Sweet Inspirations - He'll Fight.wav

Pre-gap length 0:00:02.04

Peak level 95.5 %
Extraction speed 6.8 X
Track quality 99.9 %
Test CRC 60F6E037
Copy CRC 60F6E037
Track not present in AccurateRip database
Copy OK

Track 14

Filename D:\#cdr\#wav+flac\#Add\The Sweet Inspirations - Let It Be Me (The Atlantic Recordings 1967-1970)\cd 3\14. Cissy Drinkard & The Sweet Inspirations - Swing Low.wav

Pre-gap length 0:00:01.17

Peak level 95.5 %
Extraction speed 7.8 X
Track quality 100.0 %
Test CRC 121C5620
Copy CRC 121C5620
Track not present in AccurateRip database
Copy OK

Track 15

Filename D:\#cdr\#wav+flac\#Add\The Sweet Inspirations - Let It Be Me (The Atlantic Recordings 1967-1970)\cd 3\15. Cissy Drinkard & The Sweet Inspirations - I Shall Know Him.wav

Pre-gap length 0:00:01.90

Peak level 95.4 %
Extraction speed 6.3 X
Track quality 99.9 %
Test CRC 1AA26C8B
Copy CRC 1AA26C8B
Track not present in AccurateRip database
Copy OK

Track 16

Filename D:\#cdr\#wav+flac\#Add\The Sweet Inspirations - Let It Be Me (The Atlantic Recordings 1967-1970)\cd 3\16. Cissy Drinkard & The Sweet Inspirations - What A Friend.wav

Pre-gap length 0:00:02.17

Peak level 95.5 %
Extraction speed 6.8 X
Track quality 99.9 %
Test CRC FA554389
Copy CRC FA554389
Track not present in AccurateRip database
Copy OK

Track 17

Filename D:\#cdr\#wav+flac\#Add\The Sweet Inspirations - Let It Be Me (The Atlantic Recordings 1967-1970)\cd 3\17. Cissy Drinkard & The Sweet Inspirations - Looking On The Bright Side.wav

Pre-gap length 0:00:01.81

Peak level 88.9 %
Extraction speed 6.1 X
Track quality 99.9 %
Test CRC 1CD3B49E
Copy CRC 1CD3B49E
Track not present in AccurateRip database
Copy OK

Track 18

Filename D:\#cdr\#wav+flac\#Add\The Sweet Inspirations - Let It Be Me (The Atlantic Recordings 1967-1970)\cd 3\18. Cissy Drinkard & The Sweet Inspirations - Guide Me.wav

Pre-gap length 0:00:01.54

Peak level 93.7 %
Extraction speed 8.7 X
Track quality 100.0 %
Test CRC 2F4ECF2D
Copy CRC 2F4ECF2D
Track not present in AccurateRip database
Copy OK


None of the tracks are present in the AccurateRip database

No errors occurred

End of status report

–– CUETools DB Plugin V2.1.6

[CTDB TOCID: 1FFaoSXI90bd67.KC2tovMhx8jg-] found
Submit result: 1FFaoSXI90bd67.KC2tovMhx8jg- has been confirmed
Track | CTDB Status
1 | (1/1) Accurately ripped
2 | (1/1) Accurately ripped
3 | (1/1) Accurately ripped
4 | (1/1) Accurately ripped
5 | (1/1) Accurately ripped
6 | (1/1) Accurately ripped
7 | (1/1) Accurately ripped
8 | (1/1) Accurately ripped
9 | (1/1) Accurately ripped
10 | (1/1) Accurately ripped
11 | (1/1) Accurately ripped
12 | (1/1) Accurately ripped
13 | (1/1) Accurately ripped
14 | (1/1) Accurately ripped
15 | (1/1) Accurately ripped
16 | (1/1) Accurately ripped
17 | (1/1) Accurately ripped
18 | (1/1) Accurately ripped


==== Log checksum 41E4AB4D25A19210A4B50A3C9FFB72B4C4445BA02C905BA5EC107F4EE51857F9 ====