Tags
Language
Tags

The Sweet: The Polydor Albums (2017) [4CD Box Set]

Posted By: v3122
The Sweet: The Polydor Albums (2017) [4CD Box Set]

Sweet: The Polydor Albums (2017)
EAC | Flac(Image) + Cue + Log & MP3 CBR 320Kbps
Caroline Records, CAROLRO76CD | ~ 1352 or 541 Mb | Scans(png) -> 376 Mb
Glam Rock / Pop Rock

~ Includes the following albums: 'Level Headed' (1978), 'Cut Above the Rest' (1979), 'Waters Edge' (1980) and 'Identity Crisis' (1982). ~

The Sweet: The Polydor Albums (2017) [4CD Box Set]

The Sweet: The Polydor Albums (2017):

The Sweet: The Polydor Albums (2017) [4CD Box Set]

Tracklist CD1 - 1977 Level Headed:

01 Dream On
02 Love Is Like Oxygen
03 California Nights
04 Strong Love
05 Fountain
06 Anthem No. 1 (Lady Of the Lake)
07 Silverbird
08 Lettres D'amour
09 Anthem No. 2
10 Air On 'A' Tape Loop
Bonus Tracks
11 Love Is Like Oxygen (7'' Version)
12 Cover Girl
13 California Nights (7'' Version)
14 Show Me The Way

Exact Audio Copy V1.3 from 2. September 2016

EAC extraction logfile from 5. March 2018, 20:05

The Sweet / Level Headed

Used drive : PLEXTOR BD-R PX-B950SA Adapter: 1 ID: 1

Read mode : Secure
Utilize accurate stream : Yes
Defeat audio cache : Yes
Make use of C2 pointers : No

Read offset correction : 6
Overread into Lead-In and Lead-Out : No
Fill up missing offset samples with silence : Yes
Delete leading and trailing silent blocks : No
Null samples used in CRC calculations : Yes
Used interface : Native Win32 interface for Win NT & 2000

Used output format : Internal WAV Routines
Sample format : 44.100 Hz; 16 Bit; Stereo


TOC of the extracted CD

Track | Start | Length | Start sector | End sector
––––––––––––––––––––––––––––-
1 | 0:00.00 | 2:49.65 | 0 | 12739
2 | 2:49.65 | 6:50.66 | 12740 | 43555
3 | 9:40.56 | 3:42.06 | 43556 | 60211
4 | 13:22.62 | 3:25.27 | 60212 | 75613
5 | 16:48.14 | 4:42.54 | 75614 | 96817
6 | 21:30.68 | 4:08.09 | 96818 | 115426
7 | 25:39.02 | 3:24.19 | 115427 | 130745
8 | 29:03.21 | 3:27.56 | 130746 | 146326
9 | 32:31.02 | 1:02.19 | 146327 | 150995
10 | 33:33.21 | 5:55.63 | 150996 | 177683
11 | 39:29.09 | 3:46.07 | 177684 | 194640
12 | 43:15.16 | 3:33.27 | 194641 | 210642
13 | 46:48.43 | 3:20.30 | 210643 | 225672
14 | 50:08.73 | 3:43.73 | 225673 | 242470


Range status and errors

Selected range

Filename C:\Users\Alex\Desktop\ALLexxess\Sweet\2017 The Polydor Albums (4CD Box Set Capitol Records)\1977 Level Headed\The Sweet - Level Headed.wav

Peak level 99.0 %
Extraction speed 7.2 X
Range quality 100.0 %
Test CRC E1453E8C
Copy CRC E1453E8C
Copy OK

No errors occurred


AccurateRip summary

Track 1 accurately ripped (confidence 1) [C84E151E] (AR v2)
Track 2 accurately ripped (confidence 1) [ECC43E4A] (AR v2)
Track 3 accurately ripped (confidence 1) [EDCFB831] (AR v2)
Track 4 accurately ripped (confidence 1) [9BC55C8B] (AR v2)
Track 5 accurately ripped (confidence 1) [22647FDE] (AR v2)
Track 6 accurately ripped (confidence 1) [8158A998] (AR v2)
Track 7 accurately ripped (confidence 1) [B0D67A8B] (AR v2)
Track 8 accurately ripped (confidence 1) [4F892B4C] (AR v2)
Track 9 accurately ripped (confidence 1) [A348DD91] (AR v2)
Track 10 accurately ripped (confidence 1) [E5BC5A2E] (AR v2)
Track 11 accurately ripped (confidence 1) [9BFDEFBA] (AR v2)
Track 12 accurately ripped (confidence 1) [AECD5B3D] (AR v2)
Track 13 accurately ripped (confidence 1) [35883385] (AR v2)
Track 14 accurately ripped (confidence 1) [301C166F] (AR v2)

All tracks accurately ripped

End of status report

–– CUETools DB Plugin V2.1.6

[CTDB TOCID: bStkTZh0FoOMBZNxH4HklT6hE2I-] found
Submit result: bStkTZh0FoOMBZNxH4HklT6hE2I- has been confirmed
Track | CTDB Status
1 | (3/3) Accurately ripped
2 | (3/3) Accurately ripped
3 | (3/3) Accurately ripped
4 | (3/3) Accurately ripped
5 | (3/3) Accurately ripped
6 | (3/3) Accurately ripped
7 | (3/3) Accurately ripped
8 | (3/3) Accurately ripped
9 | (3/3) Accurately ripped
10 | (3/3) Accurately ripped
11 | (3/3) Accurately ripped
12 | (3/3) Accurately ripped
13 | (3/3) Accurately ripped
14 | (3/3) Accurately ripped


==== Log checksum 390C498A889AB7348C0E551F16CD562E4A31DE6402D6FC53EAA55626A7CD8312 ====


[CUETools log; Date: 08.03.2018 16:46:21; Version: 2.1.5]
[CTDB TOCID: bStkTZh0FoOMBZNxH4HklT6hE2I-] found.
Track | CTDB Status
1 | (5/5) Accurately ripped
2 | (5/5) Accurately ripped
3 | (5/5) Accurately ripped
4 | (5/5) Accurately ripped
5 | (5/5) Accurately ripped
6 | (5/5) Accurately ripped
7 | (5/5) Accurately ripped
8 | (5/5) Accurately ripped
9 | (5/5) Accurately ripped
10 | (5/5) Accurately ripped
11 | (5/5) Accurately ripped
12 | (5/5) Accurately ripped
13 | (5/5) Accurately ripped
14 | (5/5) Accurately ripped
[AccurateRip ID: 001cbd9c-012f1189-9f0ca00e] found.
Track [ CRC | V2 ] Status
01 [9850d651|c84e151e] (0+1/1) Accurately ripped
02 [d29178f5|ecc43e4a] (0+1/1) Accurately ripped
03 [d31091f5|edcfb831] (0+1/1) Accurately ripped
04 [77344a81|9bc55c8b] (0+1/1) Accurately ripped
05 [46971463|22647fde] (0+1/1) Accurately ripped
06 [271983fe|8158a998] (0+1/1) Accurately ripped
07 [b87eea3e|b0d67a8b] (0+1/1) Accurately ripped
08 [414b05c7|4f892b4c] (0+1/1) Accurately ripped
09 [b30348f7|a348dd91] (0+1/1) Accurately ripped
10 [5d39e31e|e5bc5a2e] (0+1/1) Accurately ripped
11 [a090384a|9bfdefba] (0+1/1) Accurately ripped
12 [6e3d8d81|aecd5b3d] (0+1/1) Accurately ripped
13 [e0b2a8e9|35883385] (0+1/1) Accurately ripped
14 [c5a958da|301c166f] (0+1/1) Accurately ripped

Track Peak [ CRC32 ] [W/O NULL] [ LOG ]
– 99,0 [E1453E8C] [A7DED30A] CRC32
01 98,8 [9CE7E6C9] [6A0CF230]
02 98,9 [D877C1A0] [AAFB41EC]
03 99,0 [DCFDBCDD] [5DA49C17]
04 98,9 [9BBEF37C] [7077D5C5]
05 98,9 [9C549F7A] [AB578290]
06 99,0 [0416E1EE] [4BBE693D]
07 98,9 [D975B537] [8317D831]
08 98,8 [6B150E3C] [0B46783F]
09 98,8 [68C671C0] [1CB92439]
10 98,9 [6B36AF02] [D1AD651D]
11 98,8 [DF5B8FC0] [62410C00]
12 98,9 [D9B23478] [ADB22651]
13 98,9 [2F3F37B8] [36BB3AD1]
14 98,9 [4E303B92] [7FB64739]


The Sweet: The Polydor Albums (2017) [4CD Box Set]

Tracklist CD2 - 1979 Cut Above The Rest:

01 Call Me
02 Play All Night
03 Big Apple Waltz
04 Dorian Gray
05 Discophony (Dis-Kof-O-Ne)
06 Eye Games
07 Mother Earth
08 Hold Me
09 Stay With Me
Bonus Tracks
10 Call Me (7'' Version)
11 Why Don't You
12 Mother Earth (U.S.A. Edit Version)
13 Discophony (Dis-Kof-O-Ne) (U.S.A. Edit Version)

Exact Audio Copy V1.3 from 2. September 2016

EAC extraction logfile from 4. March 2018, 8:24

The Sweet / Cut Above The Rest

Used drive : PLEXTOR BD-R PX-B950SA Adapter: 1 ID: 1

Read mode : Secure
Utilize accurate stream : Yes
Defeat audio cache : Yes
Make use of C2 pointers : No

Read offset correction : 6
Overread into Lead-In and Lead-Out : No
Fill up missing offset samples with silence : Yes
Delete leading and trailing silent blocks : No
Null samples used in CRC calculations : Yes
Used interface : Native Win32 interface for Win NT & 2000

Used output format : Internal WAV Routines
Sample format : 44.100 Hz; 16 Bit; Stereo


TOC of the extracted CD

Track | Start | Length | Start sector | End sector
––––––––––––––––––––––––––––-
1 | 0:00.00 | 3:41.73 | 0 | 16647
2 | 3:41.73 | 3:15.38 | 16648 | 31310
3 | 6:57.36 | 4:03.39 | 31311 | 49574
4 | 11:01.00 | 4:44.48 | 49575 | 70922
5 | 15:45.48 | 5:25.65 | 70923 | 95362
6 | 21:11.38 | 1:58.07 | 95363 | 104219
7 | 23:09.45 | 6:31.41 | 104220 | 133585
8 | 29:41.11 | 6:05.71 | 133586 | 161031
9 | 35:47.07 | 5:06.67 | 161032 | 184048
10 | 40:53.74 | 2:54.25 | 184049 | 197123
11 | 43:48.24 | 3:25.70 | 197124 | 212568
12 | 47:14.19 | 3:59.15 | 212569 | 230508
13 | 51:13.34 | 3:58.53 | 230509 | 248411


Range status and errors

Selected range

Filename C:\Users\Alex\Desktop\ALLexxess\Sweet\2017 The Polydor Albums (4CD Box Set Capitol Records)\1979 Cut Above The Rest\The Sweet - Cut Above The Rest.wav

Peak level 97.7 %
Extraction speed 4.5 X
Range quality 99.9 %
Test CRC C2927104
Copy CRC C2927104
Copy OK

No errors occurred


AccurateRip summary

Track 1 accurately ripped (confidence 1) [85A37C4B] (AR v2)
Track 2 accurately ripped (confidence 1) [F82C28C3] (AR v2)
Track 3 accurately ripped (confidence 1) [85DAAFBF] (AR v2)
Track 4 accurately ripped (confidence 1) [1708E970] (AR v2)
Track 5 accurately ripped (confidence 1) [5CCC7EAB] (AR v2)
Track 6 accurately ripped (confidence 1) [A897E261] (AR v2)
Track 7 accurately ripped (confidence 1) [F687B2BB] (AR v2)
Track 8 accurately ripped (confidence 1) [626C9F81] (AR v2)
Track 9 accurately ripped (confidence 1) [6F62A13C] (AR v2)
Track 10 accurately ripped (confidence 1) [B47824D4] (AR v2)
Track 11 accurately ripped (confidence 1) [831BC2BB] (AR v2)
Track 12 accurately ripped (confidence 1) [171356EE] (AR v2)
Track 13 accurately ripped (confidence 1) [32D2AD0D] (AR v2)

All tracks accurately ripped

End of status report

–– CUETools DB Plugin V2.1.6

[CTDB TOCID: qCFeHdJk.OBwxUWPdpAcNtTYCTc-] found
Submit result: qCFeHdJk.OBwxUWPdpAcNtTYCTc- has been confirmed
Track | CTDB Status
1 | (3/3) Accurately ripped
2 | (3/3) Accurately ripped
3 | (3/3) Accurately ripped
4 | (3/3) Accurately ripped
5 | (3/3) Accurately ripped
6 | (3/3) Accurately ripped
7 | (3/3) Accurately ripped
8 | (3/3) Accurately ripped
9 | (3/3) Accurately ripped
10 | (3/3) Accurately ripped
11 | (3/3) Accurately ripped
12 | (3/3) Accurately ripped
13 | (3/3) Accurately ripped


==== Log checksum DA32AC45A71C211FC321ACE7200A73BE69CF3A5C3A3D2F08DCDC72F85CCB327E ====


[CUETools log; Date: 08.03.2018 16:46:53; Version: 2.1.5]
[CTDB TOCID: qCFeHdJk.OBwxUWPdpAcNtTYCTc-] found.
Track | CTDB Status
1 | (5/5) Accurately ripped
2 | (5/5) Accurately ripped
3 | (5/5) Accurately ripped
4 | (5/5) Accurately ripped
5 | (5/5) Accurately ripped
6 | (5/5) Accurately ripped
7 | (5/5) Accurately ripped
8 | (5/5) Accurately ripped
9 | (5/5) Accurately ripped
10 | (5/5) Accurately ripped
11 | (5/5) Accurately ripped
12 | (5/5) Accurately ripped
13 | (5/5) Accurately ripped
[AccurateRip ID: 001a7a99-010b8bd2-b50cf00d] found.
Track [ CRC | V2 ] Status
01 [d6118567|85a37c4b] (0+1/1) Accurately ripped
02 [cfd89d81|f82c28c3] (0+1/1) Accurately ripped
03 [7d23efaf|85daafbf] (0+1/1) Accurately ripped
04 [ae77d2e2|1708e970] (0+1/1) Accurately ripped
05 [9db95945|5ccc7eab] (0+1/1) Accurately ripped
06 [11d4ab0d|a897e261] (0+1/1) Accurately ripped
07 [12b571e1|f687b2bb] (0+1/1) Accurately ripped
08 [aa05fed8|626c9f81] (0+1/1) Accurately ripped
09 [46cb16c0|6f62a13c] (0+1/1) Accurately ripped
10 [7e043bfa|b47824d4] (0+1/1) Accurately ripped
11 [593c1648|831bc2bb] (0+1/1) Accurately ripped
12 [fc13a482|171356ee] (0+1/1) Accurately ripped
13 [ff89f215|32d2ad0d] (0+1/1) Accurately ripped

Track Peak [ CRC32 ] [W/O NULL] [ LOG ]
– 97,7 [C2927104] [C22F13A9] CRC32
01 97,7 [8A492A6D] [B98C1F03]
02 97,7 [FCE01EF0] [A8BCB59C]
03 97,7 [B6436005] [ACD5FA48]
04 97,7 [02759C56] [FB966326]
05 97,7 [DED0C9DC] [79259F36]
06 97,7 [F3CBFF99] [AD4BF3D7]
07 97,7 [259C4B08] [5406FECD]
08 97,7 [541CEFBE] [E0D55857]
09 97,7 [944175D5] [AAE71C36]
10 97,7 [56DED2BD] [461C814B]
11 97,7 [2B598ECB] [13884CFC]
12 97,7 [B8EEC4D9] [F614BF15]
13 97,7 [268C0DC8] [70172126]


The Sweet: The Polydor Albums (2017) [4CD Box Set]

Tracklist CD3 - 1980 Waters Edge:

01 Sixties Man
02 Getting In The Mood For Love
03 Tell The Truth
04 Own Up
05 Too Much Talking
06 Thank You For Loving Me
07 At Midnight
08 Waters Edge
09 Hot Shot Gambler
10 Give The Lady Some Respect
Bonus Tracks
11 Tall Girls
12 Give The Lady Some Respect (7'' Version)
13 Oh Yeah!
14 Sixties Man (7'' Version)

Exact Audio Copy V1.3 from 2. September 2016

EAC extraction logfile from 4. March 2018, 7:44

The Sweet / Waters Edge

Used drive : PLEXTOR BD-R PX-B950SA Adapter: 1 ID: 1

Read mode : Secure
Utilize accurate stream : Yes
Defeat audio cache : Yes
Make use of C2 pointers : No

Read offset correction : 6
Overread into Lead-In and Lead-Out : No
Fill up missing offset samples with silence : Yes
Delete leading and trailing silent blocks : No
Null samples used in CRC calculations : Yes
Used interface : Native Win32 interface for Win NT & 2000

Used output format : Internal WAV Routines
Sample format : 44.100 Hz; 16 Bit; Stereo


TOC of the extracted CD

Track | Start | Length | Start sector | End sector
––––––––––––––––––––––––––––-
1 | 0:00.00 | 4:10.13 | 0 | 18762
2 | 4:10.13 | 3:03.50 | 18763 | 32537
3 | 7:13.63 | 3:33.23 | 32538 | 48535
4 | 10:47.11 | 3:19.24 | 48536 | 63484
5 | 14:06.35 | 3:56.41 | 63485 | 81225
6 | 18:03.01 | 3:42.08 | 81226 | 97883
7 | 21:45.09 | 3:20.05 | 97884 | 112888
8 | 25:05.14 | 2:58.60 | 112889 | 126298
9 | 28:03.74 | 3:33.26 | 126299 | 142299
10 | 31:37.25 | 4:25.67 | 142300 | 162241
11 | 36:03.17 | 4:31.06 | 162242 | 182572
12 | 40:34.23 | 3:27.56 | 182573 | 198153
13 | 44:02.04 | 2:20.70 | 198154 | 208723
14 | 46:22.74 | 3:52.66 | 208724 | 226189


Range status and errors

Selected range

Filename C:\Users\Alex\Desktop\ALLexxess\Sweet\2017 The Polydor Albums (4CD Box Set Capitol Records)\1980 Waters Edge\The Sweet - Waters Edge.wav

Peak level 97.7 %
Extraction speed 6.9 X
Range quality 99.9 %
Test CRC 463BF2B8
Copy CRC 463BF2B8
Copy OK

No errors occurred


AccurateRip summary

Track 1 accurately ripped (confidence 1) [370BB726] (AR v2)
Track 2 accurately ripped (confidence 1) [B54B3CF2] (AR v2)
Track 3 accurately ripped (confidence 1) [74173A6F] (AR v2)
Track 4 accurately ripped (confidence 1) [F9AE44BA] (AR v2)
Track 5 accurately ripped (confidence 1) [8DB6E3C6] (AR v2)
Track 6 accurately ripped (confidence 1) [513E819A] (AR v2)
Track 7 accurately ripped (confidence 1) [AFE1251D] (AR v2)
Track 8 accurately ripped (confidence 1) [28AA458B] (AR v2)
Track 9 accurately ripped (confidence 1) [9B53D0ED] (AR v2)
Track 10 accurately ripped (confidence 1) [6884B2E7] (AR v2)
Track 11 accurately ripped (confidence 1) [3BA71881] (AR v2)
Track 12 accurately ripped (confidence 1) [694A36A3] (AR v2)
Track 13 accurately ripped (confidence 1) [9318352B] (AR v2)
Track 14 accurately ripped (confidence 1) [8CA1D5FA] (AR v2)

All tracks accurately ripped

End of status report

–– CUETools DB Plugin V2.1.6

[CTDB TOCID: E_OQ5xOb78gllszB9OzLEgmkhas-] found
Submit result: E_OQ5xOb78gllszB9OzLEgmkhas- has been confirmed
Track | CTDB Status
1 | (3/3) Accurately ripped
2 | (3/3) Accurately ripped
3 | (3/3) Accurately ripped
4 | (3/3) Accurately ripped
5 | (3/3) Accurately ripped
6 | (3/3) Accurately ripped
7 | (3/3) Accurately ripped
8 | (3/3) Accurately ripped
9 | (3/3) Accurately ripped
10 | (3/3) Accurately ripped
11 | (3/3) Accurately ripped
12 | (3/3) Accurately ripped
13 | (3/3) Accurately ripped
14 | (3/3) Accurately ripped


==== Log checksum 44B6A5EF973CE973BA55CC853ABFFB1B7777BB32DBFD21C2ACB8EBEF13F13B3B ====


[CUETools log; Date: 08.03.2018 16:47:22; Version: 2.1.5]
[CTDB TOCID: E_OQ5xOb78gllszB9OzLEgmkhas-] found.
Track | CTDB Status
1 | (5/5) Accurately ripped
2 | (5/5) Accurately ripped
3 | (5/5) Accurately ripped
4 | (5/5) Accurately ripped
5 | (5/5) Accurately ripped
6 | (5/5) Accurately ripped
7 | (5/5) Accurately ripped
8 | (5/5) Accurately ripped
9 | (5/5) Accurately ripped
10 | (5/5) Accurately ripped
11 | (5/5) Accurately ripped
12 | (5/5) Accurately ripped
13 | (5/5) Accurately ripped
14 | (5/5) Accurately ripped
[AccurateRip ID: 0019f7ab-0114ece7-d50bc70e] found.
Track [ CRC | V2 ] Status
01 [a335c4f2|370bb726] (0+1/1) Accurately ripped
02 [a5d9692d|b54b3cf2] (0+1/1) Accurately ripped
03 [4bedda32|74173a6f] (0+1/1) Accurately ripped
04 [ed86ed98|f9ae44ba] (0+1/1) Accurately ripped
05 [008a3349|8db6e3c6] (0+1/1) Accurately ripped
06 [38e6ffea|513e819a] (0+1/1) Accurately ripped
07 [9dced652|afe1251d] (0+1/1) Accurately ripped
08 [d9facd21|28aa458b] (0+1/1) Accurately ripped
09 [d4664aca|9b53d0ed] (0+1/1) Accurately ripped
10 [17a821c5|6884b2e7] (0+1/1) Accurately ripped
11 [6e69ae32|3ba71881] (0+1/1) Accurately ripped
12 [1ebe2b7d|694a36a3] (0+1/1) Accurately ripped
13 [948aa285|9318352b] (0+1/1) Accurately ripped
14 [0776d733|8ca1d5fa] (0+1/1) Accurately ripped

Track Peak [ CRC32 ] [W/O NULL] [ LOG ]
– 97,7 [463BF2B8] [C0EC667F] CRC32
01 97,7 [119EF7AD] [322040F6]
02 97,7 [7E5D4B79] [9B8BB0DE]
03 97,7 [F5C9C0A6] [E500E82F]
04 97,7 [8CBA716C] [CB2C6C45]
05 97,7 [A9671C2A] [01641165]
06 97,7 [6E1132CC] [E3709D1D]
07 97,7 [E8325DDE] [F34E3501]
08 97,7 [88148979] [8B4E1604]
09 97,7 [DB2EB645] [4EC9C302]
10 97,7 [385706E3] [D2E9C989]
11 97,7 [585D512D] [A1C57C11]
12 97,7 [D8B1B87E] [8A28AE8B]
13 97,7 [6F5E9731] [1FE4E519]
14 97,7 [20C79D03] [A0E29919]


The Sweet: The Polydor Albums (2017) [4CD Box Set]

Tracklist CD4 - 1982 Identity Crisis:

01 Identity Crisis
02 New Shoes
03 Two Into One
04 Love Is The Cure
05 It Makes Me Wonder
06 Hey Mama
07 Falling In Love
08 I Wish You Would
09 Strange Girl

Exact Audio Copy V1.3 from 2. September 2016

EAC extraction logfile from 4. March 2018, 7:12

The Sweet / Identity Crisis

Used drive : PLEXTOR BD-R PX-B950SA Adapter: 1 ID: 1

Read mode : Secure
Utilize accurate stream : Yes
Defeat audio cache : Yes
Make use of C2 pointers : No

Read offset correction : 6
Overread into Lead-In and Lead-Out : No
Fill up missing offset samples with silence : Yes
Delete leading and trailing silent blocks : No
Null samples used in CRC calculations : Yes
Used interface : Native Win32 interface for Win NT & 2000

Used output format : Internal WAV Routines
Sample format : 44.100 Hz; 16 Bit; Stereo


TOC of the extracted CD

Track | Start | Length | Start sector | End sector
––––––––––––––––––––––––––––-
1 | 0:00.00 | 4:08.25 | 0 | 18624
2 | 4:08.25 | 3:24.46 | 18625 | 33970
3 | 7:32.71 | 2:38.74 | 33971 | 45894
4 | 10:11.70 | 3:40.22 | 45895 | 62416
5 | 13:52.17 | 3:26.00 | 62417 | 77866
6 | 17:18.17 | 3:28.48 | 77867 | 93514
7 | 20:46.65 | 4:42.31 | 93515 | 114695
8 | 25:29.21 | 3:15.42 | 114696 | 129362
9 | 28:44.63 | 4:30.32 | 129363 | 149644


Range status and errors

Selected range

Filename C:\Users\Alex\Desktop\ALLexxess\Sweet\2017 The Polydor Albums (4CD Box Set Capitol Records)\1982 Identity Crisis\The Sweet - Identity Crisis.wav

Peak level 97.7 %
Extraction speed 2.9 X
Range quality 100.0 %
Test CRC 531BD474
Copy CRC 531BD474
Copy OK

No errors occurred


AccurateRip summary

Track 1 cannot be verified as accurate (confidence 7) [BB4359CE], AccurateRip returned [8609B0BE] (AR v2)
Track 2 cannot be verified as accurate (confidence 7) [1F9F3951], AccurateRip returned [E2EA487A] (AR v2)
Track 3 cannot be verified as accurate (confidence 7) [3C34BA7C], AccurateRip returned [E87F44DD] (AR v2)
Track 4 cannot be verified as accurate (confidence 7) [C1C05AD7], AccurateRip returned [DA7AF24A] (AR v2)
Track 5 cannot be verified as accurate (confidence 7) [13B9241E], AccurateRip returned [CE75E99A] (AR v2)
Track 6 cannot be verified as accurate (confidence 7) [EDECE8A7], AccurateRip returned [78C988B9] (AR v2)
Track 7 cannot be verified as accurate (confidence 7) [CD61B848], AccurateRip returned [E3674B24] (AR v2)
Track 8 cannot be verified as accurate (confidence 7) [00BE9EA9], AccurateRip returned [87A87DFB] (AR v2)
Track 9 cannot be verified as accurate (confidence 6) [96A8431D], AccurateRip returned [B4301F30] (AR v2)

No tracks could be verified as accurate
You may have a different pressing from the one(s) in the database

End of status report

–– CUETools DB Plugin V2.1.6

[CTDB TOCID: LA3LMyO4Akgv8i2iQTKC3u_OTF8-] found
Submit result: LA3LMyO4Akgv8i2iQTKC3u_OTF8- has been confirmed
Track | CTDB Status
1 | (3/9) Accurately ripped, or (5/9) differs in 24 samples @04:08:24-04:08:25
2 | (3/9) Accurately ripped, or (5/9) differs in 924 samples @00:00:00,03:24:45-03:24:46
3 | (3/9) Accurately ripped, or (5/9) differs in 920 samples @00:00:00,02:38:73-02:38:74
4 | (3/9) Accurately ripped, or (5/9) differs in 954 samples @00:00:00,03:40:21-03:40:22
5 | (3/9) Accurately ripped, or (5/9) differs in 956 samples @00:00:00,03:25:74-03:26:00
6 | (3/9) Accurately ripped, or (5/9) differs in 929 samples @00:00:00,03:28:47-03:28:48
7 | (3/9) Accurately ripped, or (5/9) differs in 945 samples @00:00:00,04:42:30-04:42:31
8 | (3/9) Accurately ripped, or (5/9) differs in 914 samples @00:00:00,03:15:41-03:15:42
9 | (3/9) Accurately ripped, or (5/9) differs in 905 samples @00:00:00
If you are sure that your rip contains errors, you can use CUETools to repair it.


==== Log checksum D520283B726CEEFA71207D80DC398397B5642E419A3BBFABA74C591C006A0B70 ====


[CUETools log; Date: 08.03.2018 16:47:59; Version: 2.1.5]
[CTDB TOCID: LA3LMyO4Akgv8i2iQTKC3u_OTF8-] found.
Track | CTDB Status
1 | ( 5/11) Accurately ripped, or (5/11) differs in 24 samples @04:08:24-04:08:25
2 | ( 5/11) Accurately ripped, or (5/11) differs in 924 samples @00:00:00,03:24:45-03:24:46
3 | ( 5/11) Accurately ripped, or (5/11) differs in 920 samples @00:00:00,02:38:73-02:38:74
4 | ( 5/11) Accurately ripped, or (5/11) differs in 954 samples @00:00:00,03:40:21-03:40:22
5 | ( 5/11) Accurately ripped, or (5/11) differs in 956 samples @00:00:00,03:25:74-03:26:00
6 | ( 5/11) Accurately ripped, or (5/11) differs in 929 samples @00:00:00,03:28:47-03:28:48
7 | ( 5/11) Accurately ripped, or (5/11) differs in 945 samples @00:00:00,04:42:30-04:42:31
8 | ( 5/11) Accurately ripped, or (5/11) differs in 914 samples @00:00:00,03:15:41-03:15:42
9 | ( 5/11) Accurately ripped, or (5/11) differs in 905 samples @00:00:00
[AccurateRip ID: 000b13ea-00516789-5d07cb09] found.
Track [ CRC | V2 ] Status
01 [c82dc79c|bb4359ce] (00+00/10) No match
02 [7ce1f5db|1f9f3951] (00+00/10) No match
03 [44ca59ff|3c34ba7c] (00+00/10) No match
04 [a98c9b7a|c1c05ad7] (00+00/10) No match
05 [3a66ce4d|13b9241e] (00+00/10) No match
06 [8e6685c6|edece8a7] (00+00/10) No match
07 [9c16c338|cd61b848] (00+00/10) No match
08 [2444326d|00be9ea9] (00+00/10) No match
09 [9cabaf10|96a8431d] (00+00/09) No match
Offsetted by 1225:
01 [032de02b] (00/10) No match (V2 was not tested)
02 [fa31423d] (00/10) No match (V2 was not tested)
03 [5cf1a8b7] (00/10) No match (V2 was not tested)
04 [8a2db50a] (00/10) No match (V2 was not tested)
05 [c455216a] (00/10) No match (V2 was not tested)
06 [b9050499] (00/10) No match (V2 was not tested)
07 [10d35752] (00/10) No match (V2 was not tested)
08 [548af42c] (00/10) No match (V2 was not tested)
09 [05d5c8ca] (03/09) Accurately ripped

Track Peak [ CRC32 ] [W/O NULL] [ LOG ]
– 97,7 [531BD474] [AB04B287] CRC32
01 97,7 [53543AFB] [2C91339D]
02 97,7 [C65D16C8] [EBC15B5A]
03 97,7 [5EB59782] [D9E6B056]
04 97,7 [5265F60F] [607F5CA5]
05 97,7 [D11D77B4] [EF6A8289]
06 97,7 [EFBA7046] [D093DD79]
07 97,7 [4301862E] [77D0F16E]
08 97,7 [C2ED2AA9] [D216B22F]
09 97,7 [D81E0CBB] [EC957B74]


The Sweet: The Polydor Albums (2017) [4CD Box Set]

All thanks go to ALLexxess

Sweet in my Blog

Download The Sweet: The Polydor Albums (2017):