Subcategories
Tags
Language
Tags

The Orb - Auntie Aubrey's Excursions Beyond The Call Of Duty (The Orb Remix Project) (1996)

Posted By: gribovar
The Orb - Auntie Aubrey's Excursions Beyond The Call Of Duty (The Orb Remix Project) (1996)

The Orb - Auntie Aubrey's Excursions Beyond The Call Of Duty (The Orb Remix Project) (1996)
EAC Rip | FLAC (image+.cue+log) - 1,01 GB | MP3 CBR 320 kbps (LAME 3.93) - 368 MB | Covers - 113 MB
Genre: Dub, Downtempo, IDM, Techno, Ambient | RAR 3% Rec. | Label: Deviant Records (DVNT12CD)

A double-disc compilation of over two and a half hours of remixes, Auntie Aubrey's Excursions Beyond the Call of Duty, Pt. 1 includes Orb reworkings of well-known bands (Primal Scream, Erasure, Depeche Mode, Killing Joke) and more obscure acts (Keiichi Suzuki, Love Kittens). Several mixes sound a bit dated, and the scattershot quality of the set can distract listeners, but the inclusion of several epiphanous moments (Material's "Praying Mantra," Primal Scream's "Higher Than the Sun," and Sun Electric's "O'Locco") makes the album worthwhile for fans.
CD 1 Tracklist:
01. Material - Praying Mantra (The Orb Remix)
02. Killing Joke - Democracy (The Russian Tundra Mix)
03. Keiichi Suzuki - Satellite Serenade (Trans Asian Express Mix)
04. Zodiac Youth - Fast Forward The Future (Foxes Glacier Hints Mix)
05. Primal Scream - Higher Than The Sun (Higher Than The Kite Mix)
06. Ready Made - Ambient State
07. Wir - So And Slow It Grows (The Orb In Atlas Mix)
08. Yasuaki Shimizu - Secret Squirrel (Orbient Mix)

Total time: 01:17:51

CD 2 Tracklist:
01. Yello - You Gotta Say Yes To Another Excess (Long Version)
02. Innersphere - Out Of Body (Log Ital Mix)
03. Depeche Mode - Happiest Girl (The Pulsating Orbital Vocal Mix)
04. Erasure - Ship Of Fools (Orbital Southsea Isles Of Holy Beats Mix)
05. Sun Electric - O'Locco (Orbital Therapy Part 1)
06. Maurizio - Ploy (Battersea Was An Island Of Mud Mix)
07. Time Unlimited - Men Of Wadodem (Orbital Mix)
08. Paradise X - 2 Much (Start And Depart From Paradise Mix)
09. Pop Will Eat Itself - Home (Sweet Sin And Salvation Mix)
10. Love Kittens - What Goes On (Orbient Mix 2)

Total time: 01:18:22

Exact Audio Copy V0.99 prebeta 4 from 23. January 2008

EAC extraction logfile from 19. May 2009, 22:21

The Orb / Auntie Aubrey's Excursions Beyond the Call of Duty - The Orb Remix Project - CD1

Used drive : Optiarc DVD RW AD-7220A Adapter: 1 ID: 2

Read mode : Secure
Utilize accurate stream : Yes
Defeat audio cache : Yes
Make use of C2 pointers : No

Read offset correction : 6
Overread into Lead-In and Lead-Out : No
Fill up missing offset samples with silence : Yes
Delete leading and trailing silent blocks : No
Null samples used in CRC calculations : Yes
Used interface : Installed external ASPI interface

Used output format : User Defined Encoder
Selected bitrate : 320 kBit/s
Quality : High
Add ID3 tag : No
Command line compressor : C:\Program Files\Exact Audio Copy\Flac\flac.exe
Additional command line options : –fast -T "ARTIST=%a" -T "TITLE=%t" -T "ALBUM=%g" -T "DATE=%y" -T "TRACKNUMBER=%n" -T "GENRE=%m" %s


TOC of the extracted CD

Track | Start | Length | Start sector | End sector
––––––––––––––––––––––––––––-
1 | 0:00.00 | 16:33.55 | 0 | 74529
2 | 16:33.55 | 17:48.72 | 74530 | 154701
3 | 34:22.52 | 12:41.25 | 154702 | 211801
4 | 47:04.02 | 6:56.15 | 211802 | 243016
5 | 54:00.17 | 8:48.05 | 243017 | 282621
6 | 62:48.22 | 0:48.15 | 282622 | 286236
7 | 63:36.37 | 7:01.13 | 286237 | 317824
8 | 70:37.50 | 7:13.20 | 317825 | 350319


Range status and errors

Selected range

Filename Y:\_EAC_New\The Orb - Auntie Aubrey's Excursions Beyond the Call of Duty - The Orb Remix Project - CD1.wav

Peak level 100.0 %
Range quality 100.0 %
Test CRC 92D5969E
Copy CRC 92D5969E
Copy OK

No errors occurred


AccurateRip summary

Track 1 accurately ripped (confidence 4) [7EA3C3A7]
Track 2 accurately ripped (confidence 4) [0DC64458]
Track 3 accurately ripped (confidence 4) [8A4A1566]
Track 4 accurately ripped (confidence 4) [45DE0E8D]
Track 5 accurately ripped (confidence 4) [9DA74905]
Track 6 accurately ripped (confidence 4) [A79E5557]
Track 7 accurately ripped (confidence 4) [B569867F]
Track 8 accurately ripped (confidence 3) [60FD57AF]

All tracks accurately ripped

End of status report

[CUETools log; Date: 04.05.2021 22:30:51; Version: 2.1.4]
[CTDB TOCID: Ev8pcJumPgQix67CTfJPr2CVpDU-] found.
Track | CTDB Status
1 | (31/31) Accurately ripped
2 | (31/31) Accurately ripped
3 | (31/31) Accurately ripped
4 | (31/31) Accurately ripped
5 | (29/31) Accurately ripped
6 | (31/31) Accurately ripped
7 | (29/31) Accurately ripped
8 | (27/31) Accurately ripped
[AccurateRip ID: 001d501f-00b82dbb-79123e08] found.
Track [ CRC | V2 ] Status
01 [7ea3c3a7|d92a6023] (11+17/28) Accurately ripped
02 [0dc64458|f6cec8a6] (11+17/28) Accurately ripped
03 [8a4a1566|6d836905] (10+18/28) Accurately ripped
04 [45de0e8d|040ece48] (11+16/27) Accurately ripped
05 [9da74905|ddd9846a] (11+18/29) Accurately ripped
06 [a79e5557|53f23ba1] (11+17/28) Accurately ripped
07 [b569867f|c19cbefe] (11+17/28) Accurately ripped
08 [60fd57af|746a0a21] (10+17/27) Accurately ripped
Offsetted by 6:
01 [ffdfd40b] (00/28) No match
02 [34728010] (00/28) No match
03 [dc45f3b4] (00/28) No match (V2 was not tested)
04 [ad961b36] (00/27) No match
05 [9105f119] (00/29) No match
06 [ac6952d0] (00/28) No match
07 [0cb1b5c4] (00/28) No match
08 [8707173c] (00/27) No match

Track Peak [ CRC32 ] [W/O NULL] [ LOG ]
– 100,0 [92D5969E] [50E3EAE6] CRC32
01 99,5 [99BE4CBB] [A9A71808]
02 99,5 [0C015E77] [4387FDF9]
03 69,9 [13734800] [F2EE2CF2]
04 100,0 [07F44484] [73411039]
05 82,3 [7223B0A0] [364BB534]
06 70,2 [CF4D827E] [1E229C03]
07 99,8 [C407F366] [351D87D0]
08 99,3 [FCA9FF2C] [778CF0EC]

Exact Audio Copy V0.99 prebeta 4 from 23. January 2008

EAC extraction logfile from 19. May 2009, 22:44

The Orb / Auntie Aubrey's Excursions Beyond the Call of Duty - The Orb Remix Project - CD2

Used drive : Optiarc DVD RW AD-7220A Adapter: 1 ID: 2

Read mode : Secure
Utilize accurate stream : Yes
Defeat audio cache : Yes
Make use of C2 pointers : No

Read offset correction : 6
Overread into Lead-In and Lead-Out : No
Fill up missing offset samples with silence : Yes
Delete leading and trailing silent blocks : No
Null samples used in CRC calculations : Yes
Used interface : Installed external ASPI interface

Used output format : User Defined Encoder
Selected bitrate : 320 kBit/s
Quality : High
Add ID3 tag : No
Command line compressor : C:\Program Files\Exact Audio Copy\Flac\flac.exe
Additional command line options : –fast -T "ARTIST=%a" -T "TITLE=%t" -T "ALBUM=%g" -T "DATE=%y" -T "TRACKNUMBER=%n" -T "GENRE=%m" %s


TOC of the extracted CD

Track | Start | Length | Start sector | End sector
––––––––––––––––––––––––––––-
1 | 0:00.00 | 12:50.37 | 0 | 57786
2 | 12:50.37 | 4:13.65 | 57787 | 76826
3 | 17:04.27 | 7:44.68 | 76827 | 111694
4 | 24:49.20 | 8:16.02 | 111695 | 148896
5 | 33:05.22 | 5:32.33 | 148897 | 173829
6 | 38:37.55 | 11:57.70 | 173830 | 227674
7 | 50:35.50 | 4:19.72 | 227675 | 247171
8 | 54:55.47 | 7:55.48 | 247172 | 282844
9 | 62:51.20 | 10:05.07 | 282845 | 328226
10 | 72:56.27 | 5:25.30 | 328227 | 352631


Range status and errors

Selected range

Filename Y:\_EAC_New\The Orb - Auntie Aubrey's Excursions Beyond the Call of Duty - The Orb Remix Project - CD2.wav

Peak level 100.0 %
Range quality 100.0 %
Test CRC B9416371
Copy CRC B9416371
Copy OK

No errors occurred


AccurateRip summary

Track 1 accurately ripped (confidence 4) [E9C57F8F]
Track 2 accurately ripped (confidence 4) [44EFDE18]
Track 3 accurately ripped (confidence 4) [AF645A76]
Track 4 accurately ripped (confidence 4) [215C1BE8]
Track 5 accurately ripped (confidence 4) [98F725AC]
Track 6 accurately ripped (confidence 4) [B14710CC]
Track 7 accurately ripped (confidence 4) [CDD49A35]
Track 8 accurately ripped (confidence 4) [C3D58101]
Track 9 accurately ripped (confidence 4) [E519D121]
Track 10 accurately ripped (confidence 4) [88AC0B06]

All tracks accurately ripped

End of status report

[CUETools log; Date: 04.05.2021 22:32:30; Version: 2.1.4]
[CTDB TOCID: lrxNJGhm79v6zWJKM2AMB7vqdRo-] found.
Track | CTDB Status
1 | (27/27) Accurately ripped
2 | (27/27) Accurately ripped
3 | (27/27) Accurately ripped
4 | (27/27) Accurately ripped
5 | (26/27) Accurately ripped
6 | (26/27) Accurately ripped
7 | (27/27) Accurately ripped
8 | (26/27) Accurately ripped
9 | (24/27) Accurately ripped
10 | (25/27) Accurately ripped
[AccurateRip ID: 001ea223-00f1fa35-9e125d0a] found.
Track [ CRC | V2 ] Status
01 [e9c57f8f|9f8f6505] (12+17/29) Accurately ripped
02 [44efde18|646c19ca] (12+17/29) Accurately ripped
03 [af645a76|06af96b7] (11+19/30) Accurately ripped
04 [215c1be8|cb1f0738] (11+17/28) Accurately ripped
05 [98f725ac|7b858b27] (12+17/29) Accurately ripped
06 [b14710cc|41fb5cb9] (12+18/30) Accurately ripped
07 [cdd49a35|8adb4b22] (11+16/27) Accurately ripped
08 [c3d58101|6aa05aaa] (12+17/29) Accurately ripped
09 [e519d121|43721f06] (11+16/27) Accurately ripped
10 [88ac0b06|c677ca05] (11+17/28) Accurately ripped

Track Peak [ CRC32 ] [W/O NULL] [ LOG ]
– 100,0 [B9416371] [B53E566C] CRC32
01 69,2 [ACF6058D] [EF155FD4]
02 99,8 [A51FF983] [DABE2CA6]
03 98,8 [B72135FB] [A74EFBAF]
04 83,1 [B003A2DE] [C571A32F]
05 100,0 [2C092FD8] [179011D5]
06 100,0 [850AF5E1] [DE2C277E]
07 100,0 [CE00AE4B] [CA04F5AE]
08 54,5 [64097B3E] [1A894644]
09 76,1 [2950BE3B] [32B26740]
10 99,4 [11228EC0] [1E77308B]

Thanks to EPSmuz

See also:
The Orb - 5 Studio Albums (1995-2016)
The Orb - The BBC Session 1989-2001 (2008)