Subcategories

Tommy Emmanuel - Midnight Drive (1997) [Re-Up]

Posted By: Designol
Tommy Emmanuel - Midnight Drive (1997) [Re-Up]

Tommy Emmanuel - Midnight Drive (1997)
EAC | FLAC | Image (Cue&Log) ~ 279 Mb | Mp3 (CBR320) ~ 102 Mb | Scans included
Label: Sony/Higher Octave Music | # HOMECD 7096 | Time: 00:40:55
Guitar Virtuoso, Guitar Jazz, Smooth Jazz, Instrumental Pop/Rock

Though he has shown a mastery and affinity for both electric and acoustic axes, Tommy Emmanuel's Higher Octave debut, Midnight Drive, finds him focusing almost exclusively on warm yet frequently aggressive acoustic melodies, complemented here and there by the raw, plugged-in energy of Robben Ford and Larry Carlton. The overall mix is the kind that smooth jazz lovers find easy to swallow, but offers more bite and adventure than most like-minded releases in the genre. Smooth jazz radio may find an easy mark with a laid-back take of Sting's "Fields of Gold," but Emmanuel's other tracks dig deeper, showing off a stylistic chameleon drawing from the many phases of his career. His soft pop side comes out on power ballads "No More Goodbyes" and "Stay Close to Me," the latter reminding us why guest saxman Warren Hill's biggest hit to date was called "The Passion Theme." Emmanuel's more aggressive blues-rock side (honed no doubt by a few years in the progressive mid-'80s ensemble Dragon) emerges with Carlton's help on "Can't Get Enough." The striking contrast between the pastoral, folksy roads of "Drivetime" and the disc's best track, "Villa de Martin" best reflects the gamut of Emmanuel's approaches. "Drivetime" is simple and sparse, while "Villa de Martin" is multi-faceted, opening calmly before exploding into a wild flamenco jam, then quickly shifting back to a lower gear. He darts in a lot of directions, and that willingness, while not yet making him any sort of innovator on our shores, sets him apart from those who make their marks just playing the same old lines.

Review by Jonathan Widran, Allmusic.com

Tommy Emmanuel - Midnight Drive (1997) [Re-Up]



Tracklist:

01. Can't Get Enough (04:28)
02. Villa De Martin (04:22)
03. Midnight Drive (04:09)
04. Stay Close To Me (03:12)
05. Reggie's Groove (04:26)
06. No More Goodbyes (04:05)
07. The Inner Voice (04:23)
08. Drivetime (03:07)
09. Fields Of Gold (03:38)
10. Song For Nature (05:02)


Exact Audio Copy V0.99 prebeta 4 from 23. January 2008

Отчёт EAC об извлечении, выполненном 25. мая 2009, 0:27

Tommy Emmanuel / Midnight Drive

Дисковод: Optiarc DVD RW AD-7190A Adapter: 0 ID: 0

Режим чтения : Достоверность
Использование точного потока : Да
Отключение кэша аудио : Да
Использование указателей C2 : Нет

Коррекция смещения при чтении : 6
Способность читать области Lead-in и Lead-out : Нет
Заполнение пропущенных сэмплов тишиной : Да
Удаление блоков с тишиной в начале и конце : Нет
При вычислениях CRC использовались нулевые сэмплы : Да
Интерфейс : Встроенный Win32-интерфейс для Win NT/2000

Выходной формат : Внутренние WAV-операции
Формат сэмплов : 44.100 Гц; 16 бит; стерео


TOC извлечённого CD

Трек | Старт | Длительность | Начальный сектор | Конечный сектор
––––––––––––––––––––––––––––––––––-
1 | 0:00.00 | 4:28.45 | 0 | 20144
2 | 4:28.45 | 4:22.37 | 20145 | 39831
3 | 8:51.07 | 4:09.23 | 39832 | 58529
4 | 13:00.30 | 3:12.17 | 58530 | 72946
5 | 16:12.47 | 4:26.07 | 72947 | 92903
6 | 20:38.54 | 4:05.26 | 92904 | 111304
7 | 24:44.05 | 4:23.32 | 111305 | 131061
8 | 29:07.37 | 3:07.03 | 131062 | 145089
9 | 32:14.40 | 3:38.50 | 145090 | 161489
10 | 35:53.15 | 5:02.47 | 161490 | 184186


Характеристики диапазона извлечения и сообщения об ошибках

Выбранный диапазон

Имя файла F:\Аудио Lossless\Tommy Emmanuel - Midnight Drive\Tommy Emmanuel - Midnight Drive.wav

Пиковый уровень 98.9 %
Качество диапазона 100.0 %
CRC теста 7B173B6F
CRC копии 7B173B6F
Копирование… OK

Ошибок не произошло


AccurateRip: сводка

Трек 1 точность не определена (достоверность 3) [081C99C4], AccurateRip вернул [02824D87]
Трек 2 точность не определена (достоверность 3) [6A5C3E1D], AccurateRip вернул [A92B8970]
Трек 3 точность не определена (достоверность 3) [91EFAE6E], AccurateRip вернул [DA10615E]
Трек 4 точность не определена (достоверность 3) [15A1CA49], AccurateRip вернул [3C65D0B3]
Трек 5 точность не определена (достоверность 3) [CDEE5148], AccurateRip вернул [6081280E]
Трек 6 точность не определена (достоверность 3) [8C9DB7C9], AccurateRip вернул [34C50B54]
Трек 7 точность не определена (достоверность 3) [3A3C394B], AccurateRip вернул [71FF47EC]
Трек 8 точность не определена (достоверность 3) [7C3A98C8], AccurateRip вернул [67AA2BDA]
Трек 9 точность не определена (достоверность 3) [0AC60609], AccurateRip вернул [9BD78FAD]
Трек 10 точность не определена (достоверность 3) [1A11D6C4], AccurateRip вернул [6D73A832]

Ни один трек не прошёл проверки на точность
В вашей базе может быть иной вариант штамповки диска

Конец отчёта

[CUETools log; Date: 17.03.2018 22:27:26; Version: 2.1.4]
[CTDB TOCID: 9zl6.1teiYO6R2F7t.2ijA5dPAQ-] found.
Track | CTDB Status
1 | (15/18) Accurately ripped
2 | (17/18) Accurately ripped
3 | (16/18) Accurately ripped
4 | (17/18) Accurately ripped
5 | (17/18) Accurately ripped
6 | (17/18) Accurately ripped
7 | (17/18) Accurately ripped
8 | (17/18) Accurately ripped
9 | (17/18) Accurately ripped
10 | (17/18) Accurately ripped
[AccurateRip ID: 000f8694-007b7360-8a09970a] found.
Track [ CRC | V2 ] Status
01 [081c99c4|ab3c1705] (02+00/20) Accurately ripped
02 [6a5c3e1d|cf8febe9] (02+00/21) Accurately ripped
03 [91efae6e|ffe168f4] (02+00/20) Accurately ripped
04 [15a1ca49|254f1599] (02+00/21) Accurately ripped
05 [cdee5148|e73be674] (02+00/21) Accurately ripped
06 [8c9db7c9|5fefecb5] (02+00/21) Accurately ripped
07 [3a3c394b|c3263600] (02+00/21) Accurately ripped
08 [7c3a98c8|63391d65] (02+00/21) Accurately ripped
09 [0ac60609|7cf69b66] (02+00/21) Accurately ripped
10 [1a11d6c4|c3736caa] (02+00/20) Accurately ripped
Offsetted by -598:
01 [02824d87] (04/20) Accurately ripped
02 [a92b8970] (04/21) Accurately ripped
03 [da10615e] (04/20) Accurately ripped
04 [3c65d0b3] (04/21) Accurately ripped
05 [6081280e] (04/21) Accurately ripped
06 [34c50b54] (04/21) Accurately ripped
07 [71ff47ec] (04/21) Accurately ripped
08 [67aa2bda] (04/21) Accurately ripped
09 [9bd78fad] (04/21) Accurately ripped
10 [6d73a832] (04/20) Accurately ripped
Offsetted by -463:
01 [6ac42b6b] (07/20) Accurately ripped
02 [2ba757e6] (07/21) Accurately ripped
03 [9a35291b] (07/20) Accurately ripped
04 [2816755a] (07/21) Accurately ripped
05 [643b30ef] (07/21) Accurately ripped
06 [b1e6f163] (07/21) Accurately ripped
07 [371b5c83] (07/21) Accurately ripped
08 [8f692b9d] (07/21) Accurately ripped
09 [c99e8edc] (07/21) Accurately ripped
10 [31cb1b26] (07/20) Accurately ripped
Offsetted by 66:
01 [3fccf9e9] (00/20) No match (V2 was not tested)
02 [83e28bae] (00/21) No match (V2 was not tested)
03 [5b6cdf42] (00/20) No match (V2 was not tested)
04 [721a484b] (00/21) No match (V2 was not tested)
05 [801bc1b6] (00/21) No match (V2 was not tested)
06 [74165d68] (00/21) No match (V2 was not tested)
07 [a5f16c64] (00/21) No match (V2 was not tested)
08 [f05f15d2] (00/21) No match (V2 was not tested)
09 [7d99fb20] (00/21) No match (V2 was not tested)
10 [bc761af7] (00/20) No match (V2 was not tested)

Track Peak [ CRC32 ] [W/O NULL] [ LOG ]
– 98,9 [7B173B6F] [B6B180C9] CRC32
01 95,9 [560EDBF1] [B692A56B]
02 98,9 [7942C70D] [F3B6F7B7]
03 92,9 [0EADAB67] [E515F886]
04 72,8 [2BDEBC6C] [BF0AD5BB]
05 87,9 [2592FC14] [B4CA5415]
06 98,7 [D5F00033] [8D055AC1]
07 89,4 [2F53C7C5] [0EBADD55]
08 94,5 [F7E63A26] [7DA9D31D]
09 94,5 [F3E0485E] [52FA6936]
10 98,8 [DFF632C1] [6F5ECA12]

foobar2000 1.2 / Dynamic Range Meter 1.1.1
log date: 2018-03-17 22:29:08

––––––––––––––––––––––––––––––––––––––––
Analyzed: Tommy Emmanuel / Midnight Drive
––––––––––––––––––––––––––––––––––––––––

DR Peak RMS Duration Track
––––––––––––––––––––––––––––––––––––––––
DR8 -0.36 dB -10.03 dB 4:29 01-Can't Get Enough
DR8 -0.09 dB -10.65 dB 4:22 02-Villa De Martin
DR7 -0.64 dB -9.85 dB 4:09 03-Midnight Drive
DR8 -2.75 dB -12.42 dB 3:12 04-Stay Close To Me
DR8 -1.11 dB -11.01 dB 4:26 05-Reggie's Groove
DR9 -0.11 dB -10.83 dB 4:05 06-No More Goodbyes
DR8 -0.97 dB -11.53 dB 4:23 07-The Inner Voice
DR8 -0.48 dB -10.54 dB 3:07 08-Drivetime
DR7 -0.49 dB -10.16 dB 3:39 09-Fields Of Gold
DR8 -0.10 dB -10.77 dB 5:03 10-Song For Nature
––––––––––––––––––––––––––––––––––––––––

Number of tracks: 10
Official DR value: DR8

Samplerate: 44100 Hz
Channels: 2
Bits per sample: 16
Bitrate: 922 kbps
Codec: FLAC
================================================================================

Tommy Emmanuel - Midnight Drive (1997) [Re-Up]

Tommy Emmanuel - Midnight Drive (1997) [Re-Up]