Subcategories

Tony Hall - Fieldvole Music (1977) Expanded Remastered Reissue 2007

Posted By: Designol
Tony Hall - Fieldvole Music (1977) Expanded Remastered Reissue 2007

Tony Hall - Fieldvole Music (1977) Expanded Remastered Reissue 2007
EAC | FLAC | Image (Cue&Log) ~ 472 Mb | Mp3 (CBR320) ~ 206 Mb | Scans included | 01:18:48
Traditional British Folk, Irish Folk, Celtic | Label: Free Reed | # FRRR 03

The 1977 classic "FIELDVOLE MUSIC" continued the trend of bizarre titles for Free Reed's LPs - this one taken from the nickname of cartoonist and melodeon maestro TONY HALL. Tony was the accompanist of choice for many 70s folk stars - he was on June Tabor & Maddy Prior's 'Silly Sisters' tour in 1976 - and for this exquisite Free Reed LP, he was joined by Nic Jones & Johnny Moynihan to create possibly the greatest selection of classic melodeon tunes & songs ever recorded. Once again, the production was in the hands of Nic Kinsey, and we include 7 extra tracks from the 1977 sessions. Booklet notes are by the shanty man & historian STAN HUGILL.

The other reviewers seem to be trying to warn you off this, but I'm not sure why. It's not a difficult album to listen to. True, Hall's playing is not flashy; he has none of the melodic virtuosity of a Joe Burke or a Sharon Shannon. Nor is his voice anything much; but it blends effectively with the remarkably full, multi-voiced sound he manages to draw from what is a fairly limited instrument.

If you know Nic Jones' Penguin Eggs you'll have some idea of the overall vibe - and anybody who can get Jones as their rhythm section must be doing something right! But even more than PE, this is music which is happy to be itself: completely without gimmicks or 'folky' self-consciousness, as rich, satisfying and deceptively subtle as a pint of good ale.

For once, the bonus material is every bit as good as the original album, bringing this up to almost 80 superb minutes. If you're into English traditional music, it's a must; if you'd like to find out whether you might be, it's a good place to start.

Review by gille liath, Amazon.co.uk

Tony Hall - Fieldvole Music (1977) Expanded Remastered Reissue 2007


Tracklist:

01. Tripping Upstairs (2:40)
02. Wooden-ended Reel (2:30)
03. Trumpet Hornpipe (2:25)
04. Holmfirth Anthem (3:50)
05. The banks of the Seine (2:34)
06. Andrew Rose (4:25)
07. Gerry's slow tune (2:33)
08. Shallow Brown (5:06)
09. Bantry Bay (2:39)
10. Peeler Creek (2:03)
11. The Trim-rig Doxie (4:07)
12. Bottom of the punchbowl (2:02)
13. The weaver's march - The Quaker (4:04)
14. The rounding of Cape Horn (4:54)
15. The Major-Minor tune (2:32)
16. Just as the tide was flowing (6:12)
17. The wind that shakes the barley (2:46)

Bonus Tracks:

18. Donkey riding (2:58)
19. Ten thousand miles away (3:25)
20. One more day (2:44)
21. Yeller girls (2:38)
22. General Taylor (4:38)
23. Heave away, me Johnny Boys (3:07)
24. Lord of Dunblane (1:56)


Exact Audio Copy V1.0 beta 3 from 29. August 2011

EAC extraction logfile from 20. October 2013, 0:10

Tony Hall / Fieldvole Music

Used drive : PLEXTOR DVDR PX-612U Adapter: 2 ID: 0

Read mode : Secure
Utilize accurate stream : Yes
Defeat audio cache : Yes
Make use of C2 pointers : No

Read offset correction : 6
Overread into Lead-In and Lead-Out : No
Fill up missing offset samples with silence : Yes
Delete leading and trailing silent blocks : No
Null samples used in CRC calculations : Yes
Used interface : Native Win32 interface for Win NT & 2000

Used output format : User Defined Encoder
Selected bitrate : 128 kBit/s
Quality : High
Add ID3 tag : No
Command line compressor : C:\Program Files (x86)\Exact Audio Copy\Flac\flac.exe
Additional command line options : -V -8 -T "Date=%year%" -T "Genre=%genre%" %source%


TOC of the extracted CD

Track | Start | Length | Start sector | End sector
––––––––––––––––––––––––––––-
1 | 0:01.00 | 2:39.66 | 75 | 12065
2 | 2:40.66 | 2:30.18 | 12066 | 23333
3 | 5:11.09 | 2:25.29 | 23334 | 34237
4 | 7:36.38 | 3:50.35 | 34238 | 51522
5 | 11:26.73 | 2:34.28 | 51523 | 63100
6 | 14:01.26 | 4:24.49 | 63101 | 82949
7 | 18:26.00 | 2:33.04 | 82950 | 94428
8 | 20:59.04 | 5:05.73 | 94429 | 117376
9 | 26:05.02 | 2:38.71 | 117377 | 129297
10 | 28:43.73 | 2:03.35 | 129298 | 138557
11 | 30:47.33 | 4:07.07 | 138558 | 157089
12 | 34:54.40 | 2:01.39 | 157090 | 166203
13 | 36:56.04 | 4:03.51 | 166204 | 184479
14 | 40:59.55 | 4:54.14 | 184480 | 206543
15 | 45:53.69 | 2:31.42 | 206544 | 217910
16 | 48:25.36 | 6:12.24 | 217911 | 245834
17 | 54:37.60 | 2:45.39 | 245835 | 258248
18 | 57:23.24 | 2:58.26 | 258249 | 271624
19 | 60:21.50 | 3:24.63 | 271625 | 286987
20 | 63:46.38 | 2:43.49 | 286988 | 299261
21 | 66:30.12 | 2:38.16 | 299262 | 311127
22 | 69:08.28 | 4:37.56 | 311128 | 331958
23 | 73:46.09 | 3:06.40 | 331959 | 345948
24 | 76:52.49 | 1:56.15 | 345949 | 354663


Range status and errors

Selected range

Filename D:\123\Tony Hall - Fieldvole Music.wav

Peak level 100.0 %
Extraction speed 2.2 X
Range quality 100.0 %
Test CRC F63D2F5B
Copy CRC F63D2F5B
Copy OK

No errors occurred


AccurateRip summary

Track 1 accurately ripped (confidence 1) [F9FD43E1] (AR v1)
Track 2 accurately ripped (confidence 1) [9C0B2CDD] (AR v1)
Track 3 accurately ripped (confidence 1) [0D656A04] (AR v1)
Track 4 accurately ripped (confidence 1) [DE47FF23] (AR v1)
Track 5 accurately ripped (confidence 1) [360252F5] (AR v1)
Track 6 accurately ripped (confidence 1) [0B4A429A] (AR v1)
Track 7 accurately ripped (confidence 1) [780C4BB9] (AR v1)
Track 8 accurately ripped (confidence 1) [3F642CAB] (AR v1)
Track 9 accurately ripped (confidence 1) [C93D9207] (AR v1)
Track 10 accurately ripped (confidence 1) [4CBA3D13] (AR v1)
Track 11 accurately ripped (confidence 1) [6845A55A] (AR v1)
Track 12 accurately ripped (confidence 1) [9845D964] (AR v1)
Track 13 accurately ripped (confidence 1) [4F4DD798] (AR v1)
Track 14 accurately ripped (confidence 1) [771CDDB1] (AR v1)
Track 15 accurately ripped (confidence 1) [64539135] (AR v1)
Track 16 accurately ripped (confidence 1) [D4BED7EB] (AR v1)
Track 17 accurately ripped (confidence 1) [77428DBE] (AR v1)
Track 18 accurately ripped (confidence 1) [47F38C5D] (AR v1)
Track 19 accurately ripped (confidence 1) [34700F5B] (AR v1)
Track 20 accurately ripped (confidence 1) [174009B9] (AR v1)
Track 21 accurately ripped (confidence 1) [8221B052] (AR v1)
Track 22 accurately ripped (confidence 1) [E42895E5] (AR v1)
Track 23 accurately ripped (confidence 1) [F54430C2] (AR v1)
Track 24 accurately ripped (confidence 1) [458B7689] (AR v1)

All tracks accurately ripped

End of status report

==== Log checksum 9C5F10E44830CF720D59C72DDFA696DE6CBD7B8BA49997478B8CB56E364B6511 ====

[CUETools log; Date: 30.03.2018 2:43:50; Version: 2.1.4]
Pregap length 00:01:00.
[CTDB TOCID: .Q1HjrM3cJ1TXIP3kEC9J3scaRE-] found.
Track | CTDB Status
1 | (1/1) Accurately ripped
2 | (1/1) Accurately ripped
3 | (1/1) Accurately ripped
4 | (1/1) Accurately ripped
5 | (1/1) Accurately ripped
6 | (1/1) Accurately ripped
7 | (1/1) Accurately ripped
8 | (1/1) Accurately ripped
9 | (1/1) Accurately ripped
10 | (1/1) Accurately ripped
11 | (1/1) Accurately ripped
12 | (1/1) Accurately ripped
13 | (1/1) Accurately ripped
14 | (1/1) Accurately ripped
15 | (1/1) Accurately ripped
16 | (1/1) Accurately ripped
17 | (1/1) Accurately ripped
18 | (1/1) Accurately ripped
19 | (1/1) Accurately ripped
20 | (1/1) Accurately ripped
21 | (1/1) Accurately ripped
22 | (1/1) Accurately ripped
23 | (1/1) Accurately ripped
24 | (1/1) Accurately ripped
[AccurateRip ID: 0042e845-049632a2-70127718] found.
Track [ CRC | V2 ] Status
01 [f9fd43e1|7d1ab2b8] (1+1/2) Accurately ripped
02 [9c0b2cdd|615e5bf2] (1+1/2) Accurately ripped
03 [0d656a04|041105f9] (1+1/2) Accurately ripped
04 [de47ff23|859b212e] (1+1/2) Accurately ripped
05 [360252f5|6fb573df] (1+1/2) Accurately ripped
06 [0b4a429a|6f794788] (1+1/2) Accurately ripped
07 [780c4bb9|c1de669e] (1+1/2) Accurately ripped
08 [3f642cab|471fe395] (1+1/2) Accurately ripped
09 [c93d9207|afb7bef7] (1+1/2) Accurately ripped
10 [4cba3d13|ff05313a] (1+1/2) Accurately ripped
11 [6845a55a|778129d3] (1+1/2) Accurately ripped
12 [9845d964|13280439] (1+1/2) Accurately ripped
13 [4f4dd798|42ee736a] (1+1/2) Accurately ripped
14 [771cddb1|0fbeb611] (1+1/2) Accurately ripped
15 [64539135|a164a5f7] (1+1/2) Accurately ripped
16 [d4bed7eb|b9170a07] (1+1/2) Accurately ripped
17 [77428dbe|3041e1da] (1+1/2) Accurately ripped
18 [47f38c5d|a24bde1b] (1+1/2) Accurately ripped
19 [34700f5b|40b31868] (1+1/2) Accurately ripped
20 [174009b9|a1b2c476] (1+1/2) Accurately ripped
21 [8221b052|c1d15eef] (1+1/2) Accurately ripped
22 [e42895e5|194e7bd3] (1+1/2) Accurately ripped
23 [f54430c2|9f001893] (1+1/2) Accurately ripped
24 [458b7689|bf6ecf7f] (1+1/2) Accurately ripped

Track Peak [ CRC32 ] [W/O NULL] [ LOG ]
– 100,0 [F63D2F5B] [26238167] CRC32
01 75,6 [0DF09BAC] [8AC04216]
02 65,8 [64A2222D] [DD5B3271]
03 43,7 [84A92B20] [DB4056E4]
04 63,6 [5C1B4273] [63970301]
05 55,0 [A237BBE3] [ABAEB03A]
06 67,0 [2D4C0325] [3712213E]
07 53,9 [05AFCA62] [9E1D5A0D]
08 60,0 [AD302340] [F1D136C7]
09 57,5 [34A7BA65] [423AF5AA]
10 65,3 [BB8AF08F] [9F3A412B]
11 74,4 [046BBE03] [1987977E]
12 60,0 [DE503675] [C31B2771]
13 67,4 [4B0A99E0] [35208EFA]
14 66,2 [7B77DE5F] [4013D02A]
15 54,2 [C8FC3EBF] [A94B1898]
16 77,2 [1B3B40D3] [1B17E683]
17 60,4 [6F2FCC4D] [14EBBFBE]
18 87,2 [61E2D64F] [D6BCEE4E]
19 96,3 [96382347] [96120F4A]
20 84,6 [BC00EE7B] [95FA185D]
21 100,0 [B40980D1] [A95EE374]
22 100,0 [31A70724] [2818F3F7]
23 82,5 [86C503EB] [F6152D7C]
24 54,5 [D8CAAB8D] [6C0E27C6]

foobar2000 1.2 / Dynamic Range Meter 1.1.1
log date: 2018-03-30 02:28:44

––––––––––––––––––––––––––––––––––––––––
Analyzed: Tony Hall / Fieldvole Music
––––––––––––––––––––––––––––––––––––––––

DR Peak RMS Duration Track
––––––––––––––––––––––––––––––––––––––––
DR14 -2.42 dB -17.81 dB 2:40 01-Tripping Upstairs
DR14 -3.63 dB -19.31 dB 2:30 02-Wooden-ended Reel
DR15 -7.18 dB -24.98 dB 2:25 03-Trumpet Hornpipe
DR14 -3.92 dB -22.25 dB 3:50 04-Holmfirth Anthem
DR14 -5.18 dB -23.38 dB 2:34 05-The banks of the Seine
DR16 -3.47 dB -23.92 dB 4:25 06-Andrew Rose
DR15 -5.36 dB -22.92 dB 2:33 07-Gerry's slow tune
DR13 -4.43 dB -22.24 dB 5:06 08-Shallow Brown
DR13 -4.80 dB -20.10 dB 2:39 09-Bantry Bay
DR13 -3.70 dB -19.57 dB 2:03 10-Peeler Creek
DR14 -2.56 dB -20.08 dB 4:07 11-The Trim-rig Doxie
DR13 -4.43 dB -20.55 dB 2:02 12-Bottom of the punchbowl
DR13 -3.42 dB -19.83 dB 4:04 13-The weaver's march - The Quaker
DR15 -3.57 dB -21.74 dB 4:54 14-The rounding of Cape Horn
DR13 -5.31 dB -22.40 dB 2:32 15-The Major-Minor tune
DR15 -2.24 dB -20.90 dB 6:12 16-Just as the tide was flowing
DR13 -4.38 dB -20.53 dB 2:46 17-The wind that shakes the barley
DR15 -1.19 dB -20.97 dB 2:58 18-Donkey riding
DR15 -0.33 dB -19.22 dB 3:25 19-Ten thousand miles away
DR14 -1.44 dB -17.91 dB 2:44 20-One more day
DR14 0.00 dB -19.33 dB 2:38 21-Yeller girls
DR15 0.00 dB -18.61 dB 4:38 22-General Taylor
DR16 -1.67 dB -21.19 dB 3:07 23-Heave away, me Johnny Boys
DR13 -5.27 dB -21.86 dB 1:56 24-Lord of Dunblane
––––––––––––––––––––––––––––––––––––––––

Number of tracks: 24
Official DR value: DR14

Samplerate: 44100 Hz
Channels: 2
Bits per sample: 16
Bitrate: 791 kbps
Codec: FLAC
================================================================================

Tony Hall - Fieldvole Music (1977) Expanded Remastered Reissue 2007

Tony Hall - Fieldvole Music (1977) Expanded Remastered Reissue 2007

All thanks to original releaser - gorrom

More interesting music in My Blog