Subcategories
Tags
Language
Tags

UFO - On Air. At The BBC. 1974-1985 (2013) [5CD + DVD]

Posted By: v3122
UFO - On Air. At The BBC. 1974-1985 (2013) [5CD + DVD]

UFO - On Air. At The BBC. 1974-1985 (2013)
EAC | Flac(Image) + Cue + Log & MP3 CBR 320Kbps
5CD | EMI/Chrysalis, 5099973505020 | ~ 1983 or 676 Mb | Scans(jpg, 600dpi) -> 104 Mb
DVD-5: NTSC 4:3 (720x480) VRB | AC3, 256 kbps, 48kHz, 2 ch
Hard Rock / Heavy Metal

Hard rock pioneers UFO are one of the UK's most prolific and influential rock bands - their musical influence can be seen across a host of modern metal groups and during the course of over four decades they have built up an extremely loyal and dedicated fan base. Spanning 5CDs, a DVD and a massive 52 remastered tracks, UFO 'At The BBC' collects together all of the legendary group's BBC appearances from their first session with Bob Harris in 1974 through to their epic live set at Knebworth in June 1985. Accompanying the 5CDs is a DVD presenting UFO's various BBC TV appearances (all previously unreleased), beginning with 2 tracks from the Old Grey Whistle Test from January 1979, continuing with 4 Top Of The Pops appearances from 1979-1982 and culminating with 3 performances from the Oxford Road Show, 29th January 1982. The 5CDs and DVD of UFO 'At The BBC' come housed in a clamshell box, with each disc presented in individual wallets and accompanied with a booklet featuring a brand new interview with Phil Mogg (co-founder and lead vocalist) and Paul Raymond (keyboardist/vocalist).

~ cduniverse


UFO - On Air. At The BBC. 1974-1985 (2013) [5CD + DVD]
UFO - On Air. At The BBC. 1974-1985 (2013):

UFO - On Air. At The BBC. 1974-1985 (2013) [5CD + DVD]

Tracklist CD1 (1974):

01. Oh My (In Concert) - 3:45
02. Built For Comfort (In Concert) - 3:54
03. Space Child (In Concert) - 4:04
04. Rock Bottom (In Concert) - 8:53
05. Doctor Doctor (In Concert) - 4:27
06. Rock Bottom (Bob Harris Session) - 7:09
07. Time On My Hands (Bob Harris Session) - 3:14
08. Give Her The Gun (Bob Harris Session) - 4:10

Exact Audio Copy V1.0 beta 3 from 29. August 2011

EAC extraction logfile from 13. June 2013, 21:16

UFO / On Air: At The BBC Disc One: 1974

Used drive : ATAPI iHAS124 B Adapter: 2 ID: 0

Read mode : Secure
Utilize accurate stream : Yes
Defeat audio cache : Yes
Make use of C2 pointers : No

Read offset correction : 6
Overread into Lead-In and Lead-Out : No
Fill up missing offset samples with silence : Yes
Delete leading and trailing silent blocks : No
Null samples used in CRC calculations : Yes
Used interface : Native Win32 interface for Win NT & 2000

Used output format : User Defined Encoder
Selected bitrate : 1024 kBit/s
Quality : High
Add ID3 tag : No
Command line compressor : C:\Program Files (x86)\Exact Audio Copy\FLAC\FLAC.EXE
Additional command line options : -8 -V -T "ARTIST=%artist%" -T "TITLE=%title%" -T "ALBUM=%albumtitle%" -T "DATE=%year%" -T "TRACKNUMBER=%tracknr%" -T "GENRE=%genre%" -T "PERFORMER=%albuminterpret%" -T "COMPOSER=%composer%" %haslyrics%–tag-from-file=LYRICS="%lyricsfile%"%haslyrics% -T "ALBUMARTIST=%albumartist%" -T "DISCNUMBER=%cdnumber%" -T "TOTALDISCS=%totalcds%" -T "TOTALTRACKS=%numtracks%" -T "COMMENT=%comment%" %source% -o %dest%


TOC of the extracted CD

Track | Start | Length | Start sector | End sector
––––––––––––––––––––––––––––-
1 | 0:00.00 | 3:44.69 | 0 | 16868
2 | 3:44.69 | 3:53.58 | 16869 | 34401
3 | 7:38.52 | 4:03.68 | 34402 | 52694
4 | 11:42.45 | 8:52.54 | 52695 | 92648
5 | 20:35.24 | 4:26.64 | 92649 | 112662
6 | 25:02.13 | 7:08.73 | 112663 | 144835
7 | 32:11.11 | 3:14.29 | 144836 | 159414
8 | 35:25.40 | 4:09.63 | 159415 | 178152


Range status and errors

Selected range

Filename G:\CD\UFO - On Air. At The BBC. Disc One - 1974.wav

Peak level 99.9 %
Extraction speed 5.5 X
Range quality 100.0 %
Test CRC 39D25787
Copy CRC 39D25787
Copy OK

No errors occurred


AccurateRip summary

Track 1 not present in database
Track 2 not present in database
Track 3 not present in database
Track 4 not present in database
Track 5 not present in database
Track 6 not present in database
Track 7 not present in database
Track 8 not present in database

None of the tracks are present in the AccurateRip database

End of status report

foobar2000 1.2.4 / Dynamic Range Meter 1.1.1
log date: 2013-06-19 11:53:58

––––––––––––––––––––––––––––––––––––––––
Analyzed: UFO / On Air: At The BBC Disc One: 1974
––––––––––––––––––––––––––––––––––––––––

DR Peak RMS Duration Track
––––––––––––––––––––––––––––––––––––––––
DR10 0.00 dB -12.06 dB 3:45 01-Oh My (In Concert)
DR11 -0.01 dB -12.94 dB 3:54 02-Built For Comfort (In Concert)
DR13 -0.17 dB -16.32 dB 4:04 03-Space Child (In Concert)
DR11 0.00 dB -12.50 dB 8:53 04-Rock Bottom (In Concert)
DR12 0.00 dB -14.10 dB 4:27 05-Doctor Doctor (In Concert)
DR9 -2.32 dB -11.89 dB 7:09 06-Rock Bottom (Bob Harris Session)
DR8 -2.46 dB -12.56 dB 3:14 07-Time On My Hands (Bob Harris Session)
DR9 -2.32 dB -12.10 dB 4:10 08-Give Her The Gun (Bob Harris Session)
––––––––––––––––––––––––––––––––––––––––

Number of tracks: 8
Official DR value: DR10

Samplerate: 44100 Hz
Channels: 2
Bits per sample: 16
Bitrate: 942 kbps
Codec: FLAC

UFO - On Air. At The BBC. 1974-1985 (2013) [5CD + DVD]

Tracklist CD2 (1975-1977):

01. Let It Roll (In Concert 1975) - 4:58
02. Doctor Doctor (In Concert 1975) - 4:40
03. Mother Mary (In Concert 1975) - 4:04
04. Out In The Street (In Concert 1975) - 5:12
05. Shoot Shoot (In Concert 1975) - 3:49
06. Rock Bottom (In Concert 1975) - 7:10
07. Too Hot To Handle (John Peel Session 1977) - 3:51
08. Light Out (John Peel Session 1977) - 4:57
09. Try Me (John Peel Session 1977) - 4:43

Exact Audio Copy V1.0 beta 3 from 29. August 2011

EAC extraction logfile from 13. June 2013, 21:35

UFO / On Air - At The BBC. Disc Two: 1975

Used drive : ATAPI iHAS124 B Adapter: 2 ID: 0

Read mode : Secure
Utilize accurate stream : Yes
Defeat audio cache : Yes
Make use of C2 pointers : No

Read offset correction : 6
Overread into Lead-In and Lead-Out : No
Fill up missing offset samples with silence : Yes
Delete leading and trailing silent blocks : No
Null samples used in CRC calculations : Yes
Used interface : Native Win32 interface for Win NT & 2000

Used output format : User Defined Encoder
Selected bitrate : 1024 kBit/s
Quality : High
Add ID3 tag : No
Command line compressor : C:\Program Files (x86)\Exact Audio Copy\FLAC\FLAC.EXE
Additional command line options : -8 -V -T "ARTIST=%artist%" -T "TITLE=%title%" -T "ALBUM=%albumtitle%" -T "DATE=%year%" -T "TRACKNUMBER=%tracknr%" -T "GENRE=%genre%" -T "PERFORMER=%albuminterpret%" -T "COMPOSER=%composer%" %haslyrics%–tag-from-file=LYRICS="%lyricsfile%"%haslyrics% -T "ALBUMARTIST=%albumartist%" -T "DISCNUMBER=%cdnumber%" -T "TOTALDISCS=%totalcds%" -T "TOTALTRACKS=%numtracks%" -T "COMMENT=%comment%" %source% -o %dest%


TOC of the extracted CD

Track | Start | Length | Start sector | End sector
––––––––––––––––––––––––––––-
1 | 0:00.00 | 4:57.48 | 0 | 22322
2 | 4:57.48 | 4:39.62 | 22323 | 43309
3 | 9:37.35 | 4:04.29 | 43310 | 61638
4 | 13:41.64 | 5:12.26 | 61639 | 85064
5 | 18:54.15 | 3:48.66 | 85065 | 102230
6 | 22:43.06 | 7:10.37 | 102231 | 134517
7 | 29:53.43 | 3:50.40 | 134518 | 151807
8 | 33:44.08 | 4:57.36 | 151808 | 174118
9 | 38:41.44 | 4:42.67 | 174119 | 195335


Range status and errors

Selected range

Filename G:\CD\UFO - On Air. At The BBC. Disc Two - 1975.wav

Peak level 99.8 %
Extraction speed 5.6 X
Range quality 100.0 %
Test CRC FDC660CD
Copy CRC FDC660CD
Copy OK

No errors occurred


AccurateRip summary

Track 1 not present in database
Track 2 not present in database
Track 3 not present in database
Track 4 not present in database
Track 5 not present in database
Track 6 not present in database
Track 7 not present in database
Track 8 not present in database
Track 9 not present in database

None of the tracks are present in the AccurateRip database

End of status report

foobar2000 1.2.4 / Dynamic Range Meter 1.1.1
log date: 2013-06-19 11:54:16

––––––––––––––––––––––––––––––––––––––––
Analyzed: UFO / On Air - At The BBC. Disc Two: 1975-1977
––––––––––––––––––––––––––––––––––––––––

DR Peak RMS Duration Track
––––––––––––––––––––––––––––––––––––––––
DR10 -0.02 dB -12.16 dB 4:58 01-Let It Roll (In Concert 1975)
DR10 -0.02 dB -11.82 dB 4:40 02-Doctor Doctor (In Concert 1975)
DR11 -0.01 dB -13.20 dB 4:04 03-Mother Mary (In Concert 1975)
DR11 -0.29 dB -13.50 dB 5:12 04-Out In The Street (In Concert 1975)
DR10 -0.30 dB -12.24 dB 3:49 05-Shoot Shoot (In Concert 1975)
DR10 -0.30 dB -12.12 dB 7:10 06-Rock Bottom (In Concert 1975)
DR9 -1.19 dB -11.44 dB 3:51 07-Too Hot To Handle (John Peel Session 1977)
DR8 -1.07 dB -9.75 dB 4:57 08-Light Out (John Peel Session 1977)
DR10 -1.87 dB -14.89 dB 4:43 09-Try Me (John Peel Session 1977)
––––––––––––––––––––––––––––––––––––––––

Number of tracks: 9
Official DR value: DR10

Samplerate: 44100 Hz
Channels: 2
Bits per sample: 16
Bitrate: 928 kbps
Codec: FLAC

UFO - On Air. At The BBC. 1974-1985 (2013) [5CD + DVD]

Tracklist CD3 (1980):

01. Lettin' Go - 3:46
02. Young Blood - 4:44
03. No Place To Run - 4:45
04. Out In The Street - 4:58
05. Cherry - 4:10
06. Only You Can Rock Me - 4:20
07. Love To Love - 8:19
08. Mystery Train - 5:45
09. Doctor Doctor - 5:48
10. Too Hot To Handle - 5:00
11. Lights Out - 6:20
12. Rock Bottom - 12:43

Exact Audio Copy V1.0 beta 3 from 29. August 2011

EAC extraction logfile from 13. June 2013, 22:08

UFO / On Air - At The BBC Disc Three: 1980

Used drive : ATAPI iHAS124 B Adapter: 2 ID: 0

Read mode : Secure
Utilize accurate stream : Yes
Defeat audio cache : Yes
Make use of C2 pointers : No

Read offset correction : 6
Overread into Lead-In and Lead-Out : No
Fill up missing offset samples with silence : Yes
Delete leading and trailing silent blocks : No
Null samples used in CRC calculations : Yes
Used interface : Native Win32 interface for Win NT & 2000

Used output format : User Defined Encoder
Selected bitrate : 1024 kBit/s
Quality : High
Add ID3 tag : No
Command line compressor : C:\Program Files (x86)\Exact Audio Copy\FLAC\FLAC.EXE
Additional command line options : -8 -V -T "ARTIST=%artist%" -T "TITLE=%title%" -T "ALBUM=%albumtitle%" -T "DATE=%year%" -T "TRACKNUMBER=%tracknr%" -T "GENRE=%genre%" -T "PERFORMER=%albuminterpret%" -T "COMPOSER=%composer%" %haslyrics%–tag-from-file=LYRICS="%lyricsfile%"%haslyrics% -T "ALBUMARTIST=%albumartist%" -T "DISCNUMBER=%cdnumber%" -T "TOTALDISCS=%totalcds%" -T "TOTALTRACKS=%numtracks%" -T "COMMENT=%comment%" %source% -o %dest%


TOC of the extracted CD

Track | Start | Length | Start sector | End sector
––––––––––––––––––––––––––––-
1 | 0:00.00 | 3:46.04 | 0 | 16953
2 | 3:46.04 | 4:43.41 | 16954 | 38219
3 | 8:29.45 | 4:45.35 | 38220 | 59629
4 | 13:15.05 | 4:58.10 | 59630 | 81989
5 | 18:13.15 | 4:10.26 | 81990 | 100765
6 | 22:23.41 | 4:19.41 | 100766 | 120231
7 | 26:43.07 | 8:19.31 | 120232 | 157687
8 | 35:02.38 | 5:44.61 | 157688 | 183548
9 | 40:47.24 | 5:47.40 | 183549 | 209613
10 | 46:34.64 | 4:59.48 | 209614 | 232086
11 | 51:34.37 | 6:20.24 | 232087 | 260610
12 | 57:54.61 | 12:43.02 | 260611 | 317837


Range status and errors

Selected range

Filename G:\CD\UFO - On Air. At The BBC Disc Three - 1980.wav

Peak level 94.8 %
Extraction speed 6.6 X
Range quality 100.0 %
Test CRC 570BD474
Copy CRC 570BD474
Copy OK

No errors occurred


AccurateRip summary

Track 1 not present in database
Track 2 not present in database
Track 3 not present in database
Track 4 not present in database
Track 5 not present in database
Track 6 not present in database
Track 7 not present in database
Track 8 not present in database
Track 9 not present in database
Track 10 not present in database
Track 11 not present in database
Track 12 not present in database

None of the tracks are present in the AccurateRip database

End of status report

foobar2000 1.2.4 / Dynamic Range Meter 1.1.1
log date: 2013-06-19 11:54:37

––––––––––––––––––––––––––––––––––––––––
Analyzed: UFO / On Air - At The BBC Disc Three: 1980
––––––––––––––––––––––––––––––––––––––––

DR Peak RMS Duration Track
––––––––––––––––––––––––––––––––––––––––
DR9 -0.46 dB -10.15 dB 3:46 01-Lettin' Go
DR9 -0.46 dB -10.23 dB 4:44 02-Young Blood
DR9 -0.46 dB -10.59 dB 4:45 03-No Place To Run
DR9 -0.46 dB -11.72 dB 4:58 04-Out In The Street
DR9 -0.46 dB -12.03 dB 4:10 05-Cherry
DR9 -0.46 dB -10.87 dB 4:20 06-Only You Can Rock Me
DR9 -0.46 dB -12.60 dB 8:19 07-Love To Love
DR8 -0.76 dB -11.24 dB 5:45 08-Mystery Train
DR9 -0.76 dB -11.47 dB 5:48 09-Doctor Doctor
DR8 -0.76 dB -10.24 dB 5:00 10-Too Hot To Handle
DR8 -0.76 dB -11.12 dB 6:20 11-Lights Out
DR9 -0.76 dB -11.30 dB 12:43 12-Rock Bottom
––––––––––––––––––––––––––––––––––––––––

Number of tracks: 12
Official DR value: DR9

Samplerate: 44100 Hz
Channels: 2
Bits per sample: 16
Bitrate: 958 kbps
Codec: FLAC

UFO - On Air. At The BBC. 1974-1985 (2013) [5CD + DVD]

Tracklist CD4 (1982):

01. We Belong To The Night (In Concert) - 4:20
02. Let It Rain (In Concert) - 3:00
03. Long Gone (In Concert) - 4:53
04. The Wild, The Willing And The Innocent (In Concert) - 4:53
05. Only You Can Rock Me (In Concert) - 4:21
06. No Place To Run (In Concert) - 5:14
07. Love To Love (In Concert) - 8:18
08. Doing It All For You (In Concert) - 3:58
09. Makin' Moves (In Concert) - 4:48
10. Too Hot To Handle (In Concert) - 6:17
11. Mystery Train (In Concert) - 8:37

Exact Audio Copy V1.0 beta 3 from 29. August 2011

EAC extraction logfile from 13. June 2013, 23:31

UFO / On Air: At The BBC. Disc Four: 1982

Used drive : ATAPI iHAS124 B Adapter: 2 ID: 0

Read mode : Secure
Utilize accurate stream : Yes
Defeat audio cache : Yes
Make use of C2 pointers : No

Read offset correction : 6
Overread into Lead-In and Lead-Out : No
Fill up missing offset samples with silence : Yes
Delete leading and trailing silent blocks : No
Null samples used in CRC calculations : Yes
Used interface : Native Win32 interface for Win NT & 2000

Used output format : User Defined Encoder
Selected bitrate : 1024 kBit/s
Quality : High
Add ID3 tag : No
Command line compressor : C:\Program Files (x86)\Exact Audio Copy\FLAC\FLAC.EXE
Additional command line options : -8 -V -T "ARTIST=%artist%" -T "TITLE=%title%" -T "ALBUM=%albumtitle%" -T "DATE=%year%" -T "TRACKNUMBER=%tracknr%" -T "GENRE=%genre%" -T "PERFORMER=%albuminterpret%" -T "COMPOSER=%composer%" %haslyrics%–tag-from-file=LYRICS="%lyricsfile%"%haslyrics% -T "ALBUMARTIST=%albumartist%" -T "DISCNUMBER=%cdnumber%" -T "TOTALDISCS=%totalcds%" -T "TOTALTRACKS=%numtracks%" -T "COMMENT=%comment%" %source% -o %dest%


TOC of the extracted CD

Track | Start | Length | Start sector | End sector
––––––––––––––––––––––––––––-
1 | 0:00.00 | 4:19.69 | 0 | 19493
2 | 4:19.69 | 2:59.48 | 19494 | 32966
3 | 7:19.42 | 4:52.64 | 32967 | 54930
4 | 12:12.31 | 4:52.59 | 54931 | 76889
5 | 17:05.15 | 4:21.11 | 76890 | 96475
6 | 21:26.26 | 5:13.57 | 96476 | 120007
7 | 26:40.08 | 8:17.57 | 120008 | 157339
8 | 34:57.65 | 3:58.21 | 157340 | 175210
9 | 38:56.11 | 4:47.73 | 175211 | 196808
10 | 43:44.09 | 6:16.53 | 196809 | 225061
11 | 50:00.62 | 8:37.30 | 225062 | 263866


Range status and errors

Selected range

Filename G:\CD\UFO - On Air. At The BBC. Disc Four - 1982.wav

Peak level 96.7 %
Extraction speed 6.0 X
Range quality 99.9 %
Test CRC 4238F8CC
Copy CRC 4238F8CC
Copy OK

No errors occurred


AccurateRip summary

Track 1 not present in database
Track 2 not present in database
Track 3 not present in database
Track 4 not present in database
Track 5 not present in database
Track 6 not present in database
Track 7 not present in database
Track 8 not present in database
Track 9 not present in database
Track 10 not present in database
Track 11 not present in database

None of the tracks are present in the AccurateRip database

End of status report

foobar2000 1.2.4 / Dynamic Range Meter 1.1.1
log date: 2013-06-19 11:54:54

––––––––––––––––––––––––––––––––––––––––
Analyzed: UFO / On Air: At The BBC. Disc Four: 1982
––––––––––––––––––––––––––––––––––––––––

DR Peak RMS Duration Track
––––––––––––––––––––––––––––––––––––––––
DR11 -0.29 dB -12.15 dB 4:20 01-We Belong To The Night (In Concert)
DR11 -0.29 dB -12.66 dB 3:00 02-Let It Rain (In Concert)
DR10 -0.33 dB -13.54 dB 4:53 03-Long Gone (In Concert)
DR10 -0.29 dB -12.27 dB 4:53 04-The Wild, The Willing And The Innocent (In Concert)
DR10 -0.30 dB -11.92 dB 4:21 05-Only You Can Rock Me (In Concert)
DR10 -0.29 dB -11.75 dB 5:14 06-No Place To Run (In Concert)
DR11 -0.29 dB -14.16 dB 8:18 07-Love To Love (In Concert)
DR10 -0.29 dB -12.05 dB 3:58 08-Doing It All For You (In Concert)
DR10 -0.29 dB -11.02 dB 4:48 09-Makin' Moves (In Concert)
DR10 -0.29 dB -12.11 dB 6:17 10-Too Hot To Handle (In Concert)
DR9 -0.29 dB -11.93 dB 8:37 11-Mystery Train (In Concert)
––––––––––––––––––––––––––––––––––––––––

Number of tracks: 11
Official DR value: DR10

Samplerate: 44100 Hz
Channels: 2
Bits per sample: 16
Bitrate: 1057 kbps
Codec: FLAC

UFO - On Air. At The BBC. 1974-1985 (2013) [5CD + DVD]

Tracklist CD5 (1985):

01. Blinded By A Lie - 4:33
02. Heavens Gate - 5:12
03. Wreckless - 6:27
04. Love To Love - 7:40
05. Night Run - 5:41
06. Only You Can Rock Me - 6:48
07. Lights Out - 6:06
08. Doctor Doctor - 8:43

Exact Audio Copy V1.0 beta 3 from 29. August 2011

EAC extraction logfile from 14. June 2013, 0:08

UFO / On Air - At The BBC Disc Five: 1985

Used drive : ATAPI iHAS124 B Adapter: 2 ID: 0

Read mode : Secure
Utilize accurate stream : Yes
Defeat audio cache : Yes
Make use of C2 pointers : No

Read offset correction : 6
Overread into Lead-In and Lead-Out : No
Fill up missing offset samples with silence : Yes
Delete leading and trailing silent blocks : No
Null samples used in CRC calculations : Yes
Used interface : Native Win32 interface for Win NT & 2000

Used output format : User Defined Encoder
Selected bitrate : 1024 kBit/s
Quality : High
Add ID3 tag : No
Command line compressor : C:\Program Files (x86)\Exact Audio Copy\FLAC\FLAC.EXE
Additional command line options : -8 -V -T "ARTIST=%artist%" -T "TITLE=%title%" -T "ALBUM=%albumtitle%" -T "DATE=%year%" -T "TRACKNUMBER=%tracknr%" -T "GENRE=%genre%" -T "PERFORMER=%albuminterpret%" -T "COMPOSER=%composer%" %haslyrics%–tag-from-file=LYRICS="%lyricsfile%"%haslyrics% -T "ALBUMARTIST=%albumartist%" -T "DISCNUMBER=%cdnumber%" -T "TOTALDISCS=%totalcds%" -T "TOTALTRACKS=%numtracks%" -T "COMMENT=%comment%" %source% -o %dest%


TOC of the extracted CD

Track | Start | Length | Start sector | End sector
––––––––––––––––––––––––––––-
1 | 0:00.00 | 4:33.19 | 0 | 20493
2 | 4:33.19 | 5:11.61 | 20494 | 43879
3 | 9:45.05 | 6:27.06 | 43880 | 72910
4 | 16:12.11 | 7:39.53 | 72911 | 107388
5 | 23:51.64 | 5:41.27 | 107389 | 132990
6 | 29:33.16 | 6:48.12 | 132991 | 163602
7 | 36:21.28 | 6:05.41 | 163603 | 191018
8 | 42:26.69 | 8:42.46 | 191019 | 230214


Range status and errors

Selected range

Filename G:\CD\UFO - On Air. At The BBC. Disc Five - 1985.wav

Peak level 99.4 %
Extraction speed 5.9 X
Range quality 100.0 %
Test CRC EDCEE6F3
Copy CRC EDCEE6F3
Copy OK

No errors occurred


AccurateRip summary

Track 1 not present in database
Track 2 not present in database
Track 3 not present in database
Track 4 not present in database
Track 5 not present in database
Track 6 not present in database
Track 7 not present in database
Track 8 not present in database

None of the tracks are present in the AccurateRip database

End of status report

foobar2000 1.2.4 / Dynamic Range Meter 1.1.1
log date: 2013-06-19 11:55:11

––––––––––––––––––––––––––––––––––––––––
Analyzed: UFO / On Air - At The BBC Disc Five: 1985
––––––––––––––––––––––––––––––––––––––––

DR Peak RMS Duration Track
––––––––––––––––––––––––––––––––––––––––
DR11 -0.32 dB -13.70 dB 4:33 01-Blinded By A Lie
DR11 -0.18 dB -12.88 dB 5:12 02-Heavens Gate
DR11 -0.07 dB -13.24 dB 6:27 03-Wreckless
DR13 -0.05 dB -14.58 dB 7:40 04-Love To Love
DR11 -0.23 dB -12.73 dB 5:41 05-Night Run
DR10 -0.46 dB -12.67 dB 6:48 06-Only You Can Rock Me
DR10 -0.06 dB -11.23 dB 6:06 07-Lights Out
DR10 -0.04 dB -12.50 dB 8:43 08-Doctor Doctor
––––––––––––––––––––––––––––––––––––––––

Number of tracks: 8
Official DR value: DR11

Samplerate: 44100 Hz
Channels: 2
Bits per sample: 16
Bitrate: 1005 kbps
Codec: FLAC

UFO - On Air. At The BBC. 1974-1985 (2013) [5CD + DVD]

Tracklist DVD:

Old Grey Whistle Test 1979 - 08:11
(Transmitted 16th January 1979)
1. Doctor Doctor - 04:46
2. Cherry - 03:25
Top Of The Pops 1979-1981 - 10:36
(Transmitted 1th February 1979)
3. Doctor Doctor - 03:29
(Transmitted 10th January 1980)
4. Young Blood - 02:50
(Transmitted 15th January 1980)
5. Lonely Heart - 04:06
Ozford Road Show 1982 - 11:22
(Transmitted 29th January 1982)
6. We Belong To The Night - 04:10
7. Let It Rain - 03:04
8. Too Hot To Handle - 04:08

Title: 2TB
Size: 2.30 Gb ( 2 414 010 KBytes ) - DVD-5
Enabled regions: 1, 2, 3, 4, 5, 6, 7, 8
VTS_01 :
Play Length: 00:00:08
Video: NTSC 4:3 (720x480) VBR
VTS_02 :
Play Length: 00:04:45
Video: NTSC 4:3 (720x480) VBR
Audio:
English (Dolby AC3, 2 ch)
VTS_03 :
Play Length: 00:03:25
Video: NTSC 4:3 (720x480) VBR
Audio:
English (Dolby AC3, 2 ch)
VTS_04 :
Play Length: 00:03:28
Video: NTSC 4:3 (720x480) VBR
Audio:
English (Dolby AC3, 2 ch)
VTS_05 :
Play Length: 00:02:50
Video: NTSC 4:3 (720x480) VBR
Audio:
English (Dolby AC3, 2 ch)
VTS_06 :
Play Length: 00:04:05
Video: NTSC 4:3 (720x480) VBR
Audio:
English (Dolby AC3, 2 ch)
VTS_07 :
Play Length: 00:04:09
Video: NTSC 4:3 (720x480) VBR
Audio:
English (Dolby AC3, 2 ch)
VTS_08 :
Play Length: 00:03:03
Video: NTSC 4:3 (720x480) VBR
Audio:
English (Dolby AC3, 2 ch)
VTS_09 :
Play Length: 00:04:08
Video: NTSC 4:3 (720x480) VBR
Audio:
English (Dolby AC3, 2 ch)
VTS_10 :
Play Length: 00:08:10
Video: NTSC 4:3 (720x480) VBR
Audio:
English (Dolby AC3, 2 ch)
Menu Video:
NTSC 4:3 (720x480) VBR
Menu Subtitles:
Not specified
Menu English Language Unit :
Root Menu

UFO - On Air. At The BBC. 1974-1985 (2013) [5CD + DVD]

UFO - On Air. At The BBC. 1974-1985 (2013) [5CD + DVD]

UFO - On Air. At The BBC. 1974-1985 (2013) [5CD + DVD]

UFO - On Air. At The BBC. 1974-1985 (2013) [5CD + DVD]

UFO - On Air. At The BBC. 1974-1985 (2013) [5CD + DVD]

UFO - On Air. At The BBC. 1974-1985 (2013) [5CD + DVD]

All thanks go to gerrV

Download UFO - On Air. At The BBC. 1974-1985 (2013):