Subcategories

VA - The Best Punk Anthems ...Ever! (1998) 2CDs

Posted By: Designol
VA - The Best Punk Anthems ...Ever! (1998) 2CDs

VA - The Best Punk Anthems …Ever! (1998) 2CD
EAC | FLAC | Tracks (Cue&Log) ~ 1.13 Gb | Mp3 (CBR320) ~ 396 Mb | Scans included
Label: Virgin, Circa | # VTDCD 198, 7243 8 46129 2 4 | Time: 02:37:53
Genre: Punk Rock, New Wave, Pop Punk, Post-Punk

The brilliance of this collection is that it combines the standard Brit-punk anthems by the Sex Pistols, the Damned, the Buzzcocks, and Stiff Little Fingers with other great songs that typify the variety and range of punk-era independent music from both sides of the Atlantic. The songs are so well chosen that the punk aesthetic is further revealed by the inclusion of songs that characterize pub rock, new wave, and other related genres. The usual punk suspects ("New Rose," "Anarchy in the UK") are all here, along with many other treasures: Dr. Feelgood's "Milk and Alcohol", Devo's "Mongoloid," Jonathan Richman's "Roadrunner," Talking Heads' "Psycho Killer," and Television's "Marquee Moon." The less commonly anthologized punk selections are inspired, too: the Ruts' "Babylon Is Burning," Generation X's "Ready Steady Go," and X-Ray Spex's "Identity," along with the seminal "Sheena is a Punk Rocker." The conception of the genre is expanded further to include Elvis Costello, Iggy Pop, XTC, Joe Jackson, the Pretenders, the Tubes, and Blondie, and their presence overcomes the tendency for boring repetition on a very long collection. Finally, Killing Joke's "Eighties" and the Stranglers' "Peaches" are icing on the cake in a collection without weak spots. The songs and the collection are highly recommended.

Review by John Gonsalves, Allmusic.com

Tracklist:

CD1:

01. Sex Pistols - God Save The Queen (03:18)
02. Iggy Pop - Lust For Life (05:11)
03. Buzzcocks - Ever Fallen In Love (With Someone You Shouldn't've) (02:40)
04. Ramones - Sheena Is A Punk Rocker (02:40)
05. The Members - The Sound Of The Suburbs (03:53)
06. Sham 69 - If the Kids Are United (03:44)
07. The Jam - The Eton Rifles (03:27)
08. Wire - I Am The Fly (03:06)
09. The Stranglers - Peaches (04:04)
10. Ian Dury And The Blockheads - Sex & Drugs & Rock 'N' Roll (03:10)
11. Elvis Costello And The Attractions - (I Don't Want To Go To) Chelsea (03:02)
12. Television - Marquee Moon (04:30)
13. Only Ones - Another Girl, Another Planet (03:00)
14. Iggy Pop - The Passenger (04:40)
15. Dr. Feelgood - Milk And Alcohol (02:47)
16. The Motors - Dancing The Night Away (03:13)
17. Richard Hell & The Voidoids - Blank Generation (02:42)
18. Eddie And The Hot Rods - Do Anything You Want To Do (04:02)
19. Tom Robinson Band - 2-4-6-8 Motorway (03:15)
20. The Vapors - Turning Japanese (03:43)
21. Blondie - Hanging On The Telephone (02:21)
22. The Skids - Into The Valley (03:10)
23. Jilted John - Jilted John (02:51)

CD2:

01. Undertones - Teenage Kicks (02:26)
02. Sex Pistols - Anarchy In The U.K. (03:31)
03. The Damned - New Rose (02:42)
04. Buzzcocks - Orgasm Addict (02:01)
05. The Adverts - Gary Gilmore's Eyes (02:20)
06. The Ruts - Babylon's Burning (02:35)
07. Rezillos - Top Of The Pops (02:53)
08. Generation X - King Rocker (02:56)
09. Stiff Little Fingers - Alternative Ulster (02:42)
10. X Ray Spex - Identity (02:22)
11. Bow Wow Wow - C30, C60, C90, Go (02:58)
12. The Saints - This Perfect Day (02:11)
13. Sid Vicious - My Way (04:04)
14. The Damned - Neat Neat Neat (02:40)
15. Undertones - Jimmy Jimmy (02:33)
16. Magazine - Shot By Both Sides (03:55)
17. The Skids - The Saints Are Coming (02:40)
18. The Stranglers - (Get A) Grip (On Yourself) (03:59)
19. Jonathan Richman & The Modern Lovers - Roadrunner (04:03)
20. Devo - Mongoloid (03:43)
21. Public Image Ltd - Public Image (02:55)
22. Penetration - Don't Dictate (02:53)
23. 999 - Emergency (02:49)
24. XTC - Making Plans For Nigel (04:08)
25. Wire - Outdoor Miner (02:50)
26. Flying Lizards - Money (02:30)
27. John Cooper Clarke - Kung Fu International (01:41)


Exact Audio Copy V0.99 prebeta 5 from 4. May 2009

EAC extraction logfile from 30. August 2009, 0:05

Various Artists / The Best Punk Anthems …Ever! (Disc 1)

Used drive : TSSTcorpCD/DVDW SH-S182D Adapter: 1 ID: 0

Read mode : Secure
Utilize accurate stream : Yes
Defeat audio cache : Yes
Make use of C2 pointers : No

Read offset correction : 6
Overread into Lead-In and Lead-Out : Yes
Fill up missing offset samples with silence : Yes
Delete leading and trailing silent blocks : No
Null samples used in CRC calculations : Yes
Used interface : Native Win32 interface for Win NT & 2000
Gap handling : Not detected, thus appended to previous track

Used output format : User Defined Encoder
Selected bitrate : 1024 kBit/s
Quality : High
Add ID3 tag : No
Command line compressor : C:\Program Files\Exact Audio Copy\FLAC\FLAC.EXE
Additional command line options : -3 -V -T "ARTIST=%a" -T "TITLE=%t" -T "ALBUM=%g" -T "DATE=%y" -T "TRACKNUMBER=%n" -T "GENRE=%m" -T "COMMENT=%e" %s -o %d
Use compression offset : 48


TOC of the extracted CD

Track | Start | Length | Start sector | End sector
––––––––––––––––––––––––––––-
1 | 0:00.00 | 3:18.27 | 0 | 14876
2 | 3:18.27 | 5:11.28 | 14877 | 38229
3 | 8:29.55 | 2:40.27 | 38230 | 50256
4 | 11:10.07 | 2:40.33 | 50257 | 62289
5 | 13:50.40 | 3:53.05 | 62290 | 79769
6 | 17:43.45 | 3:44.57 | 79770 | 96626
7 | 21:28.27 | 3:27.18 | 96627 | 112169
8 | 24:55.45 | 3:06.37 | 112170 | 126156
9 | 28:02.07 | 4:04.13 | 126157 | 144469
10 | 32:06.20 | 3:10.30 | 144470 | 158749
11 | 35:16.50 | 3:02.32 | 158750 | 172431
12 | 38:19.07 | 4:30.60 | 172432 | 192741
13 | 42:49.67 | 3:00.25 | 192742 | 206266
14 | 45:50.17 | 4:40.53 | 206267 | 227319
15 | 50:30.70 | 2:47.52 | 227320 | 239896
16 | 53:18.47 | 3:13.28 | 239897 | 254399
17 | 56:32.00 | 2:42.22 | 254400 | 266571
18 | 59:14.22 | 4:01.68 | 266572 | 284714
19 | 63:16.15 | 3:15.62 | 284715 | 299401
20 | 66:32.02 | 3:42.70 | 299402 | 316121
21 | 70:14.72 | 2:21.40 | 316122 | 326736
22 | 72:36.37 | 3:10.48 | 326737 | 341034
23 | 75:47.10 | 2:51.60 | 341035 | 353919


Track 1

Filename D:\New Folder\01. Sex Pistols - God Save The Queen.wav

Peak level 98.1 %
Track quality 100.0 %
Copy CRC B32197DA
Accurately ripped (confidence 5) [3299CDE2]
Copy OK

Track 2

Filename D:\New Folder\02. Iggy Pop - Lust For Life.wav

Peak level 98.2 %
Track quality 100.0 %
Copy CRC F256EFEA
Accurately ripped (confidence 5) [9B5172D1]
Copy OK

Track 3

Filename D:\New Folder\03. Buzzcocks - Ever Fallen In Love (With Someone You Shouldn't've).wav

Peak level 98.2 %
Track quality 100.0 %
Copy CRC E6C75853
Accurately ripped (confidence 5) [0283092F]
Copy OK

Track 4

Filename D:\New Folder\04. Ramones - Sheena Is A Punk Rocker.wav

Peak level 99.2 %
Track quality 100.0 %
Copy CRC C06F7B71
Accurately ripped (confidence 5) [9DAFF6C5]
Copy OK

Track 5

Filename D:\New Folder\05. The Members - The Sound Of The Suburbs.wav

Peak level 98.5 %
Track quality 100.0 %
Copy CRC D8D6B7DD
Accurately ripped (confidence 5) [F47F6E8F]
Copy OK

Track 6

Filename D:\New Folder\06. Sham 69 - If the Kids Are United.wav

Peak level 98.3 %
Track quality 100.0 %
Copy CRC 2C0DE0BB
Accurately ripped (confidence 5) [9B3AB439]
Copy OK

Track 7

Filename D:\New Folder\07. The Jam - The Eton Rifles.wav

Peak level 98.4 %
Track quality 100.0 %
Copy CRC 2FF6961E
Accurately ripped (confidence 4) [1F3EC5F2]
Copy OK

Track 8

Filename D:\New Folder\08. Wire - I Am The Fly.wav

Peak level 98.5 %
Track quality 100.0 %
Copy CRC 242C32BD
Accurately ripped (confidence 4) [EA5F74F2]
Copy OK

Track 9

Filename D:\New Folder\09. The Stranglers - Peaches.wav

Peak level 98.1 %
Track quality 100.0 %
Copy CRC 6B1EB694
Accurately ripped (confidence 5) [B09A225E]
Copy OK

Track 10

Filename D:\New Folder\10. Ian Dury And The Blockheads - Sex & Drugs & Rock 'N' Roll.wav

Peak level 99.0 %
Track quality 100.0 %
Copy CRC B578B0F3
Accurately ripped (confidence 5) [45392A1D]
Copy OK

Track 11

Filename D:\New Folder\11. Elvis Costello And The Attractions - (I Don't Want To Go To) Chelsea.wav

Peak level 98.8 %
Track quality 100.0 %
Copy CRC 2B7B48F9
Accurately ripped (confidence 4) [6DB5833D]
Copy OK

Track 12

Filename D:\New Folder\12. Television - Marquee Moon.wav

Peak level 98.8 %
Track quality 100.0 %
Copy CRC 9422F68D
Accurately ripped (confidence 3) [021F01E8]
Copy OK

Track 13

Filename D:\New Folder\13. Only Ones - Another Girl, Another Planet.wav

Peak level 98.6 %
Track quality 99.9 %
Copy CRC 6672E78F
Accurately ripped (confidence 3) [77D81E97]
Copy OK

Track 14

Filename D:\New Folder\14. Iggy Pop - The Passenger.wav

Peak level 98.1 %
Track quality 100.0 %
Copy CRC AF74EFB6
Accurately ripped (confidence 4) [E33331E7]
Copy OK

Track 15

Filename D:\New Folder\15. Dr. Feelgood - Milk And Alcohol.wav

Peak level 98.0 %
Track quality 99.9 %
Copy CRC 2CE568A0
Accurately ripped (confidence 4) [88662FF8]
Copy OK

Track 16

Filename D:\New Folder\16. The Motors - Dancing The Night Away.wav

Peak level 98.7 %
Track quality 100.0 %
Copy CRC 70B6C19D
Accurately ripped (confidence 3) [8AF447AB]
Copy OK

Track 17

Filename D:\New Folder\17. Richard Hell & The Voidoids - Blank Generation.wav

Peak level 98.7 %
Track quality 100.0 %
Copy CRC 1FC97E23
Accurately ripped (confidence 3) [6682A294]
Copy OK

Track 18

Filename D:\New Folder\18. Eddie And The Hot Rods - Do Anything You Want To Do.wav

Peak level 98.7 %
Track quality 100.0 %
Copy CRC 93E50B6B
Accurately ripped (confidence 5) [5811FFC4]
Copy OK

Track 19

Filename D:\New Folder\19. Tom Robinson Band - 2-4-6-8 Motorway.wav

Peak level 99.0 %
Track quality 100.0 %
Copy CRC 4FE40914
Accurately ripped (confidence 5) [C2CC17B9]
Copy OK

Track 20

Filename D:\New Folder\20. The Vapors - Turning Japanese.wav

Peak level 97.6 %
Track quality 100.0 %
Copy CRC D28566B3
Accurately ripped (confidence 5) [CD82BF84]
Copy OK

Track 21

Filename D:\New Folder\21. Blondie - Hanging On The Telephone.wav

Peak level 98.0 %
Track quality 100.0 %
Copy CRC 876F9899
Accurately ripped (confidence 4) [1CAECDBB]
Copy OK

Track 22

Filename D:\New Folder\22. The Skids - Into The Valley.wav

Peak level 99.1 %
Track quality 100.0 %
Copy CRC 95425BA0
Accurately ripped (confidence 5) [4105FB8D]
Copy OK

Track 23

Filename D:\New Folder\23. Jilted John - Jilted John.wav

Peak level 98.0 %
Track quality 100.0 %
Copy CRC A86A5AE6
Accurately ripped (confidence 4) [41F24A8D]
Copy OK


All tracks accurately ripped

No errors occurred

End of status report

[CUETools log; Date: 20.01.2016 22:00:00; Version: 2.1.4]
Truncated 4608 extra samples in some input files.
[CTDB TOCID: cCawKSCeKP43jGFxXkYEApK6JNk-] found.
Track | CTDB Status
1 | (5/5) Accurately ripped
2 | (5/5) Accurately ripped
3 | (5/5) Accurately ripped
4 | (5/5) Accurately ripped
5 | (5/5) Accurately ripped
6 | (5/5) Accurately ripped
7 | (5/5) Accurately ripped
8 | (5/5) Accurately ripped
9 | (5/5) Accurately ripped
10 | (5/5) Accurately ripped
11 | (5/5) Accurately ripped
12 | (5/5) Accurately ripped
13 | (5/5) Accurately ripped
14 | (5/5) Accurately ripped
15 | (5/5) Accurately ripped
16 | (5/5) Accurately ripped
17 | (5/5) Accurately ripped
18 | (5/5) Accurately ripped
19 | (5/5) Accurately ripped
20 | (5/5) Accurately ripped
21 | (5/5) Accurately ripped
22 | (5/5) Accurately ripped
23 | (5/5) Accurately ripped
[AccurateRip ID: 00429b67-0451388d-4b126e17] found.
Track [ CRC | V2 ] Status
01 [3299cde2|a9155341] (12+05/17) Accurately ripped
02 [9b5172d1|8180e3aa] (12+05/17) Accurately ripped
03 [0283092f|2929713f] (12+05/17) Accurately ripped
04 [9daff6c5|20929059] (12+05/17) Accurately ripped
05 [f47f6e8f|78637e5e] (12+05/17) Accurately ripped
06 [9b3ab439|80d5e166] (12+05/17) Accurately ripped
07 [1f3ec5f2|9c8cbee1] (11+05/16) Accurately ripped
08 [ea5f74f2|c84de2b2] (11+05/16) Accurately ripped
09 [b09a225e|013ee0dd] (12+05/17) Accurately ripped
10 [45392a1d|27740753] (12+05/17) Accurately ripped
11 [6db5833d|cb02b16f] (11+05/16) Accurately ripped
12 [021f01e8|6b41cde7] (10+05/15) Accurately ripped
13 [77d81e97|b90e7dc0] (10+05/15) Accurately ripped
14 [e33331e7|4ad1ef3f] (11+05/16) Accurately ripped
15 [88662ff8|f6f4518a] (11+05/16) Accurately ripped
16 [8af447ab|84538101] (10+05/15) Accurately ripped
17 [6682a294|ae86e833] (10+05/15) Accurately ripped
18 [5811ffc4|f3779056] (12+05/17) Accurately ripped
19 [c2cc17b9|970e9040] (12+05/17) Accurately ripped
20 [cd82bf84|ac57d332] (12+05/17) Accurately ripped
21 [1caecdbb|51c800fc] (11+05/16) Accurately ripped
22 [4105fb8d|008e833e] (12+04/16) Accurately ripped
23 [41f24a8d|b378d6be] (11+04/15) Accurately ripped

Track Peak [ CRC32 ] [W/O NULL] [ LOG ]
– 99,2 [CE329CFB] [0ACDEFD3]
01 98,1 [B32197DA] [BBB9B105] CRC32
02 98,2 [F256EFEA] [9FD979BC] CRC32
03 98,2 [E6C75853] [8C96650D] CRC32
04 99,2 [C06F7B71] [75DDED3E] CRC32
05 98,5 [D8D6B7DD] [E7FE514A] CRC32
06 98,3 [2C0DE0BB] [BB692E80] CRC32
07 98,4 [2FF6961E] [69853D64] CRC32
08 98,5 [242C32BD] [34ECEE23] CRC32
09 98,1 [6B1EB694] [E759BAE2] CRC32
10 99,0 [B578B0F3] [1028D143] CRC32
11 98,8 [2B7B48F9] [F658C15E] CRC32
12 98,8 [9422F68D] [1A230E8D] CRC32
13 98,6 [6672E78F] [E7845587] CRC32
14 98,1 [AF74EFB6] [8D6B0E79] CRC32
15 98,0 [2CE568A0] [1F2A9C0C] CRC32
16 98,7 [70B6C19D] [4F0CC3DA] CRC32
17 98,7 [1FC97E23] [8237371C] CRC32
18 98,7 [93E50B6B] [493577FC] CRC32
19 99,0 [4FE40914] [C5E43989] CRC32
20 97,5 [D28566B3] [CBA773F8] CRC32
21 98,0 [876F9899] [597F3187] CRC32
22 99,1 [95425BA0] [6DA6B2A8] CRC32
23 98,0 [A86A5AE6] [F4B7D93A] CRC32

foobar2000 1.2 / Dynamic Range Meter 1.1.1
log date: 2016-01-20 21:48:05

––––––––––––––––––––––––––––––––––––––––
Analyzed: Blondie / The Best Punk Anthems …Ever! (Disc 1) (1)
Buzzcocks / The Best Punk Anthems …Ever! (Disc 1) (2)
Dr. Feelgood / The Best Punk Anthems …Ever! (Disc 1) (3)
Eddie And The Hot Rods / The Best Punk Anthems …Ever! (Disc 1) (4)
Elvis Costello And The Attractions / The Best Punk Anthems …Ever! (Disc 1) (5)
Ian Dury And The Blockheads / The Best Punk Anthems …Ever! (Disc 1) (6)
Iggy Pop / The Best Punk Anthems …Ever! (Disc 1) (7-8)
Jilted John / The Best Punk Anthems …Ever! (Disc 1) (9)
Only Ones / The Best Punk Anthems …Ever! (Disc 1) (10)
Ramones / The Best Punk Anthems …Ever! (Disc 1) (11)
Richard Hell & The Voidoids / The Best Punk Anthems …Ever! (Disc 1) (12)
Sex Pistols / The Best Punk Anthems …Ever! (Disc 1) (13)
Sham 69 / The Best Punk Anthems …Ever! (Disc 1) (14)
Television / The Best Punk Anthems …Ever! (Disc 1) (15)
The Jam / The Best Punk Anthems …Ever! (Disc 1) (16)
The Members / The Best Punk Anthems …Ever! (Disc 1) (17)
The Motors / The Best Punk Anthems …Ever! (Disc 1) (18)
The Skids / The Best Punk Anthems …Ever! (Disc 1) (19)
The Stranglers / The Best Punk Anthems …Ever! (Disc 1) (20)
The Vapors / The Best Punk Anthems …Ever! (Disc 1) (21)
Tom Robinson Band / The Best Punk Anthems …Ever! (Disc 1) (22)
Wire / The Best Punk Anthems …Ever! (Disc 1) (23)
––––––––––––––––––––––––––––––––––––––––

DR Peak RMS Duration Track
––––––––––––––––––––––––––––––––––––––––
DR10 -0.17 dB -11.89 dB 2:22 21-Hanging On The Telephone
DR7 -0.16 dB -8.06 dB 2:40 03-Ever Fallen In Love (With Someone You Shouldn't've)
DR11 -0.17 dB -12.21 dB 2:48 15-Milk And Alcohol
DR8 -0.11 dB -9.97 dB 4:02 18-Do Anything You Want To Do
DR9 -0.10 dB -10.16 dB 3:03 11-(I Don't Want To Go To) Chelsea
DR11 -0.08 dB -12.88 dB 3:11 10-Sex & Drugs & Rock 'N' Roll
DR7 -0.15 dB -9.44 dB 5:11 02-Lust For Life
DR8 -0.16 dB -10.19 dB 4:41 14-The Passenger
DR8 -0.17 dB -9.94 dB 2:52 23-Jilted John
DR9 -0.12 dB -10.60 dB 3:00 13-Another Girl, Another Planet
DR10 -0.07 dB -11.20 dB 2:41 04-Sheena Is A Punk Rocker
DR8 -0.11 dB -9.68 dB 2:42 17-Blank Generation
DR9 -0.16 dB -10.31 dB 3:18 01-God Save The Queen
DR8 -0.14 dB -9.04 dB 3:45 06-If the Kids Are United
DR10 -0.10 dB -12.16 dB 4:31 12-Marquee Moon
DR9 -0.13 dB -10.87 dB 3:27 07-The Eton Rifles
DR10 -0.12 dB -11.47 dB 3:53 05-The Sound Of The Suburbs
DR6 -0.11 dB -8.16 dB 3:13 16-Dancing The Night Away
DR8 -0.07 dB -9.94 dB 3:11 22-Into The Valley
DR11 -0.16 dB -12.39 dB 4:04 09-Peaches
DR10 -0.21 dB -11.40 dB 3:43 20-Turning Japanese
DR11 -0.09 dB -12.92 dB 3:16 19-2-4-6-8 Motorway
DR7 -0.13 dB -8.77 dB 3:07 08-I Am The Fly
––––––––––––––––––––––––––––––––––––––––

Number of tracks: 23
Official DR value: DR9

Samplerate: 44100 Hz
Channels: 2
Bits per sample: 16
Bitrate: 972 kbps
Codec: FLAC
================================================================================


Exact Audio Copy V0.99 prebeta 5 from 4. May 2009

EAC extraction logfile from 30. August 2009, 1:05

Various Artists / The Best Punk Anthems …Ever! (Disc 2)

Used drive : TSSTcorpCD/DVDW SH-S182D Adapter: 1 ID: 0

Read mode : Secure
Utilize accurate stream : Yes
Defeat audio cache : Yes
Make use of C2 pointers : No

Read offset correction : 6
Overread into Lead-In and Lead-Out : Yes
Fill up missing offset samples with silence : Yes
Delete leading and trailing silent blocks : No
Null samples used in CRC calculations : Yes
Used interface : Native Win32 interface for Win NT & 2000
Gap handling : Not detected, thus appended to previous track

Used output format : User Defined Encoder
Selected bitrate : 1024 kBit/s
Quality : High
Add ID3 tag : No
Command line compressor : C:\Program Files\Exact Audio Copy\FLAC\FLAC.EXE
Additional command line options : -3 -V -T "ARTIST=%a" -T "TITLE=%t" -T "ALBUM=%g" -T "DATE=%y" -T "TRACKNUMBER=%n" -T "GENRE=%m" -T "COMMENT=%e" %s -o %d
Use compression offset : 48


TOC of the extracted CD

Track | Start | Length | Start sector | End sector
––––––––––––––––––––––––––––-
1 | 0:00.00 | 2:26.27 | 0 | 10976
2 | 2:26.27 | 3:30.70 | 10977 | 26796
3 | 5:57.22 | 2:41.73 | 26797 | 38944
4 | 8:39.20 | 2:01.32 | 38945 | 48051
5 | 10:40.52 | 2:20.10 | 48052 | 58561
6 | 13:00.62 | 2:35.05 | 58562 | 70191
7 | 15:35.67 | 2:53.38 | 70192 | 83204
8 | 18:29.30 | 2:56.67 | 83205 | 96471
9 | 21:26.22 | 2:42.58 | 96472 | 108679
10 | 24:09.05 | 2:22.00 | 108680 | 119329
11 | 26:31.05 | 2:58.30 | 119330 | 132709
12 | 29:29.35 | 2:11.15 | 132710 | 142549
13 | 31:40.50 | 4:04.00 | 142550 | 160849
14 | 35:44.50 | 2:40.12 | 160850 | 172861
15 | 38:24.62 | 2:33.45 | 172862 | 184381
16 | 40:58.32 | 3:55.13 | 184382 | 202019
17 | 44:53.45 | 2:40.37 | 202020 | 214056
18 | 47:34.07 | 3:59.25 | 214057 | 232006
19 | 51:33.32 | 4:03.58 | 232007 | 250289
20 | 55:37.15 | 3:43.40 | 250290 | 267054
21 | 59:20.55 | 2:55.50 | 267055 | 280229
22 | 62:16.30 | 2:53.50 | 280230 | 293254
23 | 65:10.05 | 2:49.17 | 293255 | 305946
24 | 67:59.22 | 4:08.00 | 305947 | 324546
25 | 72:07.22 | 2:50.23 | 324547 | 337319
26 | 74:57.45 | 2:30.52 | 337320 | 348621
27 | 77:28.22 | 1:41.10 | 348622 | 356206


Track 1

Filename D:\New Folder\01. Undertones - Teenage Kicks.wav

Peak level 98.4 %
Track quality 100.0 %
Copy CRC F23C33DE
Accurately ripped (confidence 5) [E678AE5A]
Copy OK

Track 2

Filename D:\New Folder\02. Sex Pistols - Anarchy In The U.K..wav

Peak level 98.2 %
Track quality 100.0 %
Copy CRC BF242C68
Accurately ripped (confidence 5) [2258D144]
Copy OK

Track 3

Filename D:\New Folder\03. The Damned - New Rose.wav

Peak level 98.0 %
Track quality 100.0 %
Copy CRC AFF78A19
Accurately ripped (confidence 4) [59A1767F]
Copy OK

Track 4

Filename D:\New Folder\04. Buzzcocks - Orgasm Addict.wav

Peak level 98.0 %
Track quality 100.0 %
Copy CRC 95C69D19
Accurately ripped (confidence 4) [01C98A04]
Copy OK

Track 5

Filename D:\New Folder\05. The Adverts - Gary Gilmore's Eyes.wav

Peak level 99.3 %
Track quality 99.9 %
Copy CRC 7E0749F2
Accurately ripped (confidence 5) [E42197A8]
Copy OK

Track 6

Filename D:\New Folder\06. The Ruts - Babylon's Burning.wav

Peak level 98.8 %
Track quality 99.9 %
Copy CRC 7FB30657
Accurately ripped (confidence 4) [C47D0463]
Copy OK

Track 7

Filename D:\New Folder\07. Rezillos - Top Of The Pops.wav

Peak level 98.3 %
Track quality 100.0 %
Copy CRC 8BC9CC44
Accurately ripped (confidence 5) [8617707F]
Copy OK

Track 8

Filename D:\New Folder\08. Generation X - King Rocker.wav

Peak level 98.1 %
Track quality 100.0 %
Copy CRC 68DF5992
Accurately ripped (confidence 5) [C228A92C]
Copy OK

Track 9

Filename D:\New Folder\09. Stiff Little Fingers - Alternative Ulster.wav

Peak level 98.0 %
Track quality 100.0 %
Copy CRC 69DE7E62
Accurately ripped (confidence 4) [FD84EF60]
Copy OK

Track 10

Filename D:\New Folder\10. X Ray Spex - Identity.wav

Peak level 98.7 %
Track quality 100.0 %
Copy CRC 99E43DBF
Accurately ripped (confidence 4) [C459DF08]
Copy OK

Track 11

Filename D:\New Folder\11. Bow Wow Wow - C30, C60, C90, Go.wav

Peak level 98.8 %
Track quality 100.0 %
Copy CRC 8F12870F
Accurately ripped (confidence 4) [0E856B45]
Copy OK

Track 12

Filename D:\New Folder\12. The Saints - This Perfect Day.wav

Peak level 98.1 %
Track quality 100.0 %
Copy CRC A2FBFAB7
Accurately ripped (confidence 4) [C7283F45]
Copy OK

Track 13

Filename D:\New Folder\13. Sid Vicious - My Way.wav

Peak level 98.9 %
Track quality 100.0 %
Copy CRC D77F664C
Accurately ripped (confidence 4) [715B271A]
Copy OK

Track 14

Filename D:\New Folder\14. The Damned - Neat Neat Neat.wav

Peak level 98.4 %
Track quality 100.0 %
Copy CRC 896B7204
Accurately ripped (confidence 3) [4343E336]
Copy OK

Track 15

Filename D:\New Folder\15. Undertones - Jimmy Jimmy.wav

Peak level 98.4 %
Track quality 100.0 %
Copy CRC FD955933
Accurately ripped (confidence 5) [5B5E4206]
Copy OK

Track 16

Filename D:\New Folder\16. Magazine - Shot By Both Sides.wav

Peak level 98.3 %
Track quality 100.0 %
Copy CRC 56059003
Accurately ripped (confidence 4) [8D81D021]
Copy OK

Track 17

Filename D:\New Folder\17. The Skids - The Saints Are Coming.wav

Peak level 98.8 %
Track quality 100.0 %
Copy CRC 3752C12B
Accurately ripped (confidence 3) [77B656F8]
Copy OK

Track 18

Filename D:\New Folder\18. The Stranglers - (Get A) Grip (On Yourself).wav

Peak level 98.5 %
Track quality 100.0 %
Copy CRC 9B33EE77
Accurately ripped (confidence 3) [B1AEA0EE]
Copy OK

Track 19

Filename D:\New Folder\19. Jonathan Richman & The Modern Lovers - Roadrunner.wav

Peak level 98.1 %
Track quality 100.0 %
Copy CRC D8A256C6
Accurately ripped (confidence 4) [0CAAF609]
Copy OK

Track 20

Filename D:\New Folder\20. Devo - Mongoloid.wav

Peak level 98.5 %
Track quality 100.0 %
Copy CRC A7601EA0
Accurately ripped (confidence 3) [CC73E9C5]
Copy OK

Track 21

Filename D:\New Folder\21. Public Image Ltd - Public Image.wav

Peak level 98.0 %
Track quality 99.9 %
Copy CRC 8C9D434D
Accurately ripped (confidence 3) [858F427D]
Copy OK

Track 22

Filename D:\New Folder\22. Penetration - Don't Dictate.wav

Peak level 99.3 %
Track quality 99.9 %
Copy CRC 0EA45528
Accurately ripped (confidence 3) [7CF5DA47]
Copy OK

Track 23

Filename D:\New Folder\23. 999 - Emergency.wav

Peak level 98.4 %
Track quality 100.0 %
Copy CRC 56CB5FF2
Accurately ripped (confidence 3) [5D868EEF]
Copy OK

Track 24

Filename D:\New Folder\24. XTC - Making Plans For Nigel.wav

Peak level 98.8 %
Track quality 100.0 %
Copy CRC 6738ACFB
Accurately ripped (confidence 4) [C18FC015]
Copy OK

Track 25

Filename D:\New Folder\25. Wire - Outdoor Miner.wav

Peak level 98.0 %
Track quality 100.0 %
Copy CRC 9DE4CF39
Accurately ripped (confidence 4) [16D90F01]
Copy OK

Track 26

Filename D:\New Folder\26. Flying Lizards - Money.wav

Peak level 98.0 %
Track quality 100.0 %
Copy CRC 224B95CC
Accurately ripped (confidence 3) [860D46A7]
Copy OK

Track 27

Filename D:\New Folder\27. John Cooper Clarke - Kung Fu International.wav

Peak level 90.5 %
Track quality 100.0 %
Copy CRC 71139DD1
Accurately ripped (confidence 4) [BD2ECD02]
Copy OK


All tracks accurately ripped

No errors occurred

End of status report

[CUETools log; Date: 20.01.2016 22:00:18; Version: 2.1.4]
Truncated 4608 extra samples in some input files.
[CTDB TOCID: gDiz3oJ72Q7YlT_NThnpvV8l_Wc-] found.
Track | CTDB Status
1 | (4/4) Accurately ripped
2 | (4/4) Accurately ripped
3 | (4/4) Accurately ripped
4 | (4/4) Accurately ripped
5 | (4/4) Accurately ripped
6 | (4/4) Accurately ripped
7 | (4/4) Accurately ripped
8 | (4/4) Accurately ripped
9 | (4/4) Accurately ripped
10 | (4/4) Accurately ripped
11 | (4/4) Accurately ripped
12 | (4/4) Accurately ripped
13 | (4/4) Accurately ripped
14 | (4/4) Accurately ripped
15 | (4/4) Accurately ripped
16 | (4/4) Accurately ripped
17 | (4/4) Accurately ripped
18 | (4/4) Accurately ripped
19 | (4/4) Accurately ripped
20 | (4/4) Accurately ripped
21 | (4/4) Accurately ripped
22 | (4/4) Accurately ripped
23 | (4/4) Accurately ripped
24 | (4/4) Accurately ripped
25 | (4/4) Accurately ripped
26 | (4/4) Accurately ripped
27 | (4/4) Accurately ripped
[AccurateRip ID: 004a404b-05aee40c-97128d1b] found.
Track [ CRC | V2 ] Status
01 [e678ae5a|6c4b8c57] (12+05/17) Accurately ripped
02 [2258d144|b8a57a3c] (12+05/17) Accurately ripped
03 [59a1767f|834e5b60] (11+05/16) Accurately ripped
04 [01c98a04|5bbdfb61] (11+05/16) Accurately ripped
05 [e42197a8|1111244e] (12+05/17) Accurately ripped
06 [c47d0463|cf211383] (11+05/16) Accurately ripped
07 [8617707f|9e095797] (12+05/17) Accurately ripped
08 [c228a92c|397c1ba1] (12+05/17) Accurately ripped
09 [fd84ef60|87bbade8] (11+05/16) Accurately ripped
10 [c459df08|bac82950] (11+05/16) Accurately ripped
11 [0e856b45|21c611e5] (11+05/16) Accurately ripped
12 [c7283f45|13d4293b] (11+04/15) Accurately ripped
13 [715b271a|11ce1332] (11+05/16) Accurately ripped
14 [4343e336|25818ffb] (09+05/14) Accurately ripped
15 [5b5e4206|201fa8eb] (11+05/16) Accurately ripped
16 [8d81d021|66a1d660] (11+05/16) Accurately ripped
17 [77b656f8|58ace702] (10+05/15) Accurately ripped
18 [b1aea0ee|e9946be6] (10+05/15) Accurately ripped
19 [0caaf609|5c655472] (11+05/16) Accurately ripped
20 [cc73e9c5|f218e4e5] (10+05/15) Accurately ripped
21 [858f427d|785fb735] (10+05/15) Accurately ripped
22 [7cf5da47|14c4467b] (10+05/15) Accurately ripped
23 [5d868eef|53f73cd7] (10+05/15) Accurately ripped
24 [c18fc015|86e4b8cd] (11+05/16) Accurately ripped
25 [16d90f01|9c5e0e9e] (11+04/15) Accurately ripped
26 [860d46a7|893740ab] (10+04/14) Accurately ripped
27 [bd2ecd02|c013e3d4] (11+05/16) Accurately ripped

Track Peak [ CRC32 ] [W/O NULL] [ LOG ]
– 99,3 [A22E9302] [C6F33706]
01 98,4 [F23C33DE] [E27859B4] CRC32
02 98,2 [BF242C68] [9D2F3955] CRC32
03 98,0 [AFF78A19] [7F9B6453] CRC32
04 98,0 [95C69D19] [7C12DAC8] CRC32
05 99,3 [7E0749F2] [0FD94251] CRC32
06 98,8 [7FB30657] [B9A35EE5] CRC32
07 98,3 [8BC9CC44] [157604D6] CRC32
08 98,1 [68DF5992] [7090A289] CRC32
09 98,0 [69DE7E62] [F845D10B] CRC32
10 98,7 [99E43DBF] [6EB0A794] CRC32
11 98,8 [8F12870F] [BD2C4A3B] CRC32
12 98,1 [A2FBFAB7] [DDF88AE2] CRC32
13 98,9 [D77F664C] [DB9DA942] CRC32
14 98,4 [896B7204] [49F1FD38] CRC32
15 98,4 [FD955933] [43DEB1DA] CRC32
16 98,3 [56059003] [091590F5] CRC32
17 98,8 [3752C12B] [A87A2C04] CRC32
18 98,5 [9B33EE77] [888BF9B9] CRC32
19 98,1 [D8A256C6] [373C513E] CRC32
20 98,5 [A7601EA0] [5B447BEC] CRC32
21 98,0 [8C9D434D] [716FABC2] CRC32
22 99,3 [0EA45528] [83A48CED] CRC32
23 98,4 [56CB5FF2] [ADE5EF92] CRC32
24 98,8 [6738ACFB] [5BFA3DAD] CRC32
25 98,0 [9DE4CF39] [E54D63A9] CRC32
26 98,0 [224B95CC] [E55A3884] CRC32
27 90,5 [71139DD1] [77078A17] CRC32

foobar2000 1.2 / Dynamic Range Meter 1.1.1
log date: 2016-01-20 21:48:27

––––––––––––––––––––––––––––––––––––––––
Analyzed: 999 / The Best Punk Anthems …Ever! (Disc 2) (1)
Bow Wow Wow / The Best Punk Anthems …Ever! (Disc 2) (2)
Buzzcocks / The Best Punk Anthems …Ever! (Disc 2) (3)
Devo / The Best Punk Anthems …Ever! (Disc 2) (4)
Flying Lizards / The Best Punk Anthems …Ever! (Disc 2) (5)
Generation X / The Best Punk Anthems …Ever! (Disc 2) (6)
John Cooper Clarke / The Best Punk Anthems …Ever! (Disc 2) (7)
Jonathan Richman & The Modern Lovers / The Best Punk Anthems …Ever! (Disc 2) (8)
Magazine / The Best Punk Anthems …Ever! (Disc 2) (9)
Penetration / The Best Punk Anthems …Ever! (Disc 2) (10)
Public Image Ltd / The Best Punk Anthems …Ever! (Disc 2) (11)
Rezillos / The Best Punk Anthems …Ever! (Disc 2) (12)
Sex Pistols / The Best Punk Anthems …Ever! (Disc 2) (13)
Sid Vicious / The Best Punk Anthems …Ever! (Disc 2) (14)
Stiff Little Fingers / The Best Punk Anthems …Ever! (Disc 2) (15)
The Adverts / The Best Punk Anthems …Ever! (Disc 2) (16)
The Damned / The Best Punk Anthems …Ever! (Disc 2) (17-18)
The Ruts / The Best Punk Anthems …Ever! (Disc 2) (19)
The Saints / The Best Punk Anthems …Ever! (Disc 2) (20)
The Skids / The Best Punk Anthems …Ever! (Disc 2) (21)
The Stranglers / The Best Punk Anthems …Ever! (Disc 2) (22)
Undertones / The Best Punk Anthems …Ever! (Disc 2) (23-24)
Wire / The Best Punk Anthems …Ever! (Disc 2) (25)
X Ray Spex / The Best Punk Anthems …Ever! (Disc 2) (26)
XTC / The Best Punk Anthems …Ever! (Disc 2) (27)
––––––––––––––––––––––––––––––––––––––––

DR Peak RMS Duration Track
––––––––––––––––––––––––––––––––––––––––
DR9 -0.13 dB -9.93 dB 2:49 23-Emergency
DR9 -0.10 dB -10.82 dB 2:59 11-C30, C60, C90, Go
DR9 -0.17 dB -9.63 dB 2:02 04-Orgasm Addict
DR9 -0.13 dB -10.92 dB 3:44 20-Mongoloid
DR11 -0.17 dB -12.68 dB 2:31 26-Money
DR7 -0.16 dB -8.15 dB 2:57 08-King Rocker
DR14 -0.86 dB -16.78 dB 1:41 27-Kung Fu International
DR8 -0.16 dB -8.72 dB 4:04 19-Roadrunner
DR6 -0.15 dB -8.12 dB 3:55 16-Shot By Both Sides
DR9 -0.05 dB -10.88 dB 2:54 22-Don't Dictate
DR7 -0.17 dB -8.18 dB 2:56 21-Public Image
DR9 -0.15 dB -10.09 dB 2:54 07-Top Of The Pops
DR8 -0.16 dB -9.17 dB 3:31 02-Anarchy In The U.K.
DR8 -0.10 dB -10.43 dB 4:04 13-My Way
DR11 -0.17 dB -12.62 dB 2:43 09-Alternative Ulster
DR8 -0.06 dB -9.83 dB 2:20 05-Gary Gilmore's Eyes
DR9 -0.17 dB -10.21 dB 2:42 03-New Rose
DR9 -0.14 dB -11.02 dB 2:40 14-Neat Neat Neat
DR7 -0.10 dB -8.77 dB 2:35 06-Babylon's Burning
DR9 -0.16 dB -9.66 dB 2:11 12-This Perfect Day
DR7 -0.10 dB -9.78 dB 2:41 17-The Saints Are Coming
DR12 -0.13 dB -13.08 dB 3:59 18-(Get A) Grip (On Yourself)
DR9 -0.14 dB -9.54 dB 2:26 01-Teenage Kicks
DR11 -0.14 dB -12.89 dB 2:34 15-Jimmy Jimmy
DR8 -0.17 dB -10.53 dB 2:50 25-Outdoor Miner
DR9 -0.11 dB -10.48 dB 2:22 10-Identity
DR10 -0.10 dB -11.49 dB 4:08 24-Making Plans For Nigel
––––––––––––––––––––––––––––––––––––––––

Number of tracks: 27
Official DR value: DR9

Samplerate: 44100 Hz
Channels: 2
Bits per sample: 16
Bitrate: 970 kbps
Codec: FLAC
================================================================================

VA - The Best Punk Anthems ...Ever! (1998) 2CDs

VA - The Best Punk Anthems ...Ever! (1998) 2CDs

All thanks to original releaser - alekow

More interesting music in My Blog