Tags
Language
Tags

VA - Buddha Bar Beach: Saint Tropez (2016) [Re-Up]

Posted By:
VA - Buddha Bar Beach: Saint Tropez (2016) [Re-Up]

Various Artists - Buddha Bar Beach: Saint Tropez (2016)
EAC | FLAC | Tracks (Cue&Log) ~ 518 Mb | Mp3 (CBR320) ~ 170 Mb | Scans ~ 48 Mb
Label: George V Records, Wagram | # 3338942-WAG331 | Time: 01:14:09
Electronic, Deep House, Lounge, Chillout, Downtempo

The mythical Saint-Tropez. The Buddha-Bar Beach St Tropez, third installment in the series, takes a festive neo-disco direction, with some deep and electro sounds, and promises you to spend a sun-drenched musical summer, with modern melodies signed by Buddha-Bar. Call all your friends, turn up the speakers and celebrate the endless summer with Buddha-Bar Beach St Tropez! A fresh and trendy musical selection, carefully crafted with passion and attention to musical detail by the Label. From the quirky title, that smells like the hot sand, to the electro hit, Buddha-Bar Beach St Tropez is the only soundtrack you need for a successful summer!

VA - Buddha Bar Beach: Saint Tropez (2016) [Re-Up]


Tracklist:

01. Intro - Welcome To Buddha Bar Beach St Tropez (0:47)
02. Vendredi Sur Mer - La Femme A La Peau Bleue (3:26)
03. Mhe - The Sound Of Silence (5:25)
04. Lif3Blood - Like The Sunshine (3:15)
05. Jazzyfunk Ft. Damon Trueitt - Blue Marlins (5:48)
06. Ynot & Cosmo Klein - When Doves Cry (6:33)
07. Lissat & Voltaxx Ft. Jenniffer Kae - Will You Be Gone (6:49)
08. Lil'm - Faded (5:15)
09. Croatia Squad & Lika Morgan - Make Your Move (4:41)
10. Mat.Joe - Make A Living (6:18)
11. Frey & Waxy - Club Crusher (4:20)
12. Zsak & Crazibiza - Sun Goes Down (4:23)
13. Mat.Joe - Nighthawk (5:39)
14. Milk & Sugar Ft. Nomfusi - Heat (5:14)
15. Corderoy - Close My Eyes (4:48)
16. Peppino Di Capri - St. Tropez Twist (2:15)


Exact Audio Copy V1.3 from 2. September 2016

EAC extraction logfile from 3. September 2017, 0:27

Various Artists / Buddha Bar Beach St. Tropez

Used drive : PLEXTOR DVDR PX-891SA Adapter: 1 ID: 1

Read mode : Secure
Utilize accurate stream : Yes
Defeat audio cache : Yes
Make use of C2 pointers : No

Read offset correction : 6
Overread into Lead-In and Lead-Out : No
Fill up missing offset samples with silence : Yes
Delete leading and trailing silent blocks : No
Null samples used in CRC calculations : Yes
Used interface : Native Win32 interface for Win NT & 2000
Gap handling : Appended to previous track

Used output format : User Defined Encoder
Selected bitrate : 896 kBit/s
Quality : High
Add ID3 tag : No
Command line compressor : C:\Program Files (x86)\Exact Audio Copy\Flac\flac.exe
Additional command line options : -8 -V -T "ARTIST=%artist%" -T "TITLE=%title%" -T "ALBUM=%albumtitle%" -T "DATE=%year%" -T "TRACKNUMBER=%tracknr%" -T "GENRE=%genre%" -T "COMMENT=ripped by Oleandris" %source%


TOC of the extracted CD

Track | Start | Length | Start sector | End sector
––––––––––––––––––––––––––––-
1 | 0:00.00 | 0:46.73 | 0 | 3522
2 | 0:46.73 | 3:25.60 | 3523 | 18957
3 | 4:12.58 | 5:24.73 | 18958 | 43330
4 | 9:37.56 | 3:15.16 | 43331 | 57971
5 | 12:52.72 | 5:48.15 | 57972 | 84086
6 | 18:41.12 | 6:33.33 | 84087 | 113594
7 | 25:14.45 | 6:49.14 | 113595 | 144283
8 | 32:03.59 | 5:14.56 | 144284 | 167889
9 | 37:18.40 | 4:41.24 | 167890 | 188988
10 | 41:59.64 | 6:17.53 | 188989 | 217316
11 | 48:17.42 | 4:19.50 | 217317 | 236791
12 | 52:37.17 | 4:23.27 | 236792 | 256543
13 | 57:00.44 | 5:38.52 | 256544 | 281945
14 | 62:39.21 | 5:13.42 | 281946 | 305462
15 | 67:52.63 | 4:47.68 | 305463 | 327055
16 | 72:40.56 | 2:14.59 | 327056 | 337164


Track 1

Filename I:\AUDIO I\Ambient - Chill Out - Lounge - Easy Listening - Electronic (исполнители и сборники)\ Buddha-Bar Beach Saint-Tropez (By Buddha-Bar X FG. (2016)\01. Intro - Intro Welcome To Buddha Bar Beach St Tropez.wav

Pre-gap length 0:00:02.00

Peak level 100.0 %
Extraction speed 1.2 X
Track quality 100.0 %
Test CRC A08C9C23
Copy CRC A08C9C23
Accurately ripped (confidence 4) [7B20818D] (AR v2)
Copy OK

Track 2

Filename I:\AUDIO I\Ambient - Chill Out - Lounge - Easy Listening - Electronic (исполнители и сборники)\ Buddha-Bar Beach Saint-Tropez (By Buddha-Bar X FG. (2016)\02. Vendredi Sur Mer - La Femme A La Peau Bleue.wav

Peak level 97.9 %
Extraction speed 2.0 X
Track quality 100.0 %
Test CRC C25B6E04
Copy CRC C25B6E04
Accurately ripped (confidence 4) [6C325D2F] (AR v2)
Copy OK

Track 3

Filename I:\AUDIO I\Ambient - Chill Out - Lounge - Easy Listening - Electronic (исполнители и сборники)\ Buddha-Bar Beach Saint-Tropez (By Buddha-Bar X FG. (2016)\03. Mhe - The Sound Of Silence.wav

Peak level 99.2 %
Extraction speed 2.3 X
Track quality 100.0 %
Test CRC FC5BAA09
Copy CRC FC5BAA09
Accurately ripped (confidence 4) [BC15E9F5] (AR v2)
Copy OK

Track 4

Filename I:\AUDIO I\Ambient - Chill Out - Lounge - Easy Listening - Electronic (исполнители и сборники)\ Buddha-Bar Beach Saint-Tropez (By Buddha-Bar X FG. (2016)\04. Lif3Blood - Like The Sunshine.wav

Peak level 98.8 %
Extraction speed 2.0 X
Track quality 99.9 %
Test CRC 9F71E902
Copy CRC 9F71E902
Accurately ripped (confidence 4) [B54D3DA0] (AR v2)
Copy OK

Track 5

Filename I:\AUDIO I\Ambient - Chill Out - Lounge - Easy Listening - Electronic (исполнители и сборники)\ Buddha-Bar Beach Saint-Tropez (By Buddha-Bar X FG. (2016)\05. Jazzyfunk Ft. Damon Trueitt - Blue Marlins.wav

Peak level 98.8 %
Extraction speed 2.7 X
Track quality 100.0 %
Test CRC E1E7F447
Copy CRC E1E7F447
Accurately ripped (confidence 4) [1C13067C] (AR v2)
Copy OK

Track 6

Filename I:\AUDIO I\Ambient - Chill Out - Lounge - Easy Listening - Electronic (исполнители и сборники)\ Buddha-Bar Beach Saint-Tropez (By Buddha-Bar X FG. (2016)\06. Ynot & Cosmo Klein - When Doves Cry.wav

Peak level 100.0 %
Extraction speed 3.0 X
Track quality 100.0 %
Test CRC 801049B0
Copy CRC 801049B0
Accurately ripped (confidence 4) [0FE0A023] (AR v2)
Copy OK

Track 7

Filename I:\AUDIO I\Ambient - Chill Out - Lounge - Easy Listening - Electronic (исполнители и сборники)\ Buddha-Bar Beach Saint-Tropez (By Buddha-Bar X FG. (2016)\07. Lissat & Voltaxx Ft. Jenniffer Kae - Will You Be Gone.wav

Peak level 100.0 %
Extraction speed 3.2 X
Track quality 100.0 %
Test CRC BC251218
Copy CRC BC251218
Accurately ripped (confidence 4) [993B8EB7] (AR v2)
Copy OK

Track 8

Filename I:\AUDIO I\Ambient - Chill Out - Lounge - Easy Listening - Electronic (исполнители и сборники)\ Buddha-Bar Beach Saint-Tropez (By Buddha-Bar X FG. (2016)\08. Lil'm - Faded.wav

Peak level 100.0 %
Extraction speed 3.1 X
Track quality 99.9 %
Test CRC F6693CD1
Copy CRC F6693CD1
Accurately ripped (confidence 4) [014268A0] (AR v2)
Copy OK

Track 9

Filename I:\AUDIO I\Ambient - Chill Out - Lounge - Easy Listening - Electronic (исполнители и сборники)\ Buddha-Bar Beach Saint-Tropez (By Buddha-Bar X FG. (2016)\09. Croatia Squad & Lika Morgan - Make Your Move.wav

Peak level 100.0 %
Extraction speed 3.4 X
Track quality 100.0 %
Test CRC 7356727F
Copy CRC 7356727F
Accurately ripped (confidence 4) [DD7A25E2] (AR v2)
Copy OK

Track 10

Filename I:\AUDIO I\Ambient - Chill Out - Lounge - Easy Listening - Electronic (исполнители и сборники)\ Buddha-Bar Beach Saint-Tropez (By Buddha-Bar X FG. (2016)\10. Mat.Joe - Make A Living.wav

Peak level 100.0 %
Extraction speed 3.7 X
Track quality 100.0 %
Test CRC 8275502A
Copy CRC 8275502A
Accurately ripped (confidence 4) [B02AA723] (AR v2)
Copy OK

Track 11

Filename I:\AUDIO I\Ambient - Chill Out - Lounge - Easy Listening - Electronic (исполнители и сборники)\ Buddha-Bar Beach Saint-Tropez (By Buddha-Bar X FG. (2016)\11. Frey & Waxy - Club Crusher.wav

Peak level 100.0 %
Extraction speed 3.8 X
Track quality 100.0 %
Test CRC 709312C9
Copy CRC 709312C9
Accurately ripped (confidence 4) [CC6AC3AA] (AR v2)
Copy OK

Track 12

Filename I:\AUDIO I\Ambient - Chill Out - Lounge - Easy Listening - Electronic (исполнители и сборники)\ Buddha-Bar Beach Saint-Tropez (By Buddha-Bar X FG. (2016)\12. Zsak & Crazibiza - Sun Goes Down.wav

Peak level 100.0 %
Extraction speed 3.9 X
Track quality 100.0 %
Test CRC D8C3914A
Copy CRC D8C3914A
Accurately ripped (confidence 4) [6A1B4E89] (AR v2)
Copy OK

Track 13

Filename I:\AUDIO I\Ambient - Chill Out - Lounge - Easy Listening - Electronic (исполнители и сборники)\ Buddha-Bar Beach Saint-Tropez (By Buddha-Bar X FG. (2016)\13. Mat.Joe - Nighthawk.wav

Peak level 100.0 %
Extraction speed 4.1 X
Track quality 100.0 %
Test CRC 6EB8A62F
Copy CRC 6EB8A62F
Accurately ripped (confidence 4) [30ECC505] (AR v2)
Copy OK

Track 14

Filename I:\AUDIO I\Ambient - Chill Out - Lounge - Easy Listening - Electronic (исполнители и сборники)\ Buddha-Bar Beach Saint-Tropez (By Buddha-Bar X FG. (2016)\14. Milk & Sugar Ft. Nomfusi - Heat.wav

Peak level 100.0 %
Extraction speed 4.2 X
Track quality 100.0 %
Test CRC 4ED9EF1F
Copy CRC 4ED9EF1F
Accurately ripped (confidence 4) [AACF3A86] (AR v2)
Copy OK

Track 15

Filename I:\AUDIO I\Ambient - Chill Out - Lounge - Easy Listening - Electronic (исполнители и сборники)\ Buddha-Bar Beach Saint-Tropez (By Buddha-Bar X FG. (2016)\15. Corderoy - Close My Eyes.wav

Peak level 100.0 %
Extraction speed 4.3 X
Track quality 100.0 %
Test CRC E0D9C166
Copy CRC E0D9C166
Accurately ripped (confidence 4) [C63AA472] (AR v2)
Copy OK

Track 16

Filename I:\AUDIO I\Ambient - Chill Out - Lounge - Easy Listening - Electronic (исполнители и сборники)\ Buddha-Bar Beach Saint-Tropez (By Buddha-Bar X FG. (2016)\16. Peppino Di Capri - St. Tropez Twist.wav

Peak level 100.0 %
Extraction speed 3.1 X
Track quality 99.9 %
Test CRC D6756CC4
Copy CRC D6756CC4
Accurately ripped (confidence 4) [166C811F] (AR v2)
Copy OK


All tracks accurately ripped

No errors occurred

End of status report

–– CUETools DB Plugin V2.1.6

[CTDB TOCID: _uo_31llHNxflkbXawo8NFoZuLM-] found
Submit result: _uo_31llHNxflkbXawo8NFoZuLM- has been confirmed
Track | CTDB Status
1 | (8/8) Accurately ripped
2 | (8/8) Accurately ripped
3 | (8/8) Accurately ripped
4 | (8/8) Accurately ripped
5 | (8/8) Accurately ripped
6 | (8/8) Accurately ripped
7 | (8/8) Accurately ripped
8 | (8/8) Accurately ripped
9 | (8/8) Accurately ripped
10 | (8/8) Accurately ripped
11 | (7/8) Accurately ripped
12 | (8/8) Accurately ripped
13 | (8/8) Accurately ripped
14 | (8/8) Accurately ripped
15 | (8/8) Accurately ripped
16 | (8/8) Accurately ripped


==== Log checksum DCF27251792A637FB24E02723DA1DA80D175E25DFA0A74624F45ADFDF0CDDE84 ====

foobar2000 1.2 / Dynamic Range Meter 1.1.1
log date: 2017-09-04 17:04:36

––––––––––––––––––––––––––––––––––––––––
Analyzed: Corderoy / Buddha Bar Beach St. Tropez (1)
Croatia Squad & Lika Morgan / Buddha Bar Beach St. Tropez (2)
Frey & Waxy / Buddha Bar Beach St. Tropez (3)
Jazzyfunk Ft. Damon Trueitt / Buddha Bar Beach St. Tropez (4)
Lif3Blood / Buddha Bar Beach St. Tropez (5)
Lil'm / Buddha Bar Beach St. Tropez (6)
Lissat & Voltaxx Ft. Jenniffer Kae / Buddha Bar Beach St. Tropez (7)
Mat.Joe / Buddha Bar Beach St. Tropez (8-9)
Mhe / Buddha Bar Beach St. Tropez (10)
Milk & Sugar Ft. Nomfusi / Buddha Bar Beach St. Tropez (11)
Peppino Di Capri / Buddha Bar Beach St. Tropez (12)
Vendredi Sur Mer / Buddha Bar Beach St. Tropez (13)
Ynot & Cosmo Klein / Buddha Bar Beach St. Tropez (14)
Zsak & Crazibiza / Buddha Bar Beach St. Tropez (15)
––––––––––––––––––––––––––––––––––––––––

DR Peak RMS Duration Track
––––––––––––––––––––––––––––––––––––––––
DR5 0.00 dB -5.89 dB 4:48 15-Close My Eyes
DR4 0.00 dB -5.49 dB 4:41 09-Make Your Move
DR5 0.00 dB -6.15 dB 4:20 11-Club Crusher
DR4 -0.10 dB -6.37 dB 5:48 05-Blue Marlins
DR7 -0.10 dB -8.66 dB 3:15 04-Like The Sunshine
DR5 0.00 dB -6.27 dB 5:15 08-Faded
DR5 0.00 dB -5.49 dB 6:49 07-Will You Be Gone
DR5 0.00 dB -6.52 dB 6:18 10-Make A Living
DR4 0.00 dB -5.32 dB 5:39 13-Nighthawk
DR8 -0.06 dB -9.39 dB 5:25 03-The Sound Of Silence
DR4 0.00 dB -6.03 dB 5:14 14-Heat
DR7 0.00 dB -7.77 dB 2:15 16-St. Tropez Twist
DR5 -0.18 dB -6.80 dB 3:26 02-La Femme A La Peau Bleue
DR3 0.00 dB -4.45 dB 6:33 06-When Doves Cry
DR4 0.00 dB -4.99 dB 4:23 12-Sun Goes Down
––––––––––––––––––––––––––––––––––––––––

Number of tracks: 15
Official DR value: DR5

Samplerate: 44100 Hz
Channels: 2
Bits per sample: 16
Bitrate: 991 kbps
Codec: FLAC
================================================================================

VA - Buddha Bar Beach: Saint Tropez (2016) [Re-Up]

VA - Buddha Bar Beach: Saint Tropez (2016) [Re-Up]

All thanks to original releaser - Oleandris

More interesting music in My Blog